VERSION	0.00.00	1.03.00
FES_MODE	0
BPM_DEF	161.000	161.000	161.000	161.000
MET_DEF	4	4
RESOLUTION	384
CLK_DEF	384
COMPATIBLE_CODE	MA2

BPM	0	0	161.000

TAP	2	0	0
TAP	3	0	7
TAP	4	0	0
TAP	5	0	7
TAP	6	0	0
TAP	6	0	1
TAP	7	0	6
TAP	7	0	7
TAP	8	0	0
TAP	8	0	1
TAP	9	0	6
TAP	9	0	7
TAP	10	0	0
TAP	10	192	0
TAP	11	0	1
TAP	11	192	1
TAP	12	0	2
TAP	12	192	2
HLD	13	0	3	192
TAP	14	0	4
TAP	14	192	4
TAP	15	0	5
TAP	15	192	5
TAP	16	0	6
TAP	16	192	6
TAP	17	0	7
BRK	17	192	0
BRK	17	192	7
TAP	18	0	7
TAP	18	96	7
TAP	18	192	7
TAP	19	0	7
TAP	19	96	7
TAP	19	192	7
TAP	20	0	6
TAP	20	96	6
TAP	20	192	6
TAP	21	0	6
TAP	21	96	6
TAP	21	192	6
TAP	22	0	5
TAP	22	96	5
TAP	22	192	5
TAP	23	0	5
TAP	23	96	5
TAP	23	192	5
TAP	24	0	4
TAP	24	96	4
TAP	24	192	4
HLD	25	0	3	192
HLD	25	0	4	192
TAP	26	0	3
TAP	26	96	3
TAP	26	192	3
TAP	27	0	3
TAP	27	96	3
TAP	27	192	3
TAP	28	0	2
TAP	28	96	2
TAP	28	192	2
TAP	29	0	2
TAP	29	96	2
TAP	29	192	2
TAP	30	0	1
TAP	30	96	1
TAP	30	192	1
TAP	31	0	1
TAP	31	96	1
TAP	31	192	1
TAP	32	0	0
TAP	32	96	0
TAP	32	192	0
BRK	33	0	0
BRK	33	0	7
STR	34	0	0
SI_	34	0	0	96	288	4
STR	36	0	7
SI_	36	0	7	96	288	3
STR	38	0	1
SI_	38	0	1	96	288	4
TAP	40	0	6
TAP	40	192	6
TAP	41	0	5
TAP	41	96	5
TAP	41	192	5
TAP	42	0	4
TAP	42	96	4
TAP	42	192	4
TAP	43	0	3
TAP	43	96	3
TAP	43	192	3
TAP	44	0	2
TAP	44	0	3
TAP	44	192	2
TAP	44	192	3
TAP	45	0	1
TAP	45	96	1
TAP	45	192	1
TAP	46	0	0
TAP	46	96	0
TAP	46	192	0
TAP	47	0	7
TAP	47	96	7
TAP	47	192	7
HLD	48	0	0	192
HLD	49	0	7	192
HLD	50	0	0	192
TAP	51	0	7
TAP	51	96	7
BRK	51	192	7
HLD	52	0	7	192
HLD	53	0	0	192
HLD	54	0	7	192
TAP	55	0	0
TAP	55	96	0
BRK	55	192	0
TAP	56	0	1
TAP	56	96	1
TAP	56	192	2
TAP	56	288	2
TAP	57	0	3
TAP	57	96	3
TAP	57	192	4
TAP	57	288	4
TAP	58	0	5
TAP	58	96	5
TAP	58	192	6
TAP	58	288	6
TAP	59	0	7
TAP	59	96	7
BRK	59	192	0
BRK	59	192	7
TAP	60	0	6
TAP	60	96	6
TAP	60	192	5
TAP	60	288	5
TAP	61	0	4
TAP	61	96	4
TAP	61	192	3
TAP	61	288	3
TAP	62	0	2
TAP	62	96	2
TAP	62	192	1
TAP	62	288	1
TAP	63	0	0
TAP	63	96	0
BRK	63	192	0
BRK	63	192	7
TAP	64	0	0
TAP	64	96	0
TAP	64	192	2
TAP	64	288	2
TAP	65	0	4
TAP	65	96	4
TAP	65	192	6
TAP	65	288	6
TAP	66	0	4
TAP	66	96	3
TAP	66	192	2
TAP	66	288	1
TAP	67	0	0
TAP	67	96	0
BRK	67	192	0
BRK	67	192	7
TAP	68	0	7
TAP	68	96	7
TAP	68	192	5
TAP	68	288	5
TAP	69	0	3
TAP	69	96	3
TAP	69	192	1
TAP	69	288	1
TAP	70	0	3
TAP	70	96	4
TAP	70	192	5
TAP	70	288	6
TAP	71	0	7
TAP	71	96	7
TAP	71	192	0
BRK	71	288	0
TAP	72	0	1
TAP	72	96	1
TAP	72	192	1
TAP	73	0	2
TAP	73	96	2
TAP	73	192	2
TAP	74	0	3
TAP	74	96	3
TAP	74	192	3
TAP	75	0	4
TAP	75	96	3
TAP	75	192	4
TAP	76	0	4
TAP	76	96	4
TAP	76	192	4
TAP	77	0	5
TAP	77	96	5
TAP	77	192	5
TAP	78	0	6
TAP	78	96	6
TAP	78	192	6
HLD	79	0	0	192
HLD	79	0	7	192
TAP	80	0	6
TAP	80	96	6
TAP	80	192	6
TAP	81	0	5
TAP	81	96	5
TAP	81	192	5
TAP	82	0	4
TAP	82	96	4
TAP	82	192	4
TAP	83	0	3
TAP	83	96	4
TAP	83	192	3
TAP	84	0	3
TAP	84	96	3
TAP	84	192	3
TAP	85	0	2
TAP	85	96	2
TAP	85	192	2
TAP	86	0	1
TAP	86	96	1
TAP	86	192	1
BRK	87	0	0
BRK	87	0	7

T_REC_TAP	194
T_REC_BRK	15
T_REC_XTP	0
T_REC_HLD	11
T_REC_XHO	0
T_REC_STR	3
T_REC_BST	0
T_REC_XST	0
T_REC_TTP	0
T_REC_THO	0
T_REC_SLD	3
T_REC_ALL	226
T_NUM_TAP	197
T_NUM_BRK	15
T_NUM_HLD	11
T_NUM_SLD	3
T_NUM_ALL	226
T_JUDGE_TAP	212
T_JUDGE_HLD	44
T_JUDGE_SLD	3
T_JUDGE_ALL	259
TTM_EACHPAIRS	14
TTM_SCR_TAP	98500
TTM_SCR_BRK	39000
TTM_SCR_HLD	11000
TTM_SCR_SLD	4500
TTM_SCR_ALL	153000
TTM_SCR_S	147000
TTM_SCR_SS	151500
TTM_RAT_ACV	10099

