VERSION	0.00.00	1.05.00
FES_MODE	0
BPM_DEF	180.000	180.000	180.000	180.000
MET_DEF	4	4
RESOLUTION	384
CLK_DEF	384
COMPATIBLE_CODE	MA2

BPM	0	0	180.000
MET	0	0	4	4
MET	26	0	4	5
MET	27	96	4	4

NMTAP	1	0	5
NMTAP	1	24	4
NMTAP	1	48	5
NMTAP	1	72	4
NMTAP	1	96	5
NMTAP	1	120	4
NMTAP	1	144	3
NMHLD	1	144	6	528
NMTAP	2	0	4
NMTAP	2	96	4
NMTAP	2	192	3
NMTAP	2	288	2
NMTAP	3	0	2
NMTAP	3	24	3
NMTAP	3	48	2
NMTAP	3	72	3
NMTAP	3	96	2
NMTAP	3	120	3
NMHLD	3	144	1	336
NMTAP	3	144	4
NMTAP	4	0	3
NMTAP	4	96	3
NMTAP	4	192	4
NMTAP	4	216	2
NMTAP	4	240	4
NMTAP	4	288	3
NMTAP	4	312	5
NMTAP	4	336	3
NMTAP	5	0	4
NMTAP	5	24	3
NMTAP	5	48	4
NMTAP	5	72	3
NMTAP	5	96	4
NMTAP	5	120	3
NMTAP	5	144	4
NMTAP	5	240	2
NMTAP	5	240	5
NMTAP	5	336	3
NMTAP	6	0	2
NMTAP	6	0	4
NMTAP	6	96	3
NMTAP	6	96	5
NMTAP	6	192	1
NMTAP	6	192	4
NMTAP	6	288	3
NMTAP	6	288	6
NMTAP	7	0	5
NMTAP	7	24	3
NMTAP	7	48	5
NMTAP	7	96	2
NMTAP	7	120	4
NMTAP	7	144	2
NMTAP	7	192	6
NMTAP	7	216	3
NMTAP	7	240	6
NMTAP	7	288	1
NMTAP	7	312	4
NMTAP	7	336	1
NMTAP	8	0	7
NMTAP	8	24	6
NMTAP	8	48	5
NMTAP	8	72	4
NMTAP	8	96	3
NMTAP	8	120	2
NMTAP	8	144	1
NMTAP	8	168	0
NMTAP	8	192	7
NMTAP	8	216	6
NMTAP	8	240	5
NMTAP	8	264	4
NMTAP	8	288	2
NMTAP	8	288	3
NMSTR	9	0	0
NMSI_	9	0	0	96	48	3
NMTAP	9	96	0
NMTAP	9	96	6
NMSTR	9	144	6
NMSI_	9	144	6	96	48	2
NMTAP	9	240	1
NMSTR	9	288	1
NMSI_	9	288	1	96	48	5
NMTAP	10	0	1
NMSTR	10	0	4
NMSI_	10	0	4	96	48	7
NMSTR	10	96	2
NMSI_	10	96	2	96	48	6
NMTAP	10	96	4
NMTAP	10	192	2
NMSTR	10	192	7
NMSI_	10	192	7	96	48	4
NMTAP	10	288	7
NMSTR	11	0	3
NMSI_	11	0	3	96	24	1
NMTAP	11	96	3
NMTAP	11	96	4
NMSTR	11	192	4
NMSI_	11	192	4	96	24	6
NMTAP	11	288	3
NMTAP	11	288	4
NMSTR	12	0	3
NMSCL	12	0	3	96	96	0
NMSTR	12	96	0
NMSCL	12	96	0	96	96	5
NMSTR	12	192	5
NMSCL	12	192	5	96	96	2
NMTAP	12	288	2
NMSTR	13	0	7
NMSI_	13	0	7	96	48	4
NMTAP	13	96	1
NMTAP	13	96	7
NMSTR	13	144	1
NMSI_	13	144	1	96	48	4
NMTAP	13	240	6
NMSTR	13	288	6
NMSI_	13	288	6	96	48	2
NMSTR	14	0	3
NMSI_	14	0	3	96	48	0
NMTAP	14	0	6
NMTAP	14	96	3
NMSTR	14	96	5
NMSI_	14	96	5	96	48	1
NMSTR	14	192	0
NMSI_	14	192	0	96	48	3
NMTAP	14	192	5
NMTAP	14	288	0
NMSTR	15	0	4
NMSI_	15	0	4	96	24	6
NMTAP	15	96	3
NMTAP	15	96	4
NMSTR	15	192	3
NMSI_	15	192	3	96	24	1
NMTAP	15	288	3
NMTAP	15	288	4
NMTAP	16	0	1
NMTAP	16	0	4
NMTAP	16	64	3
NMTAP	16	64	6
NMTAP	16	128	0
NMTAP	16	128	7
BRSTR	16	192	1
NMSI_	16	192	1	96	48	5
BRTAP	16	192	6
NMTAP	16	288	1
NMTAP	17	0	6
NMTAP	17	0	7
NMTAP	17	48	0
NMTAP	17	96	7
NMTAP	17	144	0
NMTAP	17	144	1
NMTAP	17	240	2
NMTAP	17	288	2
NMTAP	17	288	3
NMSTR	17	336	1
NMSI_	17	336	1	96	48	4
NMTAP	17	336	4
NMTAP	18	48	5
NMTAP	18	96	6
NMHLD	18	144	7	96
NMTAP	18	240	4
NMTAP	18	288	3
NMTAP	18	288	6
NMTAP	18	336	2
NMTAP	18	336	5
NMTAP	19	0	1
NMTAP	19	0	4
NMTAP	19	48	2
NMTAP	19	96	3
NMTAP	19	144	1
NMTAP	19	144	4
NMTAP	19	240	6
NMTAP	19	288	6
NMTAP	19	288	7
NMTAP	19	336	0
NMSTR	19	336	5
NMSI_	19	336	5	96	48	0
NMTAP	20	48	1
NMTAP	20	96	2
NMTAP	20	144	2
NMTAP	20	192	3
NMTAP	20	216	7
NMTAP	20	240	2
NMTAP	20	264	6
NMTAP	20	288	1
NMTAP	20	336	2
NMTAP	20	336	5
NMTAP	21	0	3
NMTAP	21	0	4
NMTAP	21	48	3
NMTAP	21	96	4
NMSTR	21	144	1
NMSI_	21	144	1	96	48	4
NMTAP	21	144	6
NMTAP	21	240	5
NMTAP	21	288	6
NMHLD	21	336	7	96
NMTAP	22	48	1
NMTAP	22	96	2
NMTAP	22	96	6
NMTAP	22	144	3
NMSTR	22	192	1
NMSI_	22	192	1	96	48	4
NMSTR	22	192	6
NMSI_	22	192	6	96	48	3
NMTAP	22	288	1
NMTAP	22	288	6
NMSTR	23	0	1
NMSI_	23	0	1	96	48	6
NMSTR	23	48	5
NMSI_	23	48	5	96	48	2
NMTAP	23	240	0
NMTAP	23	288	7
NMTAP	23	336	1
NMTAP	23	336	6
NMTAP	24	0	2
NMTAP	24	24	3
NMTAP	24	48	1
NMTAP	24	96	5
NMTAP	24	120	4
NMTAP	24	144	6
NMTAP	24	192	0
NMTAP	24	240	0
NMTAP	24	288	1
NMTAP	24	288	6
NMSTR	25	0	2
NMSI_	25	0	2	96	48	0
NMTAP	25	0	4
NMTAP	25	96	2
NMTAP	25	96	3
NMTAP	25	192	3
NMSTR	25	192	5
NMSI_	25	192	5	96	48	7
NMTAP	25	288	4
NMTAP	25	288	5
NMSTR	26	0	0
NMSI_	26	0	0	96	48	4
NMTAP	26	0	4
NMTAP	26	96	0
NMTAP	26	96	5
NMTAP	26	192	6
NMSTR	26	240	6
NMSI_	26	240	6	96	48	2
NMTAP	26	336	1
NMTAP	27	0	1
NMSTR	27	96	0
NMSI_	27	96	0	96	48	2
NMHLD	27	96	6	96
NMTAP	27	192	0
NMHLD	27	240	7	144
NMTAP	27	336	3
NMTAP	28	0	3
NMSTR	28	96	3
NMSI_	28	96	3	96	48	1
NMHLD	28	96	5	96
NMTAP	28	192	3
NMHLD	28	240	4	144
NMTAP	28	336	0
NMTAP	29	0	0
NMSTR	29	96	1
NMSI_	29	96	1	96	48	4
NMTAP	29	96	6
NMTAP	29	192	1
NMSTR	29	192	6
NMSI_	29	192	6	96	48	3
NMSTR	29	288	0
NMSI_	29	288	0	96	48	4
NMTAP	29	288	6
NMTAP	30	0	0
NMTAP	30	0	7
NMSTR	30	96	6
NMSCR	30	96	6	96	96	1
NMSTR	30	192	1
NMSCR	30	192	1	96	96	4
NMSTR	30	288	4
NMSCR	30	288	4	96	96	7
NMTAP	31	0	7
NMTAP	31	96	0
NMTAP	31	192	1
NMSTR	31	240	1
NMSCR	31	240	1	96	48	3
NMHLD	31	240	7	144
NMTAP	32	96	7
NMTAP	32	192	0
NMSTR	32	240	0
NMSCL	32	240	0	96	48	5
NMHLD	32	240	6	144
NMTAP	33	96	3
NMSTR	33	96	7
NMSI_	33	96	7	96	48	3
NMTAP	33	192	1
NMTAP	33	192	7
NMSTR	33	240	1
NMSI_	33	240	1	96	48	4
NMTAP	33	336	5
NMSTR	34	0	5
NMSI_	34	0	5	96	48	0
NMTAP	34	96	1
NMTAP	34	96	5
NMTAP	34	192	3
NMSTR	34	240	3
NMSI_	34	240	3	96	48	0
NMTAP	34	336	6
NMTAP	35	0	6
NMHLD	35	96	1	96
NMSTR	35	96	7
NMSI_	35	96	7	96	48	5
NMTAP	35	192	7
NMHLD	35	240	0	144
NMTAP	35	336	4
NMTAP	36	0	4
NMHLD	36	96	2	96
NMSTR	36	96	4
NMSI_	36	96	4	96	48	6
NMTAP	36	192	4
NMHLD	36	240	3	144
NMTAP	36	336	7
NMTAP	37	0	7
NMTAP	37	96	1
NMSTR	37	96	6
NMSI_	37	96	6	96	48	3
NMSTR	37	192	1
NMSI_	37	192	1	96	48	4
NMTAP	37	192	6
NMTAP	37	288	1
NMSTR	37	288	7
NMSI_	37	288	7	96	48	3
NMTAP	38	0	0
NMTAP	38	0	7
NMSTR	38	96	1
NMSCL	38	96	1	96	96	6
NMSTR	38	192	6
NMSCL	38	192	6	96	96	3
NMSTR	38	288	3
NMSCL	38	288	3	96	96	0
NMTAP	39	0	0
NMTAP	39	96	7
NMTAP	39	192	6
NMHLD	39	240	0	144
NMSTR	39	240	6
NMSCL	39	240	6	96	48	4
NMTAP	40	96	0
NMTAP	40	192	7
NMHLD	40	240	1	144
NMSTR	40	240	7
NMSCR	40	240	7	96	48	2
NMSTR	41	96	0
NMSI_	41	96	0	96	48	3
NMTAP	41	144	7
NMTAP	41	192	6
NMSTR	41	240	5
NMSI_	41	240	5	96	48	0
NMTAP	41	288	4
NMTAP	41	336	3
NMTAP	42	0	2
NMSTR	42	96	7
NMSI_	42	96	7	96	48	4
NMTAP	42	144	0
NMTAP	42	192	1
NMSTR	42	240	2
NMSI_	42	240	2	96	48	7
NMTAP	42	288	3
NMTAP	42	336	4
NMTAP	43	0	5
NMSTR	43	96	0
NMSI_	43	96	0	96	48	5
NMTAP	43	192	0
NMSTR	43	240	7
NMSI_	43	240	7	96	48	2
NMTAP	43	336	7
NMSTR	44	0	3
NMSCL	44	0	3	96	48	0
NMTAP	44	96	3
NMTAP	44	192	7
NMTAP	44	216	6
NMTAP	44	240	5
NMTAP	44	264	4
NMTAP	44	288	2
NMSTR	44	288	3
NMSI_	44	288	3	96	48	7
NMTAP	45	0	0
NMSTR	45	96	0
NMSCR	45	96	0	96	48	3
NMTAP	45	144	7
NMTAP	45	192	6
NMSTR	45	240	5
NMSCR	45	240	5	96	48	0
NMTAP	45	288	4
NMTAP	45	336	3
NMTAP	46	0	2
NMSTR	46	96	7
NMSCL	46	96	7	96	48	4
NMTAP	46	144	0
NMTAP	46	192	1
NMSTR	46	240	2
NMSCL	46	240	2	96	48	7
NMTAP	46	288	3
NMTAP	46	336	4
NMTAP	47	0	5
NMTAP	47	96	0
NMHLD	47	96	4	96
NMTAP	47	144	1
NMTAP	47	192	2
NMTAP	47	240	3
NMTAP	47	240	4
NMTAP	47	288	2
NMTAP	47	288	5
NMTAP	47	336	1
NMTAP	47	336	6
NMTAP	48	0	0
NMTAP	48	0	7
NMTAP	48	96	0
NMTAP	48	96	6
NMTAP	48	192	3
NMTAP	48	240	1
NMTAP	48	240	7
NMTAP	48	336	4
NMTAP	49	0	1
NMTAP	49	0	6
NMSTR	49	96	7
NMSI_	49	96	7	96	48	4
NMTAP	49	144	0
NMTAP	49	192	1
NMSTR	49	240	2
NMSI_	49	240	2	96	48	7
NMTAP	49	288	3
NMTAP	49	336	4
NMTAP	50	0	5
NMSTR	50	96	0
NMSI_	50	96	0	96	48	3
NMTAP	50	144	7
NMTAP	50	192	6
NMSTR	50	240	5
NMSI_	50	240	5	96	48	0
NMTAP	50	288	4
NMTAP	50	336	3
NMTAP	51	0	2
NMSTR	51	96	7
NMSI_	51	96	7	96	48	2
NMTAP	51	192	7
NMSTR	51	240	0
NMSI_	51	240	0	96	48	5
NMTAP	51	336	0
NMSTR	52	0	4
NMSCR	52	0	4	96	48	7
NMTAP	52	96	4
NMTAP	52	192	0
NMTAP	52	216	1
NMTAP	52	240	2
NMTAP	52	264	3
NMSTR	52	288	4
NMSI_	52	288	4	96	48	0
NMTAP	52	288	5
NMTAP	53	0	7
NMSTR	53	96	7
NMSCL	53	96	7	96	48	4
NMTAP	53	144	0
NMTAP	53	192	1
NMSTR	53	240	2
NMSCL	53	240	2	96	48	7
NMTAP	53	288	3
NMTAP	53	336	4
NMTAP	54	0	5
NMSTR	54	96	0
NMSCR	54	96	0	96	48	3
NMTAP	54	144	7
NMTAP	54	192	6
NMSTR	54	240	5
NMSCR	54	240	5	96	48	0
NMTAP	54	288	4
NMTAP	54	336	3
NMTAP	55	0	2
NMHLD	55	96	3	96
NMTAP	55	96	7
NMTAP	55	144	6
NMTAP	55	192	5
NMTAP	55	240	3
NMTAP	55	240	4
NMTAP	55	288	2
NMTAP	55	288	5
NMTAP	55	336	1
NMTAP	55	336	6
NMTAP	56	0	0
NMTAP	56	0	7
NMTAP	56	96	1
NMTAP	56	96	7
NMTAP	56	192	4
NMTAP	56	240	0
NMTAP	56	240	6
NMTAP	56	336	3
BRSTR	57	0	0
NMSCR	57	0	0	96	48	3
BRSTR	57	0	4
NMSCR	57	0	4	96	48	7
NMSTR	57	96	0
NMSV_	57	96	0	96	48	5
NMSTR	57	96	4
NMSV_	57	96	4	96	48	1
NMTAP	57	192	0
NMTAP	57	192	4
NMTAP	57	288	1
NMSTR	57	336	0
NMSCR	57	336	0	96	192	7
NMTAP	58	0	7
NMHLD	58	48	6	192
NMSTR	58	336	1
NMSI_	58	336	1	96	48	4
NMTAP	59	48	7
NMSTR	59	96	7
NMSI_	59	96	7	96	48	4
NMTAP	59	192	0
NMTAP	59	192	7
NMTAP	59	288	1
NMTAP	59	336	5
NMTAP	60	0	0
NMSTR	60	48	0
NMSI_	60	48	0	96	48	4
NMTAP	60	48	4
NMTAP	60	144	6
NMSTR	60	192	6
NMSI_	60	192	6	96	48	2
NMTAP	60	288	0
NMTAP	60	288	6
NMTAP	61	0	2
NMTAP	61	0	3
NMSTR	61	48	2
NMSI_	61	48	2	96	48	7
NMTAP	61	48	4
NMTAP	61	144	6
NMSTR	61	192	6
NMSI_	61	192	6	96	48	3
NMTAP	61	288	0
NMTAP	61	288	6
NMTAP	62	0	2
NMTAP	62	0	5
NMTAP	62	48	3
NMSTR	62	48	5
NMSI_	62	48	5	96	48	0
NMTAP	62	144	1
NMSTR	62	192	1
NMSI_	62	192	1	96	48	4
NMTAP	62	288	1
NMTAP	62	288	7
NMTAP	63	0	3
NMTAP	63	0	6
NMTAP	63	48	1
NMSTR	63	48	6
NMSI_	63	48	6	96	48	3
NMTAP	63	144	1
NMSTR	63	192	1
NMSI_	63	192	1	96	48	4
NMTAP	63	288	1
NMTAP	63	288	7
NMTAP	64	0	0
NMTAP	64	0	7
NMTAP	64	48	1
NMTAP	64	48	6
NMTAP	64	144	2
NMTAP	64	168	3
NMTAP	64	192	1
NMTAP	64	240	5
NMTAP	64	264	4
NMTAP	64	288	6
NMTAP	64	336	3
NMTAP	64	336	4
BRSTR	65	0	3
NMSCL	65	0	3	96	48	0
BRSTR	65	0	7
NMSCL	65	0	7	96	48	4
NMSTR	65	96	3
NMSV_	65	96	3	96	48	6
NMSTR	65	96	7
NMSV_	65	96	7	96	48	2
NMTAP	65	192	3
NMTAP	65	192	7
NMTAP	65	288	6
NMSTR	65	336	7
NMSCL	65	336	7	96	192	0
NMTAP	66	0	0
NMHLD	66	48	1	192
NMSTR	66	336	6
NMSI_	66	336	6	96	48	3
NMTAP	67	48	0
NMSTR	67	96	0
NMSI_	67	96	0	96	48	3
NMTAP	67	192	0
NMTAP	67	192	7
NMTAP	67	288	6
NMTAP	67	336	2
NMTAP	68	0	7
NMTAP	68	48	3
NMSTR	68	48	7
NMSI_	68	48	7	96	48	3
NMTAP	68	144	1
NMSTR	68	192	1
NMSI_	68	192	1	96	48	5
NMTAP	68	288	1
NMTAP	68	288	7
NMTAP	69	0	4
NMTAP	69	0	5
NMTAP	69	48	3
NMSTR	69	48	5
NMSI_	69	48	5	96	48	0
NMTAP	69	144	1
NMSTR	69	192	1
NMSI_	69	192	1	96	48	4
NMTAP	69	288	1
NMTAP	69	288	7
NMTAP	70	0	2
NMTAP	70	0	5
NMSTR	70	48	2
NMSI_	70	48	2	96	48	7
NMTAP	70	48	4
NMTAP	70	144	6
NMSTR	70	192	6
NMSI_	70	192	6	96	48	3
NMTAP	70	288	0
NMTAP	70	288	6
NMTAP	71	0	3
NMTAP	71	0	4
BRTAP	71	48	1
BRTAP	71	48	6
BRTAP	71	144	0
BRTAP	71	192	0
NMTAP	71	288	6
NMTAP	71	312	7
NMTAP	71	336	6
NMTAP	72	0	2
NMTAP	72	24	3
NMTAP	72	48	2
NMTAP	72	96	6
NMTAP	72	120	7
NMTAP	72	144	5
NMTAP	72	168	0
NMTAP	72	192	4
NMTAP	72	216	1
NMTAP	72	240	3
NMTAP	72	288	2
NMTAP	72	288	3
NMTAP	72	336	1
NMTAP	72	336	4
BRTAP	73	0	2
BRSTR	73	0	6
NMSV_	73	0	6	96	144	4
NMTAP	73	96	3
NMTAP	73	192	3
NMTAP	73	288	3
NMTAP	74	0	3
NMSTR	74	0	4
NMSV_	74	0	4	96	144	7
NMTAP	74	96	3
NMTAP	74	192	2
NMTAP	74	288	1
NMTAP	75	0	1
NMSTR	75	0	6
NMSV_	75	0	6	96	144	4
NMTAP	75	96	2
NMTAP	75	192	3
NMTAP	75	288	3
NMHLD	76	0	3	192
NMTAP	76	0	4
NMTAP	76	96	4
NMTAP	76	192	4
NMTAP	76	288	2
NMTAP	76	288	5
NMSTR	77	0	4
NMSCR	77	0	4	96	144	7
NMTAP	77	96	2
NMTAP	77	192	1
NMTAP	77	288	2
NMSTR	78	0	3
NMSCL	78	0	3	96	144	0
NMTAP	78	96	5
NMTAP	78	192	6
NMTAP	78	288	5
NMSTR	79	0	4
NMSCR	79	0	4	96	144	7
NMTAP	79	96	2
NMTAP	79	192	1
NMSTR	79	288	2
NMSLR	79	288	2	96	192	7
NMSTR	79	288	5
NMSLL	79	288	5	96	192	0
NMTAP	80	288	0
NMTAP	80	288	7
NMTAP	80	336	0
NMTAP	80	336	7
NMSTR	81	0	1
NMSI_	81	0	1	96	48	3
NMTAP	81	0	6
NMTAP	81	96	6
NMSTR	81	192	0
NMSI_	81	192	0	96	48	2
NMTAP	81	192	6
NMTAP	81	288	5
NMSTR	82	0	1
NMSI_	82	0	1	96	48	3
NMTAP	82	0	4
NMTAP	82	96	4
NMSTR	82	192	0
NMSI_	82	192	0	96	48	2
NMTAP	82	192	5
NMTAP	82	288	6
NMSTR	83	0	1
NMSI_	83	0	1	96	48	3
NMTAP	83	0	6
NMTAP	83	96	5
NMSTR	83	192	0
NMSI_	83	192	0	96	48	2
NMTAP	83	192	4
NMTAP	83	288	4
NMSTR	84	0	1
NMSI_	84	0	1	96	48	3
NMTAP	84	0	5
NMSTR	84	96	6
NMSI_	84	96	6	96	48	4
NMTAP	84	192	0
NMTAP	84	288	2
NMTAP	84	288	6
NMSTR	84	336	2
NMSI_	84	336	2	96	48	7
NMSTR	84	336	6
NMSI_	84	336	6	96	48	3
NMTAP	85	48	2
NMTAP	85	48	6
NMTAP	85	144	0
NMTAP	85	192	0
NMTAP	85	192	4
NMTAP	85	288	1
NMTAP	85	288	5
NMSTR	85	336	1
NMSI_	85	336	1	96	48	4
NMSTR	85	336	5
NMSI_	85	336	5	96	48	0
NMTAP	86	48	1
NMTAP	86	48	5
NMTAP	86	144	7
NMTAP	86	192	3
NMTAP	86	192	7
NMTAP	86	288	0
NMTAP	86	288	4
NMTAP	86	336	0
NMSTR	86	336	4
NMSCR	86	336	4	96	240	3
NMTAP	87	48	0
NMTAP	87	48	4
NMTAP	88	0	1
NMTAP	88	0	5
NMTAP	88	96	2
NMTAP	88	120	7
NMTAP	88	144	2
NMTAP	88	168	7
NMTAP	88	192	1
NMTAP	88	216	6
NMTAP	88	240	1
NMTAP	88	264	6
NMTAP	88	288	1
NMTAP	88	300	0
NMTAP	88	312	7
NMTAP	88	324	6
NMTAP	88	336	5
NMTAP	88	348	4
NMTAP	88	360	3
NMTAP	88	372	2
BRSTR	89	0	1
NMSCR	89	0	1	96	48	4
BRSTR	89	0	5
NMSCR	89	0	5	96	48	0
NMSTR	89	96	1
NMSV_	89	96	1	96	48	6
NMSTR	89	96	5
NMSV_	89	96	5	96	48	2
NMTAP	89	192	1
NMTAP	89	192	5
NMTAP	89	288	1
NMSTR	89	336	0
NMSCR	89	336	0	96	192	7
NMTAP	90	0	7
NMHLD	90	48	6	192
NMTAP	90	336	0
NMSTR	90	336	1
NMSI_	90	336	1	96	48	4
NMTAP	91	48	7
NMSTR	91	96	7
NMSI_	91	96	7	96	48	2
NMSI_	91	96	7	96	48	4
NMTAP	91	192	7
NMTAP	91	288	2
NMTAP	91	336	5
NMTAP	92	0	0
NMTAP	92	48	0
NMSTR	92	48	7
NMSI_	92	48	7	96	48	3
NMTAP	92	144	1
NMSTR	92	192	1
NMSCL	92	192	1	96	48	6
NMSCR	92	192	1	96	48	4
NMTAP	92	288	1
NMTAP	93	0	4
NMTAP	93	0	5
NMTAP	93	48	3
NMSTR	93	48	5
NMSI_	93	48	5	96	48	0
NMTAP	93	144	1
NMSTR	93	192	1
NMSI_	93	192	1	96	48	4
NMSI_	93	192	1	96	48	6
NMTAP	93	288	1
NMTAP	94	0	2
NMTAP	94	0	5
NMSTR	94	48	2
NMSI_	94	48	2	96	48	7
NMTAP	94	48	4
NMTAP	94	144	6
NMSTR	94	192	6
NMSI_	94	192	6	96	48	1
NMSI_	94	192	6	96	48	3
NMTAP	94	288	6
NMTAP	95	0	2
NMTAP	95	0	4
NMSTR	95	48	2
NMSI_	95	48	2	96	48	7
NMTAP	95	48	6
NMTAP	95	144	5
NMSTR	95	192	5
NMSI_	95	192	5	96	48	0
NMTAP	95	288	5
NMTAP	95	288	7
NMTAP	96	0	0
NMTAP	96	0	7
NMTAP	96	48	1
NMTAP	96	48	6
NMTAP	96	144	5
NMTAP	96	168	4
NMTAP	96	192	7
NMTAP	96	240	2
NMTAP	96	264	3
NMTAP	96	288	0
NMTAP	96	336	1
NMTAP	96	336	5
BRSTR	97	0	2
NMSCL	97	0	2	96	48	7
BRSTR	97	0	6
NMSCL	97	0	6	96	48	3
NMSTR	97	96	2
NMSV_	97	96	2	96	48	5
NMSTR	97	96	6
NMSV_	97	96	6	96	48	1
NMTAP	97	192	2
NMTAP	97	192	6
NMTAP	97	288	6
NMSTR	97	336	7
NMSCL	97	336	7	96	192	0
NMTAP	98	0	0
NMHLD	98	48	1	192
NMSTR	98	336	6
NMSI_	98	336	6	96	24	3
NMTAP	98	336	7
NMTAP	99	48	0
NMSTR	99	96	0
NMSI_	99	96	0	96	48	3
NMSI_	99	96	0	96	48	5
NMTAP	99	192	0
NMTAP	99	288	5
NMTAP	99	336	2
NMTAP	100	0	7
NMSTR	100	48	0
NMSI_	100	48	0	96	48	4
NMTAP	100	48	7
NMTAP	100	144	6
NMSTR	100	192	6
NMSCL	100	192	6	96	48	3
NMSCR	100	192	6	96	48	1
NMTAP	100	288	6
NMTAP	101	0	2
NMTAP	101	0	3
NMSTR	101	48	2
NMSI_	101	48	2	96	48	7
NMTAP	101	48	4
NMTAP	101	144	6
NMSTR	101	192	6
NMSI_	101	192	6	96	48	1
NMSI_	101	192	6	96	48	3
NMTAP	101	288	6
NMTAP	102	0	2
NMTAP	102	0	5
NMTAP	102	48	3
NMSTR	102	48	5
NMSI_	102	48	5	96	48	0
NMTAP	102	144	1
NMSTR	102	192	1
NMSI_	102	192	1	96	48	4
NMSI_	102	192	1	96	48	6
NMTAP	102	288	1
NMTAP	103	0	3
NMTAP	103	0	7
BRTAP	103	48	1
BRTAP	103	48	5
NMTAP	103	144	0
NMTAP	103	168	7
NMTAP	103	192	0
NMTAP	103	216	7
NMTAP	103	240	0
NMTAP	103	288	5
NMTAP	103	312	4
NMTAP	103	336	5
NMTAP	104	0	2
NMTAP	104	24	3
NMTAP	104	48	2
NMTAP	104	96	6
NMTAP	104	120	4
NMTAP	104	144	5
NMTAP	104	168	3
NMTAP	104	192	4
NMTAP	104	216	2
NMTAP	104	240	3
BRTAP	104	288	6
BRTAP	104	288	7
BRTAP	104	336	3
BRTAP	104	336	4
BRTAP	105	0	1
BRTAP	105	0	6
NMTAP	105	96	2
NMTAP	105	96	5
NMTAP	105	144	3
NMTAP	105	168	4
NMTAP	105	192	3
NMTAP	105	240	2
NMTAP	105	240	5
NMTAP	105	288	1
NMTAP	105	288	6
NMTAP	105	336	0
NMTAP	105	336	7
NMTAP	106	0	1
NMTAP	106	0	6
NMTAP	106	48	2
NMTAP	106	48	5
NMSTR	106	96	1
NMSI_	106	96	1	96	48	3
NMTAP	106	144	4
NMSTR	106	192	1
NMSI_	106	192	1	96	48	4
NMTAP	106	240	5
NMSTR	106	288	1
NMSI_	106	288	1	96	48	5
NMTAP	106	336	6
NMTAP	107	0	1
NMTAP	107	48	7
NMTAP	107	96	1
NMTAP	107	128	3
NMTAP	107	160	2
NMTAP	107	192	6
NMTAP	107	224	4
NMTAP	107	256	5
NMTAP	107	288	0
NMTAP	107	320	2
NMTAP	107	352	1
NMTAP	108	0	7
NMTAP	108	32	5
NMTAP	108	64	6
NMTAP	108	96	0
NMTAP	108	128	4
NMTAP	108	160	2
NMTAP	108	192	6
NMTAP	108	224	3
NMTAP	108	256	7
NMTAP	108	288	1
NMTAP	108	320	5
NMSTR	108	352	0
NMSI_	108	352	0	96	32	4
NMTAP	109	0	6
NMTAP	109	32	6
BRTAP	109	64	0

T_REC_TAP	605
T_REC_BRK	15
T_REC_XTP	0
T_REC_BXX	0
T_REC_HLD	23
T_REC_XHO	0
T_REC_BHO	0
T_REC_BXH	0
T_REC_STR	150
T_REC_BST	10
T_REC_XST	0
T_REC_XBS	0
T_REC_TTP	0
T_REC_THO	0
T_REC_SLD	168
T_REC_BSL	0
T_REC_ALL	971
T_NUM_TAP	755
T_NUM_BRK	25
T_NUM_HLD	23
T_NUM_SLD	168
T_NUM_ALL	971
T_JUDGE_TAP	780
T_JUDGE_HLD	78
T_JUDGE_SLD	168
T_JUDGE_ALL	1026
TTM_EACHPAIRS	180
TTM_SCR_TAP	377500
TTM_SCR_BRK	65000
TTM_SCR_HLD	23000
TTM_SCR_SLD	252000
TTM_SCR_ALL	717500
TTM_SCR_S	693550
TTM_SCR_SS	715000
TTM_RAT_ACV	10034

