VERSION	0.00.00	1.03.00
FES_MODE	0
BPM_DEF	180.000	180.000	180.000	180.000
MET_DEF	4	4
RESOLUTION	384
CLK_DEF	384
COMPATIBLE_CODE	MA2

BPM	0	0	180.000
MET	0	0	4	4
MET	26	0	4	5
MET	27	96	4	4

HLD	1	0	4	144
HLD	1	0	5	672
TAP	1	288	4
TAP	2	0	4
TAP	2	96	2
TAP	2	192	3
TAP	2	288	2
HLD	3	0	2	672
HLD	3	0	3	144
TAP	3	288	3
TAP	4	0	3
TAP	4	96	5
TAP	4	192	4
TAP	4	288	5
HLD	5	0	4	144
HLD	5	0	6	672
TAP	5	288	5
TAP	6	0	7
TAP	6	96	0
TAP	6	192	1
TAP	6	288	2
STR	7	0	1
SI_	7	0	1	96	48	3
TAP	7	0	3
TAP	7	192	4
STR	7	192	6
SI_	7	192	6	96	48	4
TAP	8	0	2
TAP	8	48	2
TAP	8	96	7
TAP	8	144	7
TAP	8	192	0
BRK	8	288	2
BRK	8	288	5
STR	9	0	1
SI_	9	0	1	96	48	4
STR	9	192	6
SI_	9	192	6	96	48	3
HLD	10	0	1	96
HLD	10	96	3	96
HLD	10	192	4	96
TAP	10	288	6
TAP	11	0	5
TAP	11	96	4
TAP	11	96	6
TAP	11	192	2
STR	11	288	1
SXR	11	288	1	96	192	4
TAP	11	288	3
BRK	12	288	3
BRK	12	288	5
STR	13	0	6
SI_	13	0	6	96	48	3
STR	13	192	1
SI_	13	192	1	96	48	4
HLD	14	0	6	96
HLD	14	96	4	96
HLD	14	192	3	96
TAP	14	288	1
TAP	15	0	2
TAP	15	96	0
TAP	15	96	1
TAP	15	192	5
TAP	15	288	6
STR	15	288	7
SSR	15	288	7	96	216	3
BRK	16	288	1
BRK	16	288	6
TAP	17	0	3
TAP	17	0	4
TAP	17	96	6
HLD	17	144	6	96
TAP	17	240	4
TAP	17	288	4
HLD	17	336	4	144
TAP	18	48	5
TAP	18	96	5
TAP	18	192	0
TAP	18	192	7
TAP	18	288	1
TAP	18	288	3
TAP	19	0	3
TAP	19	0	4
TAP	19	96	1
HLD	19	144	1	96
TAP	19	240	3
TAP	19	288	3
HLD	19	336	3	144
TAP	20	48	2
TAP	20	96	2
TAP	20	192	0
TAP	20	192	7
TAP	20	288	4
TAP	20	288	6
TAP	21	0	3
TAP	21	0	4
TAP	21	96	6
HLD	21	144	6	96
TAP	21	240	4
TAP	21	288	4
HLD	21	336	4	144
TAP	22	48	5
TAP	22	96	5
TAP	22	192	0
TAP	22	192	7
TAP	22	288	1
TAP	22	288	3
TAP	23	0	4
TAP	23	0	5
TAP	23	96	2
TAP	23	96	7
HLD	23	144	2	144
TAP	23	144	7
TAP	23	240	4
STR	23	288	4
SCR	23	288	4	96	240	3
BRK	24	288	0
TAP	25	0	0
TAP	25	0	7
HLD	25	96	0	192
HLD	25	288	1	192
HLD	26	96	2	144
STR	26	240	3
SI_	26	240	3	96	72	6
TAP	27	96	0
TAP	27	144	0
TAP	27	192	5
TAP	27	288	2
TAP	27	288	4
TAP	28	0	3
TAP	28	0	5
TAP	28	96	7
TAP	28	144	7
TAP	28	192	2
TAP	28	288	3
TAP	28	288	5
TAP	29	0	2
TAP	29	0	4
STR	29	96	3
SI_	29	96	3	96	48	6
STR	29	288	5
SI_	29	288	5	96	48	0
STR	30	96	1
SI_	30	96	1	96	48	4
STR	30	288	6
SI_	30	288	6	96	48	3
TAP	31	96	2
TAP	31	144	2
TAP	31	192	0
TAP	31	288	1
TAP	31	288	7
TAP	32	0	0
TAP	32	0	6
TAP	32	96	5
TAP	32	144	5
TAP	32	192	7
BRK	32	288	1
BRK	32	288	6
HLD	33	96	4	144
HLD	33	240	5	240
HLD	34	96	6	144
STR	34	240	7
SI_	34	240	7	96	72	2
TAP	35	96	4
TAP	35	144	4
TAP	35	192	1
TAP	35	288	0
TAP	35	288	6
TAP	36	0	1
TAP	36	0	7
TAP	36	96	3
TAP	36	144	3
TAP	36	192	6
TAP	36	288	1
TAP	36	288	7
TAP	37	0	0
TAP	37	0	6
STR	37	96	7
SI_	37	96	7	96	48	2
STR	37	288	1
SI_	37	288	1	96	48	4
STR	38	96	5
SI_	38	96	5	96	48	0
STR	38	288	2
SI_	38	288	2	96	48	7
TAP	39	96	6
TAP	39	144	6
TAP	39	192	4
TAP	39	288	3
TAP	39	288	5
TAP	40	0	0
TAP	40	0	1
TAP	40	96	1
TAP	40	144	1
TAP	40	192	3
BRK	40	288	2
BRK	40	288	5
HLD	41	96	0	288
STR	41	96	1
SUR	41	96	1	96	144	5
HLD	42	96	4	288
STR	42	96	5
SUR	42	96	5	96	144	1
HLD	43	96	1	144
TAP	43	96	6
HLD	43	240	2	144
STR	44	0	3
SUR	44	0	3	96	192	4
BRK	45	0	3
BRK	45	0	5
TAP	45	96	4
TAP	45	144	4
TAP	45	192	2
TAP	45	288	1
TAP	45	288	3
TAP	46	0	1
TAP	46	0	7
TAP	46	96	3
TAP	46	144	3
TAP	46	192	5
TAP	46	288	4
TAP	46	288	6
TAP	47	0	0
TAP	47	0	6
TAP	47	96	1
TAP	47	144	1
TAP	47	192	7
TAP	47	288	0
TAP	47	288	6
TAP	48	0	2
TAP	48	0	4
TAP	48	96	4
TAP	48	96	5
TAP	48	240	2
TAP	48	240	3
BRK	49	0	1
BRK	49	0	6
STR	49	96	6
SUL	49	96	6	96	144	1
HLD	49	96	7	288
STR	50	96	2
SUL	50	96	2	96	144	5
HLD	50	96	3	288
TAP	51	96	1
HLD	51	96	6	144
HLD	51	240	5	144
STR	52	0	4
SSR	52	0	4	96	192	0
BRK	53	0	1
BRK	53	0	7
TAP	53	96	6
TAP	53	144	6
TAP	53	192	4
TAP	53	288	1
TAP	53	336	1
TAP	54	0	3
TAP	54	96	7
TAP	54	144	7
TAP	54	192	4
TAP	54	288	0
TAP	54	336	0
TAP	55	0	3
TAP	55	96	0
TAP	55	96	7
TAP	55	192	1
TAP	55	192	6
TAP	55	288	2
TAP	55	288	5
TAP	56	0	3
TAP	56	0	4
BRK	56	96	2
BRK	56	96	3
BRK	56	240	4
BRK	56	240	5
BRK	57	0	1
BRK	57	0	6
TAP	57	96	0
TAP	57	96	7
STR	57	192	4
SI_	57	192	4	96	48	0
STR	57	192	5
SI_	57	192	5	96	48	7
TAP	58	0	1
HLD	58	48	1	96
TAP	58	144	3
TAP	58	192	3
TAP	58	288	4
TAP	58	288	5
BRK	59	0	2
BRK	59	0	7
TAP	59	48	2
TAP	59	48	7
TAP	59	144	3
TAP	59	144	4
STR	59	192	3
SI_	59	192	3	96	48	7
STR	59	192	4
SI_	59	192	4	96	48	6
TAP	60	0	6
HLD	60	48	6	96
TAP	60	144	4
TAP	60	192	4
TAP	60	288	2
TAP	60	288	3
BRK	61	0	1
HLD	61	48	1	96
TAP	61	144	3
STR	61	192	3
SI_	61	192	3	96	48	7
TAP	62	0	2
HLD	62	48	2	96
TAP	62	144	0
STR	62	192	0
SI_	62	192	0	96	48	4
BRK	63	0	2
BRK	63	0	5
TAP	63	48	2
TAP	63	48	5
TAP	63	144	3
TAP	63	144	4
TAP	63	192	3
TAP	63	192	4
TAP	63	288	0
TAP	63	288	7
STR	63	336	0
SCR	63	336	0	96	240	7
TAP	63	336	7
BRK	65	0	1
BRK	65	0	6
TAP	65	96	0
TAP	65	96	7
STR	65	192	2
SI_	65	192	2	96	48	0
STR	65	192	3
SI_	65	192	3	96	48	7
TAP	66	0	6
HLD	66	48	6	96
TAP	66	144	4
TAP	66	192	4
TAP	66	288	2
TAP	66	288	3
BRK	67	0	0
BRK	67	0	5
TAP	67	48	0
TAP	67	48	5
TAP	67	144	3
TAP	67	144	4
STR	67	192	3
SI_	67	192	3	96	48	1
STR	67	192	4
SI_	67	192	4	96	48	0
TAP	68	0	1
HLD	68	48	1	96
TAP	68	144	3
TAP	68	192	3
TAP	68	288	4
TAP	68	288	5
BRK	69	0	6
HLD	69	48	6	96
TAP	69	144	4
STR	69	192	4
SI_	69	192	4	96	48	0
TAP	70	0	5
HLD	70	48	5	96
TAP	70	144	7
STR	70	192	7
SI_	70	192	7	96	48	3
BST	71	0	2
SCL	71	0	2	96	192	5
BRK	71	0	5
TAP	71	48	2
TAP	71	48	5
TAP	72	0	0
TAP	72	0	7
TAP	72	96	2
TAP	72	96	5
TAP	72	144	2
TAP	72	144	5
TAP	72	192	3
TAP	72	192	4
TAP	72	240	3
TAP	72	240	4
TAP	72	288	3
TAP	72	288	4
BRK	73	0	1
BRK	73	0	5
TAP	73	96	2
HLD	73	96	3	192
HLD	73	288	4	192
STR	74	96	5
SCL	74	96	5	96	144	2
TAP	75	96	2
HLD	75	96	3	192
HLD	75	288	4	192
STR	76	96	5
SI_	76	96	5	96	144	2
TAP	77	96	2
HLD	77	96	3	192
HLD	77	288	4	192
HLD	78	96	5	192
HLD	78	288	4	192
STR	79	96	3
SUL	79	96	3	96	192	4
STR	80	96	3
SUR	80	96	3	96	192	4
TAP	81	96	4
TAP	81	192	4
TAP	81	192	5
TAP	81	288	3
HLD	81	288	4	96
TAP	82	0	2
TAP	82	96	3
TAP	82	192	2
TAP	82	192	3
HLD	82	288	3	96
TAP	82	288	4
TAP	83	0	5
TAP	83	48	5
TAP	83	144	3
TAP	83	144	4
TAP	83	192	3
TAP	83	192	4
HLD	83	288	2	96
TAP	83	288	3
TAP	84	0	4
TAP	84	48	4
TAP	84	144	3
TAP	84	144	5
TAP	84	192	3
TAP	84	192	5
TAP	84	288	3
HLD	84	288	4	96
TAP	85	0	2
TAP	85	48	2
TAP	85	144	2
TAP	85	144	3
TAP	85	192	2
TAP	85	192	3
TAP	85	288	2
HLD	85	288	4	96
TAP	86	0	1
TAP	86	48	1
TAP	86	144	3
TAP	86	192	3
TAP	86	288	1
TAP	86	288	3
TAP	87	0	0
STR	87	48	0
SCR	87	48	0	96	432	7
BRK	89	0	1
BRK	89	0	6
TAP	89	96	0
TAP	89	96	7
STR	89	192	4
SI_	89	192	4	96	48	1
STR	89	192	5
SI_	89	192	5	96	48	0
TAP	90	0	1
HLD	90	48	1	96
TAP	90	144	3
TAP	90	192	3
TAP	90	288	4
TAP	90	288	5
BRK	91	0	0
BRK	91	0	7
TAP	91	48	0
TAP	91	48	7
TAP	91	144	2
TAP	91	144	3
STR	91	192	2
SI_	91	192	2	96	48	7
STR	91	192	3
SI_	91	192	3	96	48	6
TAP	92	0	6
HLD	92	48	6	96
TAP	92	144	4
TAP	92	192	4
TAP	92	288	2
TAP	92	288	3
TAP	93	0	0
TAP	93	0	1
TAP	93	48	0
HLD	93	48	1	96
TAP	93	144	3
STR	93	192	3
SI_	93	192	3	96	48	7
TAP	94	0	2
HLD	94	48	2	96
TAP	94	144	0
STR	94	192	0
SI_	94	192	0	96	48	4
TAP	95	0	2
TAP	95	0	5
BRK	95	48	2
BRK	95	48	5
TAP	95	144	6
TAP	95	144	7
TAP	95	192	6
TAP	95	192	7
TAP	95	288	2
TAP	95	288	3
TAP	95	336	2
STR	95	336	3
SCL	95	336	3	96	240	4
BRK	97	0	0
TAP	97	96	0
TAP	97	96	7
STR	97	192	2
SI_	97	192	2	96	48	7
STR	97	192	3
SI_	97	192	3	96	48	6
TAP	98	0	6
HLD	98	48	6	96
TAP	98	144	4
TAP	98	192	4
TAP	98	288	2
TAP	98	288	3
BRK	99	0	0
BRK	99	0	7
TAP	99	48	0
TAP	99	48	7
TAP	99	144	4
TAP	99	144	5
STR	99	192	4
SI_	99	192	4	96	48	1
STR	99	192	5
SI_	99	192	5	96	48	0
TAP	100	0	1
HLD	100	48	1	96
TAP	100	144	3
TAP	100	192	3
TAP	100	288	4
TAP	100	288	5
TAP	101	0	6
TAP	101	0	7
HLD	101	48	6	96
TAP	101	48	7
TAP	101	144	4
STR	101	192	4
SI_	101	192	4	96	48	0
TAP	102	0	5
HLD	102	48	5	96
TAP	102	144	7
STR	102	192	7
SI_	102	192	7	96	48	4
BST	103	0	3
SCL	103	0	3	96	216	4
BRK	103	0	6
BRK	103	48	3
BRK	103	48	6
TAP	104	0	2
TAP	104	0	5
TAP	104	96	3
TAP	104	120	4
TAP	104	144	3
TAP	104	168	4
TAP	104	192	3
TAP	104	216	4
TAP	104	240	3
TAP	104	264	4
TAP	104	288	3
BRK	105	0	1
BRK	105	0	6
TAP	105	96	2
TAP	105	144	2
TAP	105	192	1
TAP	105	192	3
TAP	105	288	5
TAP	105	336	5
TAP	106	0	4
TAP	106	0	6
HLD	106	96	5	96
HLD	106	192	7	96
HLD	106	288	0	96
HLD	107	0	2	96
STR	107	96	5
SCR	107	96	5	96	192	2
TAP	108	96	3
TAP	108	96	4
TAP	108	192	2
TAP	108	192	5
TAP	108	288	1
TAP	108	288	6
TAP	109	0	0
TAP	109	0	7
TAP	109	32	0
TAP	109	32	7
BRK	109	64	0
BRK	109	64	7

T_REC_TAP	353
T_REC_BRK	52
T_REC_XTP	0
T_REC_HLD	66
T_REC_XHO	0
T_REC_STR	57
T_REC_BST	2
T_REC_XST	0
T_REC_TTP	0
T_REC_THO	0
T_REC_SLD	59
T_REC_ALL	589
T_NUM_TAP	410
T_NUM_BRK	54
T_NUM_HLD	66
T_NUM_SLD	59
T_NUM_ALL	589
T_JUDGE_TAP	464
T_JUDGE_HLD	221
T_JUDGE_SLD	59
T_JUDGE_ALL	744
TTM_EACHPAIRS	151
TTM_SCR_TAP	205000
TTM_SCR_BRK	140400
TTM_SCR_HLD	66000
TTM_SCR_SLD	88500
TTM_SCR_ALL	499900
TTM_SCR_S	479700
TTM_SCR_SS	494500
TTM_RAT_ACV	10109

