VERSION	0.00.00	1.03.00
FES_MODE	0
BPM_DEF	180.000	180.000	180.000	180.000
MET_DEF	4	4
RESOLUTION	384
CLK_DEF	384
COMPATIBLE_CODE	MA2

BPM	0	0	180.000
MET	0	0	4	4
MET	26	0	4	5
MET	27	96	4	4

STR	1	0	1
SCR	1	0	1	96	288	5
STR	3	0	6
SCL	3	0	6	96	288	2
STR	5	0	1
SXL	5	0	1	96	480	5
STR	7	0	6
SXR	7	0	6	96	480	2
TAP	9	0	2
TAP	9	96	2
TAP	9	192	2
TAP	9	192	3
TAP	10	0	5
TAP	10	96	5
TAP	10	192	4
TAP	10	192	5
TAP	11	0	2
TAP	11	96	2
TAP	11	192	3
TAP	11	288	3
TAP	12	0	4
TAP	12	96	4
TAP	12	192	3
TAP	12	192	4
TAP	13	0	2
TAP	13	96	2
TAP	13	192	2
TAP	13	192	3
TAP	14	0	5
TAP	14	96	5
TAP	14	192	4
TAP	14	192	5
TAP	15	0	2
TAP	15	96	2
TAP	15	192	3
TAP	15	288	3
TAP	16	0	4
TAP	16	96	3
BRK	16	192	2
BRK	16	192	5
TAP	17	0	1
TAP	17	96	1
TAP	17	192	0
TAP	17	288	0
TAP	18	0	7
TAP	18	96	7
TAP	18	192	0
TAP	18	192	7
TAP	19	0	6
TAP	19	96	6
TAP	19	192	7
TAP	19	288	7
TAP	20	0	0
TAP	20	96	0
TAP	20	192	0
TAP	20	192	7
TAP	21	0	1
TAP	21	96	1
TAP	21	192	0
TAP	21	288	0
TAP	22	0	7
TAP	22	96	0
TAP	22	192	1
TAP	22	192	6
TAP	23	0	7
TAP	23	96	6
TAP	23	192	5
STR	23	288	5
SI_	23	288	5	96	192	2
TAP	25	0	2
HLD	25	96	2	192
HLD	25	288	3	192
HLD	26	96	4	192
TAP	26	288	5
TAP	27	96	4
TAP	27	192	5
TAP	27	288	3
TAP	27	288	6
TAP	28	96	2
TAP	28	192	3
TAP	28	288	1
TAP	28	288	4
TAP	29	96	2
TAP	29	192	1
TAP	29	288	0
TAP	30	0	7
TAP	30	96	6
TAP	30	192	7
TAP	30	288	0
TAP	30	288	7
TAP	31	96	5
TAP	31	192	6
TAP	31	288	7
TAP	32	0	0
TAP	32	96	7
TAP	32	192	0
TAP	32	288	1
TAP	32	288	6
HLD	33	96	5	192
HLD	33	288	4	192
HLD	34	96	3	192
TAP	34	288	2
TAP	35	96	3
TAP	35	192	2
TAP	35	288	1
TAP	35	288	4
TAP	36	96	5
TAP	36	192	4
TAP	36	288	3
TAP	36	288	6
TAP	37	96	5
TAP	37	192	6
TAP	37	288	7
TAP	38	0	0
TAP	38	96	1
TAP	38	192	0
TAP	38	288	0
TAP	38	288	7
TAP	39	96	2
TAP	39	192	1
TAP	39	288	0
TAP	40	0	7
TAP	40	96	0
TAP	40	192	7
TAP	40	288	1
TAP	40	288	6
STR	41	96	6
SI_	41	96	6	96	192	3
STR	41	96	7
SI_	41	96	7	96	192	2
STR	42	96	0
SI_	42	96	0	96	192	5
STR	42	96	1
SI_	42	96	1	96	192	4
TAP	43	96	3
TAP	43	192	2
TAP	43	288	1
STR	44	0	1
SCL	44	0	1	96	192	6
TAP	45	96	5
TAP	45	192	5
TAP	45	288	4
TAP	45	288	6
TAP	46	96	2
TAP	46	192	2
TAP	46	288	1
TAP	46	288	3
TAP	47	96	3
TAP	47	192	4
TAP	47	288	5
TAP	48	0	6
TAP	48	96	7
TAP	48	192	0
TAP	48	288	0
TAP	48	288	7
STR	49	96	0
SI_	49	96	0	96	192	5
STR	49	96	1
SI_	49	96	1	96	192	4
STR	50	96	6
SI_	50	96	6	96	192	3
STR	50	96	7
SI_	50	96	7	96	192	2
TAP	51	96	4
TAP	51	192	5
TAP	51	288	6
STR	52	0	6
SCR	52	0	6	96	192	1
TAP	53	96	2
TAP	53	192	2
TAP	53	288	1
TAP	53	288	3
TAP	54	96	5
TAP	54	192	5
TAP	54	288	4
TAP	54	288	6
TAP	55	96	3
TAP	55	192	3
TAP	55	288	4
TAP	56	0	4
TAP	56	96	3
TAP	56	192	4
BRK	56	288	2
BRK	56	288	5
TAP	57	96	6
TAP	57	192	6
TAP	57	288	6
TAP	57	288	7
TAP	58	0	6
TAP	58	0	7
TAP	58	96	1
TAP	58	192	1
TAP	58	288	0
TAP	58	288	1
TAP	59	0	0
TAP	59	0	1
TAP	59	96	7
TAP	59	192	6
TAP	59	288	0
TAP	59	288	6
TAP	60	96	0
TAP	60	192	1
TAP	60	288	1
TAP	60	288	7
TAP	61	96	0
TAP	61	192	7
TAP	61	288	6
TAP	62	0	5
TAP	62	96	4
TAP	62	192	3
TAP	62	288	2
TAP	62	288	4
TAP	63	96	2
TAP	63	192	1
TAP	63	288	0
STR	64	0	0
SI_	64	0	0	96	192	3
STR	64	0	7
SI_	64	0	7	96	192	4
TAP	65	96	2
TAP	65	192	2
TAP	65	288	2
TAP	65	288	3
TAP	66	0	2
TAP	66	0	3
TAP	66	96	5
TAP	66	192	5
TAP	66	288	4
TAP	66	288	5
TAP	67	0	4
TAP	67	0	5
TAP	67	96	3
TAP	67	192	2
TAP	67	288	2
TAP	67	288	4
TAP	68	96	4
TAP	68	192	5
TAP	68	288	3
TAP	68	288	5
TAP	69	96	4
TAP	69	192	3
TAP	69	288	2
TAP	70	0	1
TAP	70	96	0
TAP	70	192	7
TAP	70	288	0
TAP	70	288	6
BST	71	96	0
SXL	71	96	0	96	480	3
BST	71	96	7
SXR	71	96	7	96	480	4
HLD	73	96	3	192
TAP	73	288	4
HLD	74	96	5	192
TAP	74	288	4
HLD	75	96	3	192
TAP	75	288	4
HLD	76	96	2	192
TAP	76	288	3
HLD	77	96	2	192
HLD	77	288	3	192
HLD	78	96	4	192
TAP	78	288	5
TAP	79	96	4
TAP	79	192	5
STR	79	288	6
SI_	79	288	6	96	192	2
HLD	81	96	3	192
TAP	81	288	4
HLD	82	96	2	192
TAP	82	288	3
HLD	83	96	4	192
TAP	83	288	3
HLD	84	96	5	192
TAP	84	288	4
HLD	85	96	4	192
HLD	85	96	5	192
HLD	86	96	3	192
HLD	86	96	4	192
BST	87	96	2
SCR	87	96	2	96	480	0
TAP	89	96	0
TAP	89	96	1
TAP	89	192	0
TAP	89	192	1
TAP	89	288	6
TAP	89	288	7
TAP	90	0	6
TAP	90	0	7
TAP	90	96	0
TAP	90	96	1
TAP	90	192	0
TAP	90	192	1
TAP	90	288	2
TAP	90	288	7
TAP	91	96	6
TAP	91	96	7
TAP	91	192	6
TAP	91	192	7
TAP	91	288	0
TAP	91	288	1
TAP	92	0	0
TAP	92	0	1
TAP	92	96	6
TAP	92	96	7
TAP	92	192	6
TAP	92	192	7
TAP	92	288	0
TAP	92	288	5
TAP	93	96	4
TAP	93	96	5
TAP	93	192	4
TAP	93	192	5
TAP	93	288	2
TAP	93	288	3
TAP	94	0	2
TAP	94	0	3
TAP	94	96	4
TAP	94	96	5
TAP	94	192	4
TAP	94	192	5
TAP	94	288	3
TAP	94	288	6
TAP	95	96	2
TAP	95	192	1
TAP	95	288	0
STR	96	0	0
SI_	96	0	0	96	192	3
STR	96	0	7
SI_	96	0	7	96	192	4
TAP	97	96	2
TAP	97	96	3
TAP	97	192	2
TAP	97	192	3
TAP	97	288	4
TAP	97	288	5
TAP	98	0	4
TAP	98	0	5
TAP	98	96	2
TAP	98	96	3
TAP	98	192	2
TAP	98	192	3
TAP	98	288	1
TAP	98	288	4
TAP	99	96	4
TAP	99	96	5
TAP	99	192	4
TAP	99	192	5
TAP	99	288	2
TAP	99	288	3
TAP	100	0	2
TAP	100	0	3
TAP	100	96	4
TAP	100	96	5
TAP	100	192	4
TAP	100	192	5
TAP	100	288	3
TAP	100	288	6
TAP	101	96	0
TAP	101	96	1
TAP	101	192	0
TAP	101	192	1
TAP	101	288	6
TAP	101	288	7
TAP	102	0	6
TAP	102	0	7
TAP	102	96	0
TAP	102	96	1
TAP	102	192	0
TAP	102	192	1
TAP	102	288	2
TAP	102	288	7
BST	103	96	7
SCR	103	96	7	96	480	4
TAP	105	96	3
TAP	105	192	3
TAP	105	288	4
TAP	106	0	4
TAP	106	96	5
TAP	106	192	6
TAP	106	288	7
TAP	107	0	0
STR	107	96	0
SXL	107	96	0	96	576	3
STR	107	96	7
SXR	107	96	7	96	576	4

T_REC_TAP	309
T_REC_BRK	4
T_REC_XTP	0
T_REC_HLD	21
T_REC_XHO	0
T_REC_STR	22
T_REC_BST	4
T_REC_XST	0
T_REC_TTP	0
T_REC_THO	0
T_REC_SLD	26
T_REC_ALL	386
T_NUM_TAP	331
T_NUM_BRK	8
T_NUM_HLD	21
T_NUM_SLD	26
T_NUM_ALL	386
T_JUDGE_TAP	339
T_JUDGE_HLD	84
T_JUDGE_SLD	26
T_JUDGE_ALL	449
TTM_EACHPAIRS	89
TTM_SCR_TAP	165500
TTM_SCR_BRK	20800
TTM_SCR_HLD	21000
TTM_SCR_SLD	39000
TTM_SCR_ALL	246300
TTM_SCR_S	238150
TTM_SCR_SS	245500
TTM_RAT_ACV	10032

