VERSION	0.00.00	1.03.00
FES_MODE	0
BPM_DEF	180.000	180.000	180.000	180.000
MET_DEF	4	4
RESOLUTION	384
CLK_DEF	384
COMPATIBLE_CODE	MA2

BPM	0	0	180.000
MET	0	0	4	4
MET	26	0	4	5
MET	27	96	4	4

TAP	5	0	0
TAP	6	0	0
TAP	7	0	7
TAP	8	0	0
TAP	8	0	7
TAP	9	0	0
TAP	9	192	0
TAP	10	0	1
TAP	10	192	1
TAP	11	0	2
TAP	11	192	2
TAP	12	0	3
TAP	12	0	4
TAP	13	0	4
TAP	13	192	4
TAP	14	0	5
TAP	14	192	5
TAP	15	0	6
TAP	15	192	6
TAP	16	0	0
TAP	16	0	7
TAP	17	0	7
TAP	17	192	7
TAP	18	0	6
TAP	18	192	6
TAP	19	0	5
TAP	19	192	5
TAP	20	0	3
TAP	20	0	4
TAP	20	192	3
TAP	20	192	4
TAP	21	0	3
TAP	21	192	3
TAP	22	0	2
TAP	22	192	2
HLD	23	0	1	384
STR	25	0	0
SI_	25	0	0	96	384	3
STR	27	96	7
SI_	27	96	7	96	288	4
STR	29	96	0
SI_	29	96	0	96	288	3
TAP	31	96	7
TAP	31	288	7
TAP	32	96	0
TAP	32	96	7
STR	33	96	6
SI_	33	96	6	96	288	3
STR	35	96	1
SI_	35	96	1	96	288	4
STR	37	96	6
SI_	37	96	6	96	288	3
TAP	39	96	0
TAP	39	288	0
BRK	40	96	0
BRK	40	96	7
TAP	41	96	1
TAP	41	288	1
TAP	42	96	1
HLD	43	96	2	384
HLD	43	96	3	384
TAP	45	96	4
TAP	45	288	4
TAP	46	96	4
TAP	47	96	5
TAP	47	288	5
BRK	48	96	5
TAP	49	96	6
TAP	49	288	6
TAP	50	96	6
HLD	51	96	6	384
HLD	51	96	7	384
TAP	53	96	0
TAP	53	288	0
TAP	54	96	0
TAP	54	96	7
TAP	55	96	7
TAP	55	288	7
BRK	56	96	0
BRK	56	96	7
TAP	57	96	7
TAP	57	192	7
TAP	57	288	7
TAP	58	96	7
TAP	58	192	7
TAP	58	288	7
TAP	59	96	6
TAP	59	192	6
TAP	59	288	6
TAP	60	96	6
TAP	60	192	6
TAP	60	288	6
TAP	61	96	5
TAP	61	192	5
TAP	61	288	5
TAP	62	96	5
TAP	62	192	5
TAP	62	288	5
TAP	63	96	4
TAP	63	192	3
TAP	63	288	4
TAP	64	96	3
TAP	64	96	4
TAP	65	96	3
TAP	65	192	3
TAP	65	288	3
TAP	66	96	3
TAP	66	192	3
TAP	66	288	3
TAP	67	96	2
TAP	67	192	2
TAP	67	288	2
TAP	68	96	2
TAP	68	192	2
TAP	68	288	2
TAP	69	96	1
TAP	69	192	1
TAP	69	288	1
TAP	70	96	1
TAP	70	192	1
TAP	70	288	1
HLD	71	96	0	384
HLD	71	96	7	384
STR	73	96	0
SI_	73	96	0	96	288	3
STR	75	96	7
SI_	75	96	7	96	288	4
TAP	77	96	0
TAP	77	288	0
TAP	78	96	1
TAP	78	288	1
TAP	79	96	2
TAP	79	288	2
TAP	80	96	2
TAP	80	96	3
HLD	81	96	4	384
HLD	83	96	3	384
TAP	85	96	4
TAP	85	288	4
TAP	86	96	5
TAP	86	288	5
STR	87	96	6
SI_	87	96	6	96	288	2
TAP	89	96	1
TAP	89	192	1
TAP	89	288	1
TAP	90	96	0
TAP	90	192	0
TAP	90	288	0
TAP	91	96	7
TAP	91	192	7
TAP	91	288	7
TAP	92	96	6
TAP	92	192	6
TAP	92	288	6
TAP	93	96	5
TAP	93	192	5
TAP	93	288	5
TAP	94	96	4
TAP	94	192	4
TAP	94	288	4
HLD	95	96	3	384
HLD	95	96	4	384
TAP	97	96	5
TAP	97	192	5
TAP	97	288	5
TAP	98	96	6
TAP	98	192	6
TAP	98	288	6
TAP	99	96	7
TAP	99	192	7
TAP	99	288	7
TAP	100	96	0
TAP	100	192	0
TAP	100	288	0
TAP	101	96	1
TAP	101	192	1
TAP	101	288	1
TAP	102	96	2
TAP	102	192	2
TAP	102	288	2
HLD	103	96	3	384
HLD	103	96	4	384
TAP	105	96	3
TAP	105	96	4
TAP	105	288	3
TAP	105	288	4
TAP	106	96	3
TAP	106	192	3
TAP	106	288	4
TAP	107	0	4
HLD	107	96	3	736

T_REC_TAP	155
T_REC_BRK	5
T_REC_XTP	0
T_REC_HLD	14
T_REC_XHO	0
T_REC_STR	9
T_REC_BST	0
T_REC_XST	0
T_REC_TTP	0
T_REC_THO	0
T_REC_SLD	9
T_REC_ALL	192
T_NUM_TAP	164
T_NUM_BRK	5
T_NUM_HLD	14
T_NUM_SLD	9
T_NUM_ALL	192
T_JUDGE_TAP	169
T_JUDGE_HLD	120
T_JUDGE_SLD	9
T_JUDGE_ALL	298
TTM_EACHPAIRS	18
TTM_SCR_TAP	82000
TTM_SCR_BRK	13000
TTM_SCR_HLD	14000
TTM_SCR_SLD	13500
TTM_SCR_ALL	122500
TTM_SCR_S	118350
TTM_SCR_SS	122000
TTM_RAT_ACV	10040

