VERSION	0.00.00	1.03.00
FES_MODE	0
BPM_DEF	200.000	200.000	200.000	200.000
MET_DEF	4	4
RESOLUTION	384
CLK_DEF	384
COMPATIBLE_CODE	MA2

BPM	0	0	200.000
MET	41	0	4	4
MET	45	0	4	4
MET	49	0	4	4
MET	53	0	4	4
MET	101	0	4	4

STR	1	0	0
SCR	1	0	0	96	1056	7
TAP	2	288	0
STR	3	0	0
SCR	3	0	0	96	864	7
TAP	4	288	0
STR	5	0	0
SCR	5	0	0	96	480	7
STR	6	0	0
SCR	6	0	0	96	288	7
TAP	7	0	0
TAP	7	96	0
TAP	7	192	7
TAP	7	288	7
TAP	8	0	0
TAP	8	48	7
TAP	8	96	0
TAP	8	144	7
STR	8	192	0
SI_	8	192	0	96	48	4
TAP	8	216	7
TAP	8	240	0
TAP	8	264	7
TAP	8	288	0
HLD	9	0	5	192
TAP	9	96	6
HLD	9	192	3	192
TAP	9	288	1
HLD	10	0	7	192
TAP	10	96	5
HLD	10	192	1	192
TAP	10	288	0
HLD	11	0	4	48
HLD	11	48	0	48
HLD	11	96	5	48
HLD	11	144	1	48
HLD	11	192	6	48
HLD	11	240	2	48
HLD	11	288	7	48
HLD	11	336	3	48
HLD	12	0	6	48
HLD	12	48	2	48
HLD	12	96	5	48
HLD	12	144	1	48
HLD	12	192	4	48
HLD	12	240	0	48
HLD	12	288	5	48
HLD	12	336	1	48
HLD	13	0	6	192
TAP	13	96	4
HLD	13	192	4	192
TAP	13	288	2
HLD	14	0	2	192
TAP	14	96	0
HLD	14	192	0	192
TAP	14	288	6
HLD	15	0	4	48
HLD	15	48	7	48
HLD	15	96	5	48
HLD	15	144	2	48
HLD	15	192	0	48
HLD	15	240	3	48
HLD	15	288	6	48
HLD	15	336	1	48
HLD	16	0	3	48
HLD	16	48	0	48
HLD	16	96	7	48
HLD	16	144	4	48
HLD	16	192	6	48
HLD	16	240	2	48
HLD	16	288	4	48
HLD	16	336	1	48
TAP	17	0	7
TAP	17	96	3
TAP	17	96	5
TAP	17	192	0
TAP	17	288	2
TAP	17	288	4
TAP	17	336	3
TAP	18	0	4
TAP	18	0	6
TAP	18	48	5
TAP	18	96	2
TAP	18	96	4
TAP	18	192	2
TAP	18	192	3
TAP	18	288	0
TAP	18	288	6
HLD	19	0	1	0
HLD	19	48	6	0
HLD	19	96	3	0
HLD	19	144	7	0
HLD	19	192	5	0
HLD	19	240	3	0
HLD	19	288	1	0
HLD	19	336	6	0
HLD	20	0	1	0
HLD	20	48	5	0
HLD	20	96	4	0
HLD	20	144	7	0
HLD	20	192	2	0
HLD	20	240	6	0
HLD	20	288	1	0
HLD	20	336	3	0
TAP	21	0	0
TAP	21	96	2
TAP	21	96	4
TAP	21	192	7
TAP	21	288	3
TAP	21	288	5
TAP	21	336	4
TAP	22	0	1
TAP	22	0	3
TAP	22	48	2
TAP	22	96	3
TAP	22	96	5
TAP	22	192	4
TAP	22	192	5
TAP	22	288	1
TAP	22	288	7
HLD	23	0	6	0
HLD	23	48	1	0
HLD	23	96	3	0
HLD	23	144	0	0
HLD	23	192	5	0
HLD	23	240	7	0
HLD	23	288	1	0
HLD	23	336	3	0
HLD	24	0	0	0
HLD	24	48	5	0
STR	24	96	7
SI_	24	96	7	96	48	3
HLD	24	144	2	0
BRK	24	192	7
STR	24	288	0
SI_	24	288	0	96	48	4
STR	24	288	1
SI_	24	288	1	96	48	4
TAP	25	0	0
TAP	25	0	1
STR	25	96	6
SI_	25	96	6	96	48	3
STR	25	96	7
SI_	25	96	7	96	48	3
TAP	25	192	6
TAP	25	192	7
TAP	25	288	0
TAP	25	288	1
HLD	25	336	1	96
TAP	26	48	4
TAP	26	96	2
TAP	26	144	6
STR	26	192	4
SI_	26	192	4	96	48	0
TAP	26	288	7
HLD	27	0	6	144
TAP	27	48	4
TAP	27	96	3
TAP	27	144	2
HLD	27	192	1	144
TAP	27	240	0
STR	27	288	7
SCL	27	288	7	96	48	4
TAP	27	336	7
STR	28	0	7
SCR	28	0	7	96	48	2
STR	28	96	7
SI_	28	96	7	96	48	3
TAP	28	192	7
STR	28	288	6
SI_	28	288	6	96	48	3
STR	28	288	7
SI_	28	288	7	96	48	3
TAP	29	0	6
TAP	29	0	7
STR	29	96	0
SI_	29	96	0	96	48	4
STR	29	96	1
SI_	29	96	1	96	48	4
TAP	29	192	0
TAP	29	192	1
TAP	29	288	6
TAP	29	288	7
HLD	29	336	6	96
TAP	30	48	3
TAP	30	96	5
TAP	30	144	1
STR	30	192	3
SI_	30	192	3	96	48	7
TAP	30	288	0
HLD	31	0	1	144
TAP	31	48	3
TAP	31	96	4
TAP	31	144	5
HLD	31	192	6	144
TAP	31	240	7
STR	31	288	0
SCR	31	288	0	96	192	6
TAP	31	336	0
TAP	32	0	0
TAP	32	192	7
STR	32	288	0
SI_	32	288	0	96	48	3
STR	33	0	5
SI_	33	0	5	96	48	2
STR	33	96	1
SI_	33	96	1	96	48	6
STR	33	192	4
SI_	33	192	4	96	48	7
TAP	33	288	0
HLD	33	336	0	144
TAP	34	48	7
TAP	34	96	6
TAP	34	144	5
STR	34	192	0
SI_	34	192	0	96	48	3
STR	34	192	4
SI_	34	192	4	96	48	7
HLD	35	0	2	144
TAP	35	0	6
TAP	35	48	5
TAP	35	96	4
TAP	35	144	3
TAP	35	192	2
HLD	35	192	4	144
TAP	35	240	1
STR	35	288	0
SI_	35	288	0	96	48	3
TAP	35	336	0
STR	36	0	0
SI_	36	0	0	96	48	5
STR	36	96	0
SF_	36	96	0	96	48	4
TAP	36	192	0
STR	36	288	7
SI_	36	288	7	96	48	4
STR	37	0	2
SI_	37	0	2	96	48	5
STR	37	96	6
SI_	37	96	6	96	48	1
STR	37	192	3
SI_	37	192	3	96	48	0
TAP	37	288	7
HLD	37	336	7	144
TAP	38	48	0
TAP	38	96	1
TAP	38	144	2
STR	38	192	3
SI_	38	192	3	96	48	0
STR	38	192	7
SI_	38	192	7	96	48	4
TAP	39	0	1
HLD	39	0	5	144
TAP	39	48	2
TAP	39	96	3
TAP	39	144	4
HLD	39	192	3	144
TAP	39	192	5
TAP	39	240	6
STR	39	288	7
SCL	39	288	7	96	192	0
TAP	39	336	7
HLD	40	0	7	192
TAP	40	288	0
STR	41	0	7
SCL	41	0	7	96	48	4
TAP	41	48	0
TAP	41	96	1
STR	41	144	2
SCL	41	144	2	96	48	7
TAP	41	192	3
TAP	41	240	4
STR	41	288	5
SCL	41	288	5	96	48	2
TAP	41	336	6
STR	42	0	7
SCR	42	0	7	96	48	2
STR	42	144	6
SI_	42	144	6	96	48	2
TAP	42	288	7
STR	43	0	0
SCR	43	0	0	96	48	3
TAP	43	48	7
TAP	43	96	6
STR	43	144	5
SCR	43	144	5	96	48	0
TAP	43	192	4
TAP	43	240	3
STR	43	288	2
SCR	43	288	2	96	48	5
TAP	43	336	1
STR	44	0	0
SCL	44	0	0	96	48	5
STR	44	144	1
SI_	44	144	1	96	48	5
TAP	44	288	0
STR	45	0	3
SCL	45	0	3	96	48	0
TAP	45	48	4
TAP	45	96	5
STR	45	144	6
SCL	45	144	6	96	48	3
TAP	45	192	7
TAP	45	240	0
STR	45	288	1
SCL	45	288	1	96	48	6
TAP	45	336	2
STR	46	0	3
SCR	46	0	3	96	48	6
STR	46	144	2
SI_	46	144	2	96	48	6
TAP	46	288	3
STR	47	0	4
SCR	47	0	4	96	48	7
TAP	47	48	3
TAP	47	96	2
STR	47	144	1
SCR	47	144	1	96	48	4
TAP	47	192	0
TAP	47	240	7
STR	47	288	6
SCR	47	288	6	96	48	1
TAP	47	336	5
STR	48	0	4
SCL	48	0	4	96	48	1
STR	48	144	5
SI_	48	144	5	96	48	1
TAP	48	288	4
TAP	49	0	0
STR	49	0	7
SI_	49	0	7	96	48	4
TAP	49	48	1
TAP	49	96	2
STR	49	144	3
SI_	49	144	3	96	48	0
TAP	49	192	5
TAP	49	240	6
STR	49	288	7
SCR	49	288	7	96	96	3
TAP	49	336	7
STR	50	0	3
SCR	50	0	3	96	96	7
STR	50	144	0
SI_	50	144	0	96	48	4
TAP	50	288	7
STR	51	0	0
SI_	51	0	0	96	48	3
TAP	51	0	7
TAP	51	48	6
TAP	51	96	5
STR	51	144	4
SI_	51	144	4	96	48	7
TAP	51	192	2
TAP	51	240	1
STR	51	288	0
SCL	51	288	0	96	96	4
TAP	51	336	0
STR	52	0	4
SCL	52	0	4	96	96	0
STR	52	144	7
SI_	52	144	7	96	48	3
TAP	52	288	0
STR	53	0	3
SI_	53	0	3	96	48	0
TAP	53	0	4
TAP	53	48	5
TAP	53	96	6
STR	53	144	7
SI_	53	144	7	96	48	4
TAP	53	192	1
TAP	53	240	2
STR	53	288	3
SCR	53	288	3	96	96	7
TAP	53	336	3
STR	54	0	7
SCR	54	0	7	96	96	3
STR	54	144	4
SI_	54	144	4	96	48	0
TAP	54	288	3
TAP	55	0	3
STR	55	0	4
SI_	55	0	4	96	48	7
TAP	55	48	2
TAP	55	96	1
STR	55	144	0
SI_	55	144	0	96	48	3
TAP	55	192	6
TAP	55	240	5
TAP	55	288	4
TAP	55	336	4
BRK	56	0	2
BRK	56	0	6
BRK	56	144	0
BST	56	144	4
SCR	56	144	4	96	1488	3
BRK	56	288	3
STR	57	0	3
SI_	57	0	3	96	48	0
STR	57	192	1
SI_	57	192	1	96	48	4
STR	58	0	5
SI_	58	0	5	96	48	1
STR	58	192	2
SI_	58	192	2	96	48	6
STR	59	0	7
SI_	59	0	7	96	48	4
STR	59	192	5
SI_	59	192	5	96	48	0
STR	60	0	1
SI_	60	0	1	96	48	5
BRK	60	192	7
STR	61	0	7
SCL	61	0	7	96	240	3
TAP	61	48	7
TAP	61	96	3
TAP	61	144	3
TAP	61	192	2
TAP	61	240	2
TAP	61	288	1
TAP	61	336	1
STR	62	0	0
SCR	62	0	0	96	240	4
TAP	62	48	0
TAP	62	96	4
TAP	62	144	4
TAP	62	192	5
TAP	62	240	5
TAP	62	288	6
TAP	62	336	6
STR	63	0	7
SI_	63	0	7	96	96	3
TAP	63	48	7
TAP	63	96	2
TAP	63	144	2
STR	63	192	0
SI_	63	192	0	96	96	4
TAP	63	240	0
TAP	63	288	5
TAP	63	336	5
STR	64	0	6
SI_	64	0	6	96	48	2
TAP	64	48	6
STR	64	96	1
SI_	64	96	1	96	48	5
TAP	64	144	1
STR	64	192	7
SI_	64	192	7	96	48	3
TAP	64	240	7
BRK	64	288	0
STR	65	0	2
SCL	65	0	2	96	48	0
TAP	65	96	4
STR	65	192	5
SCR	65	192	5	96	48	7
TAP	65	288	3
HLD	65	336	3	96
TAP	66	48	4
STR	66	96	4
SI_	66	96	4	96	48	6
STR	66	192	2
SI_	66	192	2	96	48	4
HLD	66	288	5	96
TAP	67	0	4
TAP	67	48	4
TAP	67	96	6
TAP	67	144	6
TAP	67	192	3
TAP	67	240	3
TAP	67	288	4
TAP	67	336	4
TAP	68	0	2
TAP	68	0	4
TAP	68	96	3
STR	68	96	5
SCR	68	96	5	96	96	2
STR	69	0	5
SCR	69	0	5	96	48	7
TAP	69	96	3
STR	69	192	2
SCL	69	192	2	96	48	0
TAP	69	288	4
HLD	69	336	4	96
TAP	70	48	3
STR	70	96	3
SI_	70	96	3	96	48	1
STR	70	192	5
SI_	70	192	5	96	48	3
HLD	70	288	2	96
TAP	71	0	3
TAP	71	96	4
TAP	71	96	5
TAP	71	192	6
TAP	71	192	7
TAP	71	288	0
STR	71	288	1
SCR	71	288	1	96	144	6
HLD	72	0	1	144
TAP	72	192	0
TAP	72	216	7
TAP	72	240	0
TAP	72	264	7
TAP	72	288	0
TAP	72	312	7
TAP	72	336	0
STR	73	0	0
SCR	73	0	0	96	48	3
TAP	73	48	1
TAP	73	96	0
TAP	73	96	5
STR	73	192	7
SCL	73	192	7	96	48	4
TAP	73	240	6
TAP	73	288	2
TAP	73	288	7
TAP	73	336	1
STR	74	0	0
SI_	74	0	0	96	48	4
TAP	74	48	4
TAP	74	96	0
TAP	74	96	5
TAP	74	144	6
STR	74	192	7
SI_	74	192	7	96	48	3
TAP	74	240	0
TAP	74	288	1
TAP	74	288	7
TAP	75	0	0
TAP	75	0	1
TAP	75	48	2
TAP	75	48	7
TAP	75	96	3
TAP	75	96	6
TAP	75	144	4
TAP	75	144	5
TAP	75	192	6
TAP	75	240	3
TAP	75	264	4
TAP	75	288	3
TAP	75	336	2
TAP	75	336	5
TAP	76	0	6
TAP	76	48	3
TAP	76	48	7
TAP	76	96	0
TAP	76	144	1
TAP	76	144	5
TAP	76	192	2
TAP	76	288	3
TAP	76	288	4
STR	77	0	7
SCL	77	0	7	96	48	4
TAP	77	48	6
TAP	77	96	2
TAP	77	96	7
STR	77	192	0
SCR	77	192	0	96	48	3
TAP	77	240	1
TAP	77	288	0
TAP	77	288	5
TAP	77	336	6
STR	78	0	7
SI_	78	0	7	96	48	3
TAP	78	48	3
TAP	78	96	2
TAP	78	96	7
TAP	78	144	1
STR	78	192	0
SI_	78	192	0	96	48	4
TAP	78	240	7
TAP	78	288	0
TAP	78	288	6
TAP	79	0	6
TAP	79	0	7
TAP	79	48	0
TAP	79	48	5
TAP	79	96	1
TAP	79	96	4
TAP	79	144	2
TAP	79	144	3
TAP	79	192	1
TAP	79	240	4
TAP	79	264	3
STR	79	288	4
SCR	79	288	4	96	144	2
TAP	79	336	3
HLD	80	0	4	144
TAP	80	192	3
TAP	80	216	4
TAP	80	240	3
TAP	80	264	4
TAP	80	288	3
TAP	80	312	4
TAP	80	336	3
TAP	81	0	2
TAP	81	48	4
TAP	81	96	0
TAP	81	96	6
TAP	81	192	5
TAP	81	240	3
TAP	81	288	1
TAP	81	288	7
STR	81	336	1
SCR	81	336	1	96	48	4
TAP	81	336	6
TAP	82	48	5
TAP	82	96	6
TAP	82	144	7
TAP	82	192	0
TAP	82	192	4
TAP	82	216	3
TAP	82	216	7
TAP	82	240	2
TAP	82	240	6
TAP	82	264	1
TAP	82	264	5
TAP	82	288	0
TAP	82	288	4
BRK	83	0	0
BRK	83	0	1
TAP	83	48	0
TAP	83	48	1
BRK	83	96	2
BRK	83	96	3
TAP	83	144	2
TAP	83	144	3
BRK	83	192	4
BRK	83	192	5
TAP	83	240	4
TAP	83	240	5
BRK	83	288	6
BRK	83	288	7
TAP	83	336	6
TAP	83	336	7
BRK	84	0	0
TAP	84	12	1
TAP	84	24	2
TAP	84	36	3
TAP	84	48	4
TAP	84	60	5
TAP	84	72	6
TAP	84	84	7
BRK	84	96	0
TAP	84	108	1
TAP	84	120	2
TAP	84	132	3
TAP	84	144	4
TAP	84	156	5
TAP	84	168	6
TAP	84	180	7
BRK	84	192	0
BRK	84	192	4
TAP	84	288	1
TAP	84	288	6
TAP	85	0	5
TAP	85	48	3
TAP	85	96	1
TAP	85	96	7
TAP	85	192	2
TAP	85	240	4
TAP	85	288	0
TAP	85	288	6
STR	85	336	6
SCL	85	336	6	96	48	3
TAP	86	48	2
TAP	86	96	1
TAP	86	144	0
TAP	86	192	3
STR	86	192	7
SI_	86	192	7	96	48	3
TAP	86	216	0
TAP	86	216	4
TAP	86	240	1
TAP	86	240	5
TAP	86	264	2
TAP	86	264	6
TAP	86	288	7
TAP	87	0	2
TAP	87	0	4
TAP	87	48	3
TAP	87	96	4
TAP	87	144	5
TAP	87	192	3
TAP	87	192	6
TAP	87	240	7
TAP	87	264	0
STR	87	288	7
SCL	87	288	7	96	264	0
TAP	87	336	7
HLD	88	0	7	96
TAP	88	192	7
TAP	88	216	6
TAP	88	240	5
TAP	88	264	4
TAP	88	288	3
TAP	88	312	2
TAP	88	336	1
TAP	88	360	0
BRK	89	0	3
TAP	89	0	7
TAP	89	48	6
TAP	89	96	5
BRK	89	144	0
TAP	89	144	4
TAP	89	192	3
TAP	89	240	2
TAP	89	288	1
BRK	89	288	5
TAP	89	336	0
TAP	90	0	3
STR	90	0	7
SI_	90	0	7	96	48	3
TAP	90	96	0
STR	90	144	0
SI_	90	144	0	96	48	4
TAP	90	240	7
TAP	90	288	7
TAP	91	0	0
BRK	91	0	4
TAP	91	48	1
TAP	91	96	2
TAP	91	144	3
BRK	91	144	7
TAP	91	192	4
TAP	91	240	5
BRK	91	288	2
TAP	91	288	6
TAP	91	336	7
STR	92	0	0
SI_	92	0	0	96	48	4
TAP	92	0	4
TAP	92	96	7
STR	92	144	7
SI_	92	144	7	96	48	3
TAP	92	240	0
TAP	92	288	0
BRK	93	0	2
TAP	93	0	6
TAP	93	48	5
TAP	93	96	4
TAP	93	144	3
BRK	93	144	7
TAP	93	192	2
TAP	93	240	1
TAP	93	288	0
BRK	93	288	4
TAP	93	336	7
TAP	94	0	2
STR	94	0	6
SUL	94	0	6	96	48	2
TAP	94	96	7
STR	94	144	7
SUR	94	144	7	96	48	3
TAP	94	240	6
TAP	94	288	6
TAP	95	0	1
BRK	95	0	5
TAP	95	48	2
TAP	95	96	3
BRK	95	144	0
TAP	95	144	4
TAP	95	192	5
TAP	95	240	6
BRK	95	288	3
TAP	95	288	7
TAP	95	336	0
STR	96	0	1
SUR	96	0	1	96	48	5
TAP	96	0	5
TAP	96	96	0
STR	96	144	0
SUL	96	144	0	96	48	4
TAP	96	240	1
TAP	96	288	1
BRK	97	0	1
TAP	97	48	5
TAP	97	72	4
TAP	97	96	5
BRK	97	144	1
TAP	97	192	5
TAP	97	216	4
TAP	97	240	5
BRK	97	288	1
TAP	97	336	5
TAP	97	360	4
STR	98	0	5
SUR	98	0	5	96	48	1
TAP	98	96	4
STR	98	144	4
SCL	98	144	4	96	48	1
TAP	98	240	7
TAP	98	288	7
BRK	99	0	6
TAP	99	48	2
TAP	99	72	3
TAP	99	96	2
BRK	99	144	6
TAP	99	192	2
TAP	99	216	3
TAP	99	240	2
BRK	99	288	6
TAP	99	336	2
TAP	99	360	3
STR	100	0	2
SUL	100	0	2	96	48	6
TAP	100	96	3
STR	100	144	3
SCR	100	144	3	96	48	6
TAP	100	240	0
TAP	100	288	0
BRK	101	0	2
TAP	101	24	3
TAP	101	48	2
TAP	101	72	1
TAP	101	96	2
BRK	101	144	5
TAP	101	168	4
TAP	101	192	5
TAP	101	216	6
TAP	101	240	5
BRK	101	288	2
TAP	101	312	3
TAP	101	336	2
TAP	101	360	1
TAP	102	0	2
TAP	102	96	6
TAP	102	144	5
TAP	102	144	7
TAP	102	240	1
TAP	102	288	0
TAP	102	288	2
BRK	103	0	6
TAP	103	24	7
TAP	103	48	6
TAP	103	72	5
TAP	103	96	6
BRK	103	144	1
TAP	103	168	0
TAP	103	192	1
TAP	103	216	2
TAP	103	240	1
BRK	103	288	6
TAP	103	312	7
TAP	103	336	6
TAP	103	360	5
BRK	104	0	6
BRK	104	144	1
BRK	104	144	5
BRK	104	288	3
BRK	104	288	7
BST	105	168	0
SUR	105	168	0	96	1656	0
BST	105	168	4
SUR	105	168	4	96	1656	4

T_REC_TAP	468
T_REC_BRK	48
T_REC_XTP	0
T_REC_HLD	87
T_REC_XHO	0
T_REC_STR	122
T_REC_BST	3
T_REC_XST	0
T_REC_TTP	0
T_REC_THO	0
T_REC_SLD	125
T_REC_ALL	853
T_NUM_TAP	590
T_NUM_BRK	51
T_NUM_HLD	87
T_NUM_SLD	125
T_NUM_ALL	853
T_JUDGE_TAP	641
T_JUDGE_HLD	145
T_JUDGE_SLD	125
T_JUDGE_ALL	911
TTM_EACHPAIRS	106
TTM_SCR_TAP	295000
TTM_SCR_BRK	132600
TTM_SCR_HLD	87000
TTM_SCR_SLD	187500
TTM_SCR_ALL	702100
TTM_SCR_S	676100
TTM_SCR_SS	697000
TTM_RAT_ACV	10073

