VERSION	0.00.00	1.03.00
FES_MODE	0
BPM_DEF	200.000	200.000	200.000	200.000
MET_DEF	4	4
RESOLUTION	384
CLK_DEF	384
COMPATIBLE_CODE	MA2

BPM	0	0	200.000
MET	41	0	4	4
MET	45	0	4	4
MET	49	0	4	4
MET	53	0	4	4
MET	101	0	4	4

STR	1	0	3
SI_	1	0	3	96	672	0
TAP	2	288	4
STR	3	0	4
SI_	3	0	4	96	672	7
TAP	4	288	3
STR	5	0	3
SI_	5	0	3	96	672	0
TAP	6	0	5
STR	7	0	6
SI_	7	0	6	96	96	2
STR	7	192	1
SI_	7	192	1	96	96	5
STR	8	0	7
SI_	8	0	7	96	48	3
STR	8	96	0
SI_	8	96	0	96	48	4
TAP	8	192	7
TAP	8	288	1
TAP	8	288	6
STR	9	0	5
SI_	9	0	5	96	48	3
TAP	9	96	1
STR	9	192	2
SI_	9	192	2	96	48	4
TAP	9	288	6
STR	10	0	5
SI_	10	0	5	96	48	3
TAP	10	96	0
STR	10	192	2
SI_	10	192	2	96	48	4
TAP	10	288	7
TAP	11	0	5
TAP	11	48	4
TAP	11	96	6
TAP	11	144	4
TAP	11	192	5
TAP	11	240	3
TAP	11	288	4
TAP	11	336	2
TAP	12	0	3
TAP	12	48	1
TAP	12	96	3
TAP	12	144	2
TAP	12	192	4
TAP	12	240	3
TAP	12	288	5
TAP	12	336	4
STR	13	0	5
SI_	13	0	5	96	48	3
TAP	13	96	1
STR	13	192	2
SI_	13	192	2	96	48	4
TAP	13	288	6
STR	14	0	5
SI_	14	0	5	96	48	3
TAP	14	96	0
STR	14	192	2
SI_	14	192	2	96	48	4
TAP	14	288	7
TAP	15	0	5
TAP	15	48	4
TAP	15	96	6
TAP	15	144	4
TAP	15	192	5
TAP	15	240	3
TAP	15	288	4
TAP	15	336	3
TAP	15	336	4
TAP	16	48	0
TAP	16	48	7
TAP	16	96	0
TAP	16	96	7
STR	16	192	1
SI_	16	192	1	96	48	4
STR	16	192	6
SI_	16	192	6	96	48	3
STR	17	0	2
SI_	17	0	2	96	48	4
TAP	17	96	6
TAP	17	144	6
STR	17	192	5
SI_	17	192	5	96	48	3
TAP	17	288	1
TAP	17	336	1
STR	18	0	2
SI_	18	0	2	96	48	4
TAP	18	96	6
TAP	18	144	6
STR	18	192	5
SI_	18	192	5	96	48	3
TAP	18	288	1
TAP	19	0	2
TAP	19	48	3
TAP	19	96	1
TAP	19	144	3
TAP	19	192	2
TAP	19	240	4
TAP	19	288	3
TAP	19	336	5
TAP	20	0	4
TAP	20	48	6
TAP	20	96	4
TAP	20	144	5
TAP	20	192	3
TAP	20	240	4
TAP	20	288	2
TAP	20	336	3
STR	21	0	2
SI_	21	0	2	96	48	4
TAP	21	96	6
TAP	21	144	6
STR	21	192	5
SI_	21	192	5	96	48	3
TAP	21	288	1
TAP	21	336	1
STR	22	0	2
SI_	22	0	2	96	48	4
TAP	22	96	6
TAP	22	144	6
STR	22	192	5
SI_	22	192	5	96	48	3
TAP	22	288	1
TAP	23	0	2
TAP	23	48	3
TAP	23	96	1
TAP	23	144	3
TAP	23	192	2
TAP	23	240	4
TAP	23	288	3
TAP	23	336	4
TAP	24	0	3
TAP	24	0	4
STR	24	96	0
SUL	24	96	0	96	96	3
STR	24	96	7
SUR	24	96	7	96	96	4
STR	25	0	1
SI_	25	0	1	96	48	4
STR	25	96	5
SI_	25	96	5	96	48	0
TAP	25	192	1
TAP	25	288	2
STR	25	336	2
SI_	25	336	2	96	48	5
TAP	26	48	7
STR	26	96	7
SI_	26	96	7	96	48	4
TAP	26	192	3
TAP	26	288	2
TAP	26	288	5
TAP	27	0	6
TAP	27	48	6
TAP	27	96	4
TAP	27	144	4
TAP	27	192	3
TAP	27	240	3
TAP	27	288	1
TAP	27	336	1
TAP	28	0	1
TAP	28	0	6
STR	28	96	0
SCR	28	96	0	96	96	3
STR	28	96	7
SUR	28	96	7	96	96	4
STR	29	0	6
SI_	29	0	6	96	48	3
STR	29	96	2
SI_	29	96	2	96	48	7
TAP	29	192	6
TAP	29	288	5
STR	29	336	5
SI_	29	336	5	96	48	2
TAP	30	48	0
STR	30	96	0
SI_	30	96	0	96	48	3
TAP	30	192	4
TAP	30	288	2
TAP	30	288	5
TAP	31	0	1
TAP	31	48	1
TAP	31	96	3
TAP	31	144	3
TAP	31	192	4
TAP	31	240	4
STR	31	288	6
SCL	31	288	6	96	192	7
BRK	32	288	0
BRK	32	288	7
STR	33	0	2
SI_	33	0	2	96	48	7
TAP	33	0	6
TAP	33	96	4
TAP	33	192	1
STR	33	192	5
SI_	33	192	5	96	48	0
TAP	33	288	3
STR	33	336	3
SI_	33	336	3	96	48	7
TAP	34	48	4
STR	34	96	4
SI_	34	96	4	96	48	0
TAP	34	192	2
TAP	34	288	1
TAP	34	288	5
TAP	35	0	7
TAP	35	48	7
TAP	35	96	4
TAP	35	144	4
TAP	35	192	3
TAP	35	240	3
TAP	35	288	0
TAP	35	336	0
TAP	36	0	1
TAP	36	0	6
STR	36	96	0
SUL	36	96	0	96	96	3
STR	36	96	7
SCL	36	96	7	96	96	4
TAP	37	0	1
STR	37	0	5
SI_	37	0	5	96	48	0
TAP	37	96	3
STR	37	192	2
SI_	37	192	2	96	48	7
TAP	37	192	6
TAP	37	288	4
STR	37	336	4
SI_	37	336	4	96	48	0
TAP	38	48	3
STR	38	96	3
SI_	38	96	3	96	48	7
TAP	38	192	5
TAP	38	288	2
TAP	38	288	6
TAP	39	0	0
TAP	39	48	0
TAP	39	96	3
TAP	39	144	3
TAP	39	192	4
TAP	39	240	4
STR	39	288	7
SCL	39	288	7	96	192	0
STR	41	0	1
SI_	41	0	1	96	48	5
TAP	41	0	6
TAP	41	96	7
STR	41	144	7
SI_	41	144	7	96	48	4
TAP	41	240	3
STR	41	288	3
SUL	41	288	3	96	192	1
HLD	42	0	5	288
TAP	42	240	0
TAP	42	288	0
TAP	43	0	1
STR	43	0	6
SI_	43	0	6	96	48	2
TAP	43	96	0
STR	43	144	0
SI_	43	144	0	96	48	3
TAP	43	240	4
STR	43	288	4
SUR	43	288	4	96	192	6
HLD	44	0	2	288
TAP	44	240	7
TAP	44	288	7
STR	45	0	1
SI_	45	0	1	96	48	5
TAP	45	0	6
TAP	45	96	7
STR	45	144	7
SI_	45	144	7	96	48	4
TAP	45	240	3
STR	45	288	3
SXL	45	288	3	96	192	1
HLD	46	0	5	288
TAP	46	240	0
TAP	46	288	0
TAP	47	0	1
STR	47	0	6
SI_	47	0	6	96	48	2
TAP	47	96	0
STR	47	144	0
SI_	47	144	0	96	48	3
TAP	47	240	4
STR	47	288	4
SXR	47	288	4	96	192	6
HLD	48	0	2	288
TAP	48	240	7
TAP	48	288	7
TAP	49	0	1
STR	49	0	4
SI_	49	0	4	96	48	7
TAP	49	96	0
STR	49	144	0
SI_	49	144	0	96	48	4
TAP	49	240	5
STR	49	288	5
SXL	49	288	5	96	192	2
HLD	50	0	0	288
TAP	50	240	4
TAP	50	288	4
STR	51	0	3
SI_	51	0	3	96	48	0
TAP	51	0	6
TAP	51	96	7
STR	51	144	7
SI_	51	144	7	96	48	3
TAP	51	240	2
STR	51	288	2
SXR	51	288	2	96	192	5
HLD	52	0	7	288
TAP	52	240	3
TAP	52	288	3
TAP	53	0	1
STR	53	0	4
SI_	53	0	4	96	48	7
TAP	53	96	0
STR	53	144	0
SI_	53	144	0	96	48	4
TAP	53	240	5
STR	53	288	5
SXL	53	288	5	96	192	2
HLD	54	0	0	288
TAP	54	240	4
TAP	54	288	4
STR	55	0	3
SI_	55	0	3	96	48	0
TAP	55	0	6
TAP	55	96	7
STR	55	144	7
SI_	55	144	7	96	48	3
TAP	55	240	2
TAP	55	288	2
TAP	56	0	1
TAP	56	0	6
TAP	56	96	2
TAP	56	144	2
TAP	56	144	3
TAP	56	240	5
TAP	56	288	4
STR	56	288	5
SCR	56	288	5	96	1440	2
HLD	57	0	2	96
HLD	57	192	2	96
HLD	58	0	3	96
HLD	58	192	3	96
HLD	59	0	4	96
HLD	59	192	4	96
HLD	60	0	5	96
HLD	60	192	5	96
STR	61	0	5
SCL	61	0	5	96	192	2
TAP	61	96	0
TAP	61	192	0
TAP	61	288	0
STR	62	0	2
SCR	62	0	2	96	192	5
TAP	62	96	7
TAP	62	192	7
TAP	62	288	7
TAP	63	0	1
TAP	63	0	5
TAP	63	96	3
TAP	63	192	2
TAP	63	192	6
TAP	63	288	4
TAP	64	0	1
TAP	64	0	5
TAP	64	96	2
TAP	64	96	6
TAP	64	192	3
TAP	64	216	4
TAP	64	240	3
TAP	64	264	4
TAP	64	288	3
HLD	65	0	5	192
TAP	65	96	4
HLD	65	192	3	192
TAP	65	288	4
TAP	65	336	4
HLD	66	0	5	192
TAP	66	48	4
TAP	66	96	4
TAP	66	192	3
TAP	66	288	2
TAP	66	288	6
HLD	67	0	2	48
HLD	67	0	3	48
HLD	67	96	3	48
HLD	67	96	4	48
HLD	67	192	4	48
HLD	67	192	5	48
HLD	67	288	3	48
HLD	67	288	4	48
HLD	68	0	1	48
HLD	68	0	6	48
STR	68	96	0
SCR	68	96	0	96	96	3
STR	68	96	7
SCL	68	96	7	96	96	4
HLD	69	0	2	192
TAP	69	96	3
HLD	69	192	4	192
TAP	69	288	3
TAP	69	336	3
HLD	70	0	2	192
TAP	70	48	3
TAP	70	96	3
TAP	70	192	4
TAP	70	288	1
TAP	70	288	5
HLD	71	0	4	48
HLD	71	0	6	48
HLD	71	96	3	48
HLD	71	96	4	48
HLD	71	192	1	48
HLD	71	192	3	48
STR	71	288	3
SCL	71	288	3	96	96	0
STR	71	288	4
SCR	71	288	4	96	96	7
TAP	72	192	0
TAP	72	216	7
TAP	72	240	0
TAP	72	264	7
BRK	72	288	0
STR	73	0	0
SI_	73	0	0	96	48	4
STR	73	0	1
SI_	73	0	1	96	48	5
STR	73	192	7
SI_	73	192	7	96	48	3
TAP	73	288	0
STR	73	336	0
SCR	73	336	0	96	48	3
TAP	74	48	6
STR	74	96	6
SI_	74	96	6	96	48	2
TAP	74	192	3
TAP	74	288	1
TAP	74	288	4
TAP	75	0	5
TAP	75	48	5
TAP	75	96	7
TAP	75	144	7
TAP	75	192	0
TAP	75	240	0
TAP	75	288	2
TAP	75	336	2
TAP	76	0	3
TAP	76	0	4
STR	76	96	0
SUL	76	96	0	96	96	3
STR	76	96	7
SCL	76	96	7	96	96	4
STR	77	0	6
SI_	77	0	6	96	48	2
STR	77	0	7
SI_	77	0	7	96	48	3
STR	77	192	0
SI_	77	192	0	96	48	4
TAP	77	288	7
STR	77	336	7
SCL	77	336	7	96	48	4
TAP	78	48	1
STR	78	96	1
SI_	78	96	1	96	48	5
TAP	78	192	4
TAP	78	288	3
TAP	78	288	6
TAP	79	0	2
TAP	79	48	2
TAP	79	96	0
TAP	79	144	0
TAP	79	192	7
TAP	79	240	7
STR	79	288	5
SCR	79	288	5	96	192	4
BRK	80	288	0
BRK	80	288	7
STR	81	0	4
SI_	81	0	4	96	48	7
STR	81	0	5
SI_	81	0	5	96	48	0
STR	81	192	2
SI_	81	192	2	96	48	5
TAP	81	192	3
TAP	81	288	6
STR	81	336	7
SI_	81	336	7	96	48	4
TAP	82	48	2
STR	82	96	3
SI_	82	96	3	96	48	0
TAP	82	192	4
TAP	82	288	0
TAP	82	288	5
STR	83	0	1
SI_	83	0	1	96	48	4
TAP	83	48	1
STR	83	96	6
SI_	83	96	6	96	48	3
TAP	83	144	6
STR	83	192	0
SI_	83	192	0	96	48	4
TAP	83	240	0
STR	83	288	7
SI_	83	288	7	96	48	3
TAP	83	336	7
STR	84	0	0
SCR	84	0	0	96	48	3
TAP	84	48	0
STR	84	96	7
SCL	84	96	7	96	48	4
TAP	84	144	7
TAP	84	192	0
TAP	84	288	1
TAP	84	288	6
STR	85	0	2
SI_	85	0	2	96	48	7
STR	85	0	3
SI_	85	0	3	96	48	0
TAP	85	192	4
STR	85	192	5
SI_	85	192	5	96	48	2
TAP	85	288	1
STR	85	336	0
SI_	85	336	0	96	48	3
TAP	86	48	5
STR	86	96	4
SI_	86	96	4	96	48	7
TAP	86	192	3
TAP	86	288	2
TAP	86	288	7
STR	87	0	6
SI_	87	0	6	96	48	3
TAP	87	48	6
STR	87	96	1
SI_	87	96	1	96	48	4
TAP	87	144	1
STR	87	192	7
SI_	87	192	7	96	48	3
TAP	87	240	7
STR	87	288	0
SCR	87	288	0	96	192	7
TAP	87	336	0
BRK	88	0	7
STR	89	0	2
SCR	89	0	2	96	48	5
TAP	89	96	7
STR	89	144	6
SCR	89	144	6	96	48	1
TAP	89	240	1
STR	89	288	2
SCR	89	288	2	96	48	5
HLD	90	0	6	144
TAP	90	96	0
STR	90	144	0
SI_	90	144	0	96	48	4
TAP	90	240	7
TAP	90	288	7
STR	91	0	5
SCL	91	0	5	96	48	2
TAP	91	96	0
STR	91	144	1
SCL	91	144	1	96	48	6
TAP	91	240	6
STR	91	288	5
SCL	91	288	5	96	48	2
HLD	92	0	1	144
TAP	92	96	7
STR	92	144	7
SI_	92	144	7	96	48	3
TAP	92	240	0
TAP	92	288	0
STR	93	0	2
SCR	93	0	2	96	48	5
TAP	93	96	7
STR	93	144	6
SCR	93	144	6	96	48	1
TAP	93	240	1
STR	93	288	2
SCR	93	288	2	96	48	5
HLD	94	0	6	144
TAP	94	96	0
STR	94	144	0
SI_	94	144	0	96	48	4
TAP	94	240	7
TAP	94	288	7
STR	95	0	5
SCL	95	0	5	96	48	2
TAP	95	96	0
STR	95	144	1
SCL	95	144	1	96	48	6
TAP	95	240	6
STR	95	288	5
SCL	95	288	5	96	48	2
HLD	96	0	1	144
TAP	96	96	7
STR	96	144	7
SI_	96	144	7	96	48	3
TAP	96	240	0
TAP	96	288	0
STR	97	0	1
SI_	97	0	1	96	48	6
TAP	97	96	4
STR	97	144	5
SI_	97	144	5	96	48	2
TAP	97	240	0
TAP	97	288	0
TAP	98	0	1
TAP	98	0	5
STR	98	96	7
SI_	98	96	7	96	48	3
STR	98	144	0
SI_	98	144	0	96	48	4
TAP	98	288	7
STR	99	0	6
SI_	99	0	6	96	48	1
TAP	99	96	3
STR	99	144	2
SI_	99	144	2	96	48	5
TAP	99	240	7
TAP	99	288	7
TAP	100	0	2
TAP	100	0	6
STR	100	96	0
SI_	100	96	0	96	48	4
STR	100	144	7
SI_	100	144	7	96	48	3
TAP	100	288	0
STR	101	0	1
SI_	101	0	1	96	48	6
TAP	101	96	4
STR	101	144	5
SI_	101	144	5	96	48	2
TAP	101	240	0
TAP	101	288	0
TAP	102	0	1
TAP	102	0	5
STR	102	96	6
SI_	102	96	6	96	48	2
STR	102	144	1
SI_	102	144	1	96	48	5
TAP	102	288	7
STR	103	0	6
SI_	103	0	6	96	48	1
TAP	103	96	3
STR	103	144	2
SI_	103	144	2	96	48	5
TAP	103	240	7
TAP	103	288	7
TAP	104	0	2
TAP	104	0	6
TAP	104	96	4
TAP	104	96	5
TAP	104	144	3
TAP	104	144	6
TAP	104	240	2
TAP	104	240	3
HLD	104	288	1	264
BRK	104	288	4
BST	105	168	0
SSL	105	168	0	96	1632	4
SSR	105	168	0	96	1632	4

T_REC_TAP	330
T_REC_BRK	7
T_REC_XTP	0
T_REC_HLD	42
T_REC_XHO	0
T_REC_STR	142
T_REC_BST	1
T_REC_XST	0
T_REC_TTP	0
T_REC_THO	0
T_REC_SLD	144
T_REC_ALL	666
T_NUM_TAP	472
T_NUM_BRK	8
T_NUM_HLD	42
T_NUM_SLD	144
T_NUM_ALL	666
T_JUDGE_TAP	480
T_JUDGE_HLD	116
T_JUDGE_SLD	144
T_JUDGE_ALL	740
TTM_EACHPAIRS	69
TTM_SCR_TAP	236000
TTM_SCR_BRK	20800
TTM_SCR_HLD	42000
TTM_SCR_SLD	216000
TTM_SCR_ALL	514800
TTM_SCR_S	498600
TTM_SCR_SS	514000
TTM_RAT_ACV	10015

