VERSION	0.00.00	1.03.00
FES_MODE	0
BPM_DEF	200.000	200.000	200.000	200.000
MET_DEF	4	4
RESOLUTION	384
CLK_DEF	384
COMPATIBLE_CODE	MA2

BPM	0	0	200.000
MET	41	0	4	4
MET	45	0	4	4
MET	49	0	4	4
MET	53	0	4	4
MET	101	0	4	4

STR	1	0	3
SCL	1	0	3	96	384	4
TAP	1	0	4
TAP	2	288	4
STR	3	0	4
SCR	3	0	4	96	384	3
TAP	4	288	3
STR	5	0	3
SCL	5	0	3	96	384	4
TAP	6	288	4
TAP	7	0	4
TAP	7	192	3
TAP	7	192	4
TAP	8	0	3
TAP	8	0	4
STR	8	96	3
SI_	8	96	3	96	96	0
STR	8	96	4
SI_	8	96	4	96	96	7
HLD	9	0	1	192
HLD	9	192	2	192
HLD	10	0	3	192
HLD	10	192	4	192
TAP	11	0	3
TAP	11	96	3
TAP	11	192	4
TAP	11	288	4
TAP	12	0	2
TAP	12	96	2
TAP	12	192	5
TAP	12	288	5
HLD	13	0	6	192
HLD	13	192	5	192
HLD	14	0	4	192
HLD	14	192	3	192
TAP	15	0	4
TAP	15	96	4
TAP	15	192	3
TAP	15	288	3
TAP	16	0	5
TAP	16	96	5
TAP	16	192	3
TAP	16	192	4
TAP	17	0	3
HLD	17	0	5	192
TAP	17	96	4
HLD	17	192	3	192
TAP	17	288	4
HLD	18	0	5	192
TAP	18	96	4
HLD	18	192	3	192
TAP	18	288	4
TAP	19	0	5
TAP	19	96	4
TAP	19	96	5
TAP	19	192	3
TAP	19	288	3
TAP	19	288	4
TAP	20	0	5
TAP	20	96	4
TAP	20	96	6
TAP	20	192	2
TAP	20	288	1
TAP	20	288	3
HLD	21	0	2	192
TAP	21	0	4
TAP	21	96	3
HLD	21	192	4	192
TAP	21	288	3
HLD	22	0	2	192
TAP	22	96	3
HLD	22	192	4	192
TAP	22	288	3
TAP	23	0	2
TAP	23	96	2
TAP	23	96	3
TAP	23	192	4
TAP	23	288	3
TAP	23	288	4
TAP	24	0	2
TAP	24	96	2
TAP	24	96	3
BRK	24	192	1
BRK	24	192	4
STR	25	0	3
SI_	25	0	3	96	48	0
STR	25	192	4
SI_	25	192	4	96	48	7
TAP	26	0	0
TAP	26	96	2
TAP	26	96	3
TAP	26	192	4
TAP	26	192	5
TAP	26	288	6
TAP	26	288	7
TAP	27	0	5
TAP	27	96	4
TAP	27	96	6
TAP	27	192	2
TAP	27	288	1
TAP	27	288	3
TAP	28	0	0
TAP	28	0	7
TAP	28	96	2
TAP	28	96	5
TAP	28	192	3
TAP	28	192	4
STR	29	0	4
SI_	29	0	4	96	48	7
STR	29	192	3
SI_	29	192	3	96	48	0
TAP	30	0	7
TAP	30	96	4
TAP	30	96	5
TAP	30	192	2
TAP	30	192	3
TAP	30	288	0
TAP	30	288	1
TAP	31	0	2
TAP	31	96	1
TAP	31	96	3
TAP	31	192	5
TAP	31	288	4
STR	31	288	6
SXL	31	288	6	96	288	3
STR	33	0	2
SI_	33	0	2	96	48	0
TAP	33	0	3
TAP	33	192	1
STR	33	192	3
SI_	33	192	3	96	48	7
TAP	34	0	0
TAP	34	96	1
TAP	34	96	3
TAP	34	192	3
TAP	34	192	5
TAP	34	288	5
TAP	34	288	7
TAP	35	0	0
TAP	35	96	1
TAP	35	96	7
TAP	35	192	7
TAP	35	288	0
TAP	35	288	6
TAP	36	0	4
TAP	36	0	5
TAP	36	96	2
TAP	36	96	3
TAP	36	192	0
TAP	36	192	7
TAP	37	0	4
STR	37	0	5
SI_	37	0	5	96	48	7
STR	37	192	4
SI_	37	192	4	96	48	0
TAP	37	192	6
TAP	38	0	7
TAP	38	96	4
TAP	38	96	6
TAP	38	192	2
TAP	38	192	4
TAP	38	288	0
TAP	38	288	2
TAP	39	0	6
TAP	39	96	5
TAP	39	96	7
TAP	39	192	1
STR	39	288	0
SF_	39	288	0	96	192	4
TAP	39	288	2
BRK	40	288	1
BRK	40	288	5
TAP	41	0	2
TAP	41	0	3
TAP	41	96	3
TAP	41	96	4
TAP	41	192	4
TAP	41	192	5
TAP	41	288	5
TAP	41	288	6
HLD	42	0	4	96
HLD	42	0	6	96
HLD	42	144	3	96
HLD	42	144	5	96
TAP	42	288	4
TAP	42	288	6
TAP	43	0	4
TAP	43	0	5
TAP	43	96	3
TAP	43	96	4
TAP	43	192	2
TAP	43	192	3
TAP	43	288	1
TAP	43	288	2
HLD	44	0	1	96
HLD	44	0	3	96
HLD	44	144	2	96
HLD	44	144	4	96
TAP	44	288	1
TAP	44	288	3
TAP	45	0	2
TAP	45	0	3
TAP	45	96	3
TAP	45	96	4
TAP	45	192	4
TAP	45	192	5
TAP	45	288	5
TAP	45	288	6
HLD	46	0	4	96
HLD	46	0	6	96
HLD	46	144	3	96
HLD	46	144	5	96
TAP	46	288	4
TAP	46	288	6
TAP	47	0	4
TAP	47	0	5
TAP	47	96	3
TAP	47	96	4
TAP	47	192	2
TAP	47	192	3
TAP	47	288	1
TAP	47	288	2
HLD	48	0	1	96
HLD	48	0	3	96
HLD	48	144	2	96
HLD	48	144	4	96
BRK	48	288	1
BRK	48	288	3
TAP	49	0	2
TAP	49	48	2
TAP	49	96	4
TAP	49	144	4
TAP	49	192	3
TAP	49	240	3
TAP	49	288	6
HLD	50	0	2	96
HLD	50	0	4	96
HLD	50	144	1	96
HLD	50	144	5	96
TAP	50	288	2
TAP	50	288	6
TAP	51	0	5
TAP	51	48	5
TAP	51	96	3
TAP	51	144	3
TAP	51	192	4
TAP	51	240	4
TAP	51	288	1
HLD	52	0	3	96
HLD	52	0	5	96
HLD	52	144	2	96
HLD	52	144	6	96
TAP	52	288	1
TAP	52	288	5
TAP	53	0	2
TAP	53	48	2
TAP	53	96	4
TAP	53	144	4
TAP	53	192	3
TAP	53	240	3
TAP	53	288	5
HLD	54	0	2	96
HLD	54	0	4	96
HLD	54	144	1	96
HLD	54	144	5	96
TAP	54	288	2
TAP	54	288	6
TAP	55	0	5
TAP	55	48	5
TAP	55	96	3
TAP	55	144	3
TAP	55	192	4
TAP	55	240	4
TAP	55	288	1
BRK	56	0	1
BRK	56	0	3
BRK	56	144	4
BRK	56	144	6
BRK	56	288	0
BRK	56	288	7
HLD	57	0	1	192
HLD	57	192	2	192
HLD	58	0	3	192
HLD	58	192	4	192
HLD	59	0	3	192
TAP	59	96	4
HLD	59	192	4	192
TAP	59	288	3
HLD	60	0	3	192
TAP	60	96	4
TAP	60	192	4
TAP	60	288	3
TAP	60	288	4
HLD	61	0	6	192
HLD	61	192	5	192
HLD	62	0	4	192
HLD	62	192	3	192
HLD	63	0	4	192
TAP	63	96	3
HLD	63	192	3	192
TAP	63	288	4
TAP	64	0	4
STR	64	96	2
SI_	64	96	2	96	96	7
STR	64	96	5
SI_	64	96	5	96	96	0
TAP	65	0	3
TAP	65	0	4
HLD	65	96	1	576
TAP	65	96	3
TAP	65	288	3
TAP	66	96	3
TAP	66	288	3
TAP	67	0	3
TAP	67	0	4
TAP	67	96	4
HLD	67	96	6	576
TAP	67	288	4
TAP	68	96	4
TAP	68	288	4
TAP	69	0	3
TAP	69	0	4
HLD	69	96	1	192
TAP	69	96	3
TAP	69	288	3
TAP	70	0	3
TAP	70	0	4
TAP	70	96	4
HLD	70	96	6	192
TAP	70	288	4
TAP	71	0	2
TAP	71	48	2
TAP	71	96	5
TAP	71	144	5
TAP	71	192	3
TAP	71	240	3
TAP	71	288	4
STR	72	0	3
SCL	72	0	3	96	96	0
STR	72	0	4
SCR	72	0	4	96	96	7
BRK	72	288	0
BRK	72	288	7
STR	73	0	4
SI_	73	0	4	96	48	0
TAP	73	0	6
TAP	73	192	1
STR	73	192	5
SI_	73	192	5	96	48	7
TAP	74	0	2
TAP	74	48	2
TAP	74	96	4
TAP	74	144	4
TAP	74	192	3
TAP	74	192	4
TAP	74	288	2
TAP	74	288	5
STR	75	0	1
SI_	75	0	1	96	48	3
STR	75	96	7
SI_	75	96	7	96	48	5
STR	75	192	0
SI_	75	192	0	96	48	4
TAP	76	0	7
TAP	76	48	7
TAP	76	96	0
BRK	76	192	1
BRK	76	192	6
TAP	76	288	3
TAP	76	288	4
TAP	77	0	1
STR	77	0	3
SI_	77	0	3	96	48	7
STR	77	192	2
SI_	77	192	2	96	48	0
TAP	77	192	6
TAP	78	0	5
TAP	78	48	5
TAP	78	96	3
TAP	78	144	3
TAP	78	192	3
TAP	78	192	4
TAP	78	288	2
TAP	78	288	5
TAP	79	0	0
TAP	79	0	7
STR	79	96	6
SI_	79	96	6	96	48	4
STR	79	192	0
SI_	79	192	0	96	48	2
STR	79	288	7
SF_	79	288	7	96	192	3
BRK	80	288	2
BRK	80	288	6
TAP	81	0	1
STR	81	0	3
SI_	81	0	3	96	48	7
STR	81	192	2
SI_	81	192	2	96	48	0
TAP	81	192	3
TAP	82	0	7
TAP	82	48	7
TAP	82	96	0
TAP	82	144	0
TAP	82	192	0
TAP	82	192	7
TAP	82	288	2
TAP	82	288	5
STR	83	0	1
SI_	83	0	1	96	48	3
STR	83	96	7
SI_	83	96	7	96	48	3
STR	83	192	0
SI_	83	192	0	96	48	4
TAP	84	0	7
TAP	84	48	7
TAP	84	96	0
BRK	84	192	1
BRK	84	192	6
TAP	84	288	3
TAP	84	288	4
STR	85	0	4
SI_	85	0	4	96	48	0
TAP	85	0	6
TAP	85	192	4
STR	85	192	5
SI_	85	192	5	96	48	7
TAP	86	0	0
TAP	86	48	0
TAP	86	96	7
TAP	86	144	7
TAP	86	192	0
TAP	86	192	7
TAP	86	288	2
TAP	86	288	5
TAP	87	0	0
TAP	87	0	7
STR	87	96	1
SI_	87	96	1	96	48	3
STR	87	192	7
SI_	87	192	7	96	48	5
STR	87	288	0
SF_	87	288	0	96	192	4
BRK	88	288	2
BRK	88	288	6
TAP	89	0	5
TAP	89	48	5
TAP	89	96	3
TAP	89	144	3
TAP	89	192	6
TAP	89	240	6
TAP	89	288	4
TAP	89	288	6
HLD	90	0	3	96
HLD	90	0	5	96
HLD	90	144	0	96
HLD	90	144	6	96
TAP	90	288	2
TAP	90	288	4
TAP	91	0	2
TAP	91	48	2
TAP	91	96	4
TAP	91	144	4
TAP	91	192	1
TAP	91	240	1
TAP	91	288	1
TAP	91	288	3
HLD	92	0	2	96
HLD	92	0	4	96
HLD	92	144	1	96
HLD	92	144	7	96
TAP	92	288	3
TAP	92	288	5
TAP	93	0	5
TAP	93	48	5
TAP	93	96	3
TAP	93	144	3
TAP	93	192	6
TAP	93	240	6
TAP	93	288	4
TAP	93	288	6
HLD	94	0	3	96
HLD	94	0	5	96
HLD	94	144	0	96
HLD	94	144	6	96
TAP	94	288	2
TAP	94	288	4
TAP	95	0	2
TAP	95	48	2
TAP	95	96	4
TAP	95	144	4
TAP	95	192	1
TAP	95	240	1
TAP	95	288	1
TAP	95	288	3
HLD	96	0	2	96
HLD	96	0	4	96
HLD	96	144	1	96
HLD	96	144	7	96
TAP	96	288	3
TAP	96	288	5
TAP	97	0	6
TAP	97	48	6
TAP	97	96	0
TAP	97	144	0
TAP	97	192	4
TAP	97	240	4
TAP	97	288	2
TAP	97	288	4
HLD	98	0	3	96
HLD	98	0	5	96
HLD	98	144	4	96
HLD	98	144	7	96
TAP	98	288	2
TAP	98	288	3
TAP	99	0	1
TAP	99	48	1
TAP	99	96	7
TAP	99	144	7
TAP	99	192	3
TAP	99	240	3
TAP	99	288	3
TAP	99	288	5
HLD	100	0	2	96
HLD	100	0	4	96
HLD	100	144	0	96
HLD	100	144	3	96
TAP	100	288	4
TAP	100	288	5
TAP	101	0	6
TAP	101	48	6
TAP	101	96	0
TAP	101	144	0
TAP	101	192	4
TAP	101	240	4
TAP	101	288	2
TAP	101	288	4
HLD	102	0	3	96
HLD	102	0	5	96
HLD	102	144	4	96
HLD	102	144	7	96
TAP	102	288	2
TAP	102	288	3
TAP	103	0	1
TAP	103	48	1
TAP	103	96	7
TAP	103	144	7
TAP	103	192	3
TAP	103	240	3
TAP	103	288	3
TAP	103	288	4
BRK	104	0	3
BRK	104	0	6
BRK	104	144	1
BRK	104	144	4
BRK	104	288	0
BRK	104	288	7
BST	105	168	1
SXR	105	168	1	96	1656	6
BST	105	168	5
SXR	105	168	5	96	1656	2

T_REC_TAP	362
T_REC_BRK	28
T_REC_XTP	0
T_REC_HLD	89
T_REC_XHO	0
T_REC_STR	39
T_REC_BST	2
T_REC_XST	0
T_REC_TTP	0
T_REC_THO	0
T_REC_SLD	41
T_REC_ALL	561
T_NUM_TAP	401
T_NUM_BRK	30
T_NUM_HLD	89
T_NUM_SLD	41
T_NUM_ALL	561
T_JUDGE_TAP	431
T_JUDGE_HLD	260
T_JUDGE_SLD	41
T_JUDGE_ALL	732
TTM_EACHPAIRS	155
TTM_SCR_TAP	200500
TTM_SCR_BRK	78000
TTM_SCR_HLD	89000
TTM_SCR_SLD	61500
TTM_SCR_ALL	429000
TTM_SCR_S	413250
TTM_SCR_SS	426000
TTM_RAT_ACV	10070

