VERSION	0.00.00	1.03.00
FES_MODE	0
BPM_DEF	200.000	200.000	200.000	200.000
MET_DEF	4	4
RESOLUTION	384
CLK_DEF	384
COMPATIBLE_CODE	MA2

BPM	0	0	200.000

HLD	1	0	5	768
HLD	3	0	4	768
HLD	5	0	3	768
TAP	7	0	2
TAP	7	192	2
TAP	8	0	3
TAP	8	192	3
TAP	8	192	4
HLD	9	0	5	192
TAP	9	192	4
HLD	10	0	2	192
TAP	10	192	3
TAP	11	0	3
TAP	11	96	3
TAP	11	192	4
TAP	11	288	4
TAP	12	0	5
TAP	12	96	5
TAP	12	192	4
TAP	12	288	3
HLD	13	0	2	192
TAP	13	192	3
HLD	14	0	5	192
TAP	14	192	4
TAP	15	0	4
TAP	15	96	4
TAP	15	192	3
TAP	15	288	3
TAP	16	0	2
TAP	16	96	2
TAP	16	192	3
TAP	16	288	4
TAP	17	0	5
TAP	17	96	5
TAP	17	192	4
TAP	17	192	5
TAP	17	288	4
TAP	17	288	5
TAP	18	0	3
TAP	18	96	3
TAP	18	192	3
TAP	18	192	4
TAP	18	288	3
TAP	18	288	4
TAP	19	0	2
TAP	19	96	3
TAP	19	192	4
TAP	19	288	5
TAP	20	0	6
TAP	20	96	5
TAP	20	192	4
TAP	20	288	3
TAP	21	0	2
TAP	21	96	2
TAP	21	192	2
TAP	21	192	3
TAP	21	288	2
TAP	21	288	3
TAP	22	0	4
TAP	22	96	4
TAP	22	192	3
TAP	22	192	4
TAP	22	288	3
TAP	22	288	4
TAP	23	0	5
TAP	23	96	4
TAP	23	192	3
TAP	23	288	2
TAP	24	0	1
TAP	24	96	2
TAP	24	192	3
TAP	24	192	4
TAP	25	0	5
TAP	25	96	5
TAP	25	192	6
TAP	25	288	6
TAP	26	0	7
TAP	26	96	7
TAP	26	192	0
TAP	26	192	7
TAP	26	288	0
TAP	26	288	7
TAP	27	0	1
TAP	27	96	2
TAP	27	192	3
TAP	27	288	4
TAP	28	0	4
TAP	28	0	5
TAP	28	96	4
TAP	28	96	5
TAP	28	192	3
TAP	28	192	6
TAP	29	0	2
TAP	29	96	2
TAP	29	192	1
TAP	29	288	1
TAP	30	0	0
TAP	30	96	0
TAP	30	192	0
TAP	30	192	7
TAP	30	288	0
TAP	30	288	7
TAP	31	0	6
TAP	31	96	5
TAP	31	192	4
TAP	31	288	5
STR	32	0	4
SI_	32	0	4	96	144	1
STR	32	0	5
SI_	32	0	5	96	144	0
TAP	33	0	1
TAP	33	96	1
TAP	33	192	2
TAP	33	288	2
TAP	34	0	3
TAP	34	96	3
TAP	34	192	3
TAP	34	192	4
TAP	34	288	3
TAP	34	288	4
TAP	35	0	5
TAP	35	96	6
TAP	35	192	7
TAP	35	288	0
TAP	36	0	0
TAP	36	0	1
TAP	36	96	0
TAP	36	96	1
TAP	36	192	2
TAP	36	192	7
TAP	37	0	6
TAP	37	96	6
TAP	37	192	5
TAP	37	288	5
TAP	38	0	4
TAP	38	96	4
TAP	38	192	3
TAP	38	192	4
TAP	38	288	3
TAP	38	288	4
TAP	39	0	2
TAP	39	96	1
TAP	39	192	0
TAP	39	288	7
BRK	40	0	1
BRK	40	0	6
TAP	41	0	0
TAP	41	96	1
TAP	41	192	2
TAP	41	288	3
STR	42	0	4
SI_	42	0	4	96	144	7
TAP	43	0	7
TAP	43	96	6
TAP	43	192	5
TAP	43	288	4
STR	44	0	3
SI_	44	0	3	96	144	0
TAP	45	0	0
TAP	45	96	1
TAP	45	192	2
TAP	45	288	3
STR	46	0	4
SI_	46	0	4	96	144	7
TAP	47	0	7
TAP	47	96	6
TAP	47	192	5
TAP	47	288	4
STR	48	0	3
SI_	48	0	3	96	144	0
TAP	49	0	0
TAP	49	96	0
TAP	49	192	7
TAP	49	288	7
STR	50	0	6
SI_	50	0	6	96	144	2
TAP	51	0	1
TAP	51	96	1
TAP	51	192	2
TAP	51	288	3
STR	52	0	4
SI_	52	0	4	96	144	7
TAP	53	0	7
TAP	53	96	7
TAP	53	192	0
TAP	53	288	0
STR	54	0	1
SI_	54	0	1	96	144	5
TAP	55	0	6
TAP	55	96	6
TAP	55	192	5
TAP	55	288	4
STR	56	0	3
SI_	56	0	3	96	144	0
HLD	57	0	0	192
HLD	57	192	1	192
HLD	58	0	2	192
TAP	58	192	3
HLD	59	0	4	192
HLD	59	192	5	192
HLD	60	0	6	192
TAP	60	192	7
HLD	61	0	7	192
HLD	61	192	6	192
HLD	62	0	5	192
TAP	62	192	4
HLD	63	0	3	192
HLD	63	192	2	192
HLD	64	0	1	192
TAP	64	192	0
TAP	65	0	1
TAP	65	96	2
TAP	65	192	3
TAP	66	0	3
TAP	66	96	4
TAP	66	192	3
TAP	66	192	5
TAP	67	0	6
TAP	67	96	5
TAP	67	192	4
TAP	68	0	4
TAP	68	96	3
TAP	68	192	2
TAP	68	192	4
TAP	69	0	1
TAP	69	96	2
TAP	69	192	3
TAP	70	0	3
TAP	70	96	4
TAP	70	192	3
TAP	70	192	5
TAP	71	0	6
TAP	71	96	5
TAP	71	192	4
TAP	71	288	3
TAP	72	0	4
TAP	72	96	3
BRK	72	192	2
BRK	72	192	5
TAP	73	0	7
TAP	73	96	6
TAP	73	192	5
TAP	73	288	4
TAP	74	0	3
TAP	74	96	2
TAP	74	192	1
TAP	74	288	0
TAP	75	0	1
TAP	75	0	7
TAP	75	96	1
TAP	75	96	7
TAP	75	192	0
TAP	75	192	6
TAP	75	288	0
TAP	75	288	6
TAP	76	0	1
TAP	76	0	7
TAP	76	96	0
TAP	76	96	6
TAP	76	192	1
TAP	76	192	7
TAP	77	0	0
TAP	77	96	1
TAP	77	192	2
TAP	77	288	3
TAP	78	0	4
TAP	78	96	5
TAP	78	192	6
TAP	78	288	7
TAP	79	0	0
TAP	79	0	7
TAP	79	96	0
TAP	79	96	7
TAP	79	192	1
TAP	79	192	6
TAP	79	288	1
TAP	79	288	6
STR	80	0	2
SI_	80	0	2	96	96	0
STR	80	0	5
SI_	80	0	5	96	96	7
TAP	81	0	0
TAP	81	96	1
TAP	81	192	2
TAP	81	288	3
TAP	82	0	4
TAP	82	96	5
TAP	82	192	6
TAP	82	288	7
TAP	83	0	0
TAP	83	0	6
TAP	83	96	0
TAP	83	96	6
TAP	83	192	1
TAP	83	192	7
TAP	83	288	1
TAP	83	288	7
TAP	84	0	0
TAP	84	0	6
TAP	84	96	1
TAP	84	96	7
TAP	84	192	0
TAP	84	192	6
TAP	85	0	7
TAP	85	96	6
TAP	85	192	5
TAP	85	288	4
TAP	86	0	3
TAP	86	96	2
TAP	86	192	1
TAP	86	288	0
TAP	87	0	0
TAP	87	0	7
TAP	87	96	0
TAP	87	96	7
TAP	87	192	1
TAP	87	192	6
TAP	87	288	1
TAP	87	288	6
STR	88	0	2
SI_	88	0	2	96	96	0
STR	88	0	5
SI_	88	0	5	96	96	7
TAP	89	0	6
TAP	89	96	7
TAP	89	192	0
TAP	89	288	1
STR	90	0	2
SI_	90	0	2	96	144	5
TAP	91	0	6
TAP	91	96	5
TAP	91	192	4
TAP	91	288	3
STR	92	0	4
SI_	92	0	4	96	144	0
TAP	93	0	1
TAP	93	96	0
TAP	93	192	7
TAP	93	288	6
STR	94	0	5
SI_	94	0	5	96	144	2
TAP	95	0	1
TAP	95	96	2
TAP	95	192	3
TAP	95	288	4
STR	96	0	3
SI_	96	0	3	96	144	7
TAP	97	0	6
TAP	97	96	6
TAP	97	192	7
TAP	97	288	7
STR	98	0	0
SI_	98	0	0	96	144	5
STR	98	0	1
SI_	98	0	1	96	144	4
TAP	99	0	2
TAP	99	96	2
TAP	99	192	1
TAP	99	288	0
STR	100	0	6
SI_	100	0	6	96	144	3
STR	100	0	7
SI_	100	0	7	96	144	2
TAP	101	0	1
TAP	101	96	2
TAP	101	192	3
TAP	101	288	4
STR	102	0	2
SI_	102	0	2	96	144	7
STR	102	0	3
SI_	102	0	3	96	144	6
TAP	103	0	6
TAP	103	96	5
TAP	103	192	4
TAP	103	288	3
STR	104	0	4
SI_	104	0	4	96	144	1
STR	104	0	5
SI_	104	0	5	96	144	0
STR	105	168	0
SCR	105	168	0	96	888	7

T_REC_TAP	304
T_REC_BRK	4
T_REC_XTP	0
T_REC_HLD	19
T_REC_XHO	0
T_REC_STR	27
T_REC_BST	0
T_REC_XST	0
T_REC_TTP	0
T_REC_THO	0
T_REC_SLD	27
T_REC_ALL	381
T_NUM_TAP	331
T_NUM_BRK	4
T_NUM_HLD	19
T_NUM_SLD	27
T_NUM_ALL	381
T_JUDGE_TAP	335
T_JUDGE_HLD	112
T_JUDGE_SLD	27
T_JUDGE_ALL	474
TTM_EACHPAIRS	58
TTM_SCR_TAP	165500
TTM_SCR_BRK	10400
TTM_SCR_HLD	19000
TTM_SCR_SLD	40500
TTM_SCR_ALL	235400
TTM_SCR_S	227950
TTM_SCR_SS	235000
TTM_RAT_ACV	10017

