VERSION	0.00.00	1.03.00
FES_MODE	0
BPM_DEF	200.000	200.000	200.000	200.000
MET_DEF	4	4
RESOLUTION	384
CLK_DEF	384
COMPATIBLE_CODE	MA2

BPM	0	0	200.000

TAP	9	0	7
TAP	9	192	7
TAP	10	0	7
TAP	11	0	6
TAP	11	192	6
TAP	12	0	6
TAP	13	0	5
TAP	13	192	5
TAP	14	0	5
TAP	15	0	4
TAP	15	192	4
TAP	16	0	3
TAP	16	0	4
TAP	17	0	2
TAP	17	192	2
TAP	18	0	2
TAP	18	0	3
TAP	19	0	5
TAP	19	192	5
TAP	20	0	4
TAP	20	0	5
TAP	21	0	2
TAP	21	192	2
TAP	22	0	2
TAP	22	0	3
TAP	23	0	5
TAP	23	192	5
BRK	24	0	4
BRK	24	0	5
TAP	25	0	6
TAP	25	192	6
TAP	26	0	6
TAP	27	0	7
TAP	27	192	7
TAP	28	0	0
TAP	28	0	7
TAP	29	0	1
TAP	29	192	1
TAP	30	0	1
TAP	31	0	0
TAP	31	192	0
TAP	32	0	0
TAP	32	0	7
TAP	33	0	6
TAP	33	192	6
TAP	34	0	6
TAP	35	0	5
TAP	35	192	5
TAP	36	0	4
TAP	36	0	5
TAP	37	0	3
TAP	37	192	3
TAP	38	0	3
TAP	39	0	2
TAP	39	192	2
TAP	40	0	2
TAP	40	0	3
STR	41	0	1
SI_	41	0	1	96	288	5
STR	43	0	6
SI_	43	0	6	96	288	2
STR	45	0	1
SI_	45	0	1	96	288	5
STR	47	0	6
SI_	47	0	6	96	288	2
TAP	49	0	1
TAP	49	192	1
TAP	50	0	1
TAP	51	0	2
TAP	51	192	2
TAP	52	0	2
TAP	53	0	3
TAP	53	192	3
TAP	54	0	3
TAP	55	0	4
TAP	55	192	4
BRK	56	0	3
BRK	56	0	4
HLD	57	0	4	384
HLD	59	0	5	384
HLD	61	0	6	384
HLD	63	0	0	384
HLD	63	0	7	384
TAP	65	0	0
TAP	65	192	0
TAP	66	0	0
TAP	66	96	0
TAP	66	192	0
TAP	67	0	1
TAP	67	192	1
TAP	68	0	1
TAP	68	96	1
TAP	68	192	1
TAP	69	0	2
TAP	69	192	2
TAP	70	0	2
TAP	70	96	2
TAP	70	192	2
TAP	71	0	3
TAP	71	192	3
TAP	72	0	3
TAP	72	0	4
TAP	73	0	4
TAP	73	192	4
TAP	74	0	4
TAP	74	96	4
TAP	74	192	4
TAP	75	0	5
TAP	75	192	5
TAP	76	0	5
TAP	76	96	5
TAP	76	192	5
TAP	77	0	6
TAP	77	192	6
TAP	78	0	6
TAP	78	96	6
TAP	78	192	6
TAP	79	0	7
TAP	79	192	7
TAP	80	0	0
TAP	80	0	7
TAP	81	0	7
TAP	81	96	7
TAP	81	192	7
TAP	82	0	6
TAP	82	96	6
TAP	82	192	6
TAP	83	0	5
TAP	83	96	5
TAP	83	192	5
TAP	84	0	4
TAP	84	96	3
TAP	84	192	4
TAP	85	0	3
TAP	85	96	3
TAP	85	192	3
TAP	86	0	2
TAP	86	96	2
TAP	86	192	2
TAP	87	0	1
TAP	87	96	1
TAP	87	192	1
BRK	88	0	0
BRK	88	0	7
STR	89	0	0
SI_	89	0	0	96	288	4
STR	91	0	7
SI_	91	0	7	96	288	3
STR	93	0	0
SI_	93	0	0	96	288	4
STR	95	0	7
SI_	95	0	7	96	288	3
TAP	97	0	0
TAP	97	192	0
HLD	98	0	1	192
TAP	99	0	2
TAP	99	192	2
HLD	100	0	3	192
TAP	101	0	4
TAP	101	192	4
HLD	102	0	5	192
TAP	103	0	6
TAP	103	192	6
HLD	104	0	0	552
HLD	104	0	7	552

T_REC_TAP	133
T_REC_BRK	6
T_REC_XTP	0
T_REC_HLD	10
T_REC_XHO	0
T_REC_STR	8
T_REC_BST	0
T_REC_XST	0
T_REC_TTP	0
T_REC_THO	0
T_REC_SLD	8
T_REC_ALL	165
T_NUM_TAP	141
T_NUM_BRK	6
T_NUM_HLD	10
T_NUM_SLD	8
T_NUM_ALL	165
T_JUDGE_TAP	147
T_JUDGE_HLD	76
T_JUDGE_SLD	8
T_JUDGE_ALL	231
TTM_EACHPAIRS	15
TTM_SCR_TAP	70500
TTM_SCR_BRK	15600
TTM_SCR_HLD	10000
TTM_SCR_SLD	12000
TTM_SCR_ALL	108100
TTM_SCR_S	104300
TTM_SCR_SS	107500
TTM_RAT_ACV	10055

