VERSION	0.00.00	1.03.00
FES_MODE	0
BPM_DEF	 90.000	 60.000	 90.000	 27.666
MET_DEF	4	4
RESOLUTION	384
CLK_DEF	384
COMPATIBLE_CODE	MA2

BPM	0	0	 90.000
BPM	0	288	 60.000
BPM	31	288	 55.333
BPM	35	288	 27.666
MET	0	0	4	5
MET	1	96	4	2

TAP	1	64	1
STR	1	96	0
SCR	1	96	0	96	64	4
TAP	1	96	7
TAP	1	160	6
TAP	1	192	5
TAP	1	256	7
TAP	1	288	7
TAP	1	320	0
TAP	1	352	0
TAP	2	0	1
STR	2	0	6
SCL	2	0	6	96	64	3
TAP	2	64	1
TAP	2	96	2
TAP	2	160	1
STR	2	192	2
SCL	2	192	2	96	96	4
TAP	2	224	5
TAP	2	256	4
TAP	2	288	5
TAP	3	64	6
TAP	3	96	0
STR	3	96	7
SCL	3	96	7	96	64	3
TAP	3	160	1
TAP	3	192	2
TAP	3	256	0
STR	3	288	0
SUL	3	288	0	96	64	3
TAP	3	288	4
TAP	3	320	5
TAP	3	352	6
TAP	4	0	7
TAP	4	32	6
TAP	4	64	5
STR	4	96	4
SCR	4	96	4	96	64	7
TAP	4	192	2
TAP	4	224	1
TAP	4	256	0
BST	4	288	2
SI_	4	288	2	96	32	7
BRK	4	288	6
STR	4	320	7
SI_	4	320	7	96	32	4
STR	4	352	4
SI_	4	352	4	96	32	1
TAP	5	0	5
TAP	5	32	6
TAP	5	64	5
STR	5	96	6
SI_	5	96	6	96	32	3
STR	5	128	3
SI_	5	128	3	96	32	0
STR	5	160	0
SI_	5	160	0	96	32	5
TAP	5	192	1
TAP	5	224	2
TAP	5	256	1
STR	5	288	1
SI_	5	288	1	96	32	4
STR	5	320	4
SI_	5	320	4	96	32	7
STR	5	352	7
SI_	5	352	7	96	32	2
TAP	6	0	6
TAP	6	32	5
TAP	6	64	6
STR	6	96	5
SI_	6	96	5	96	32	0
STR	6	128	0
SI_	6	128	0	96	32	3
STR	6	160	3
SI_	6	160	3	96	32	6
TAP	6	192	2
TAP	6	224	1
TAP	6	256	2
STR	6	288	2
SCL	6	288	2	96	32	7
TAP	6	320	2
TAP	6	352	2
TAP	7	0	2
STR	7	0	6
SCL	7	0	6	96	32	3
TAP	7	32	6
TAP	7	64	6
STR	7	96	1
SCL	7	96	1	96	32	6
TAP	7	96	6
TAP	7	128	1
TAP	7	160	1
TAP	7	192	1
STR	7	192	5
SUL	7	192	5	96	32	0
TAP	7	224	5
TAP	7	256	5
STR	7	288	1
SCR	7	288	1	96	32	4
TAP	7	288	5
TAP	7	320	1
TAP	7	352	1
TAP	8	0	1
STR	8	0	6
SUR	8	0	6	96	32	3
TAP	8	32	6
TAP	8	64	6
STR	8	96	2
SCL	8	96	2	96	32	7
TAP	8	96	6
TAP	8	128	2
TAP	8	160	2
TAP	8	192	2
STR	8	192	6
SUR	8	192	6	96	32	4
TAP	8	224	6
TAP	8	256	6
STR	8	288	1
SCL	8	288	1	96	32	6
TAP	8	288	6
TAP	8	320	1
TAP	8	352	1
TAP	9	0	1
STR	9	0	5
SUL	9	0	5	96	32	7
TAP	9	32	5
TAP	9	64	5
STR	9	96	2
SCR	9	96	2	96	32	5
TAP	9	96	5
TAP	9	128	2
TAP	9	160	2
TAP	9	192	2
STR	9	192	7
SI_	9	192	7	96	32	4
TAP	9	224	7
TAP	9	256	7
STR	9	288	3
SI_	9	288	3	96	32	0
TAP	9	288	7
TAP	9	320	3
TAP	9	352	3
TAP	10	0	3
STR	10	0	7
SXL	10	0	7	96	96	3
SXR	10	0	7	96	96	3
TAP	10	32	7
TAP	10	64	7
TAP	10	96	7
STR	10	288	2
SCR	10	288	2	96	64	5
TAP	10	288	5
STR	11	0	5
SUL	11	0	5	96	64	1
STR	11	96	1
SUR	11	96	1	96	64	6
TAP	11	128	0
TAP	11	160	7
TAP	11	192	7
TAP	11	224	0
TAP	11	288	2
STR	11	288	5
SCL	11	288	5	96	64	2
STR	12	0	2
SUR	12	0	2	96	64	6
STR	12	96	6
SUL	12	96	6	96	64	1
TAP	12	128	7
TAP	12	160	0
TAP	12	192	0
TAP	12	224	7
STR	12	288	1
SCR	12	288	1	96	64	5
TAP	12	288	6
STR	13	0	5
SUL	13	0	5	96	64	0
STR	13	96	0
SCR	13	96	0	96	64	5
TAP	13	128	7
TAP	13	160	6
TAP	13	192	6
TAP	13	224	7
TAP	13	288	1
STR	13	288	6
SCL	13	288	6	96	64	3
STR	14	0	3
SF_	14	0	3	96	64	7
TAP	14	64	1
TAP	14	80	2
TAP	14	96	3
TAP	14	224	6
TAP	14	256	2
STR	14	288	4
SCL	14	288	4	96	64	0
TAP	14	304	4
TAP	14	320	5
TAP	14	336	5
TAP	14	352	6
TAP	15	0	5
TAP	15	16	5
TAP	15	32	6
TAP	15	48	6
TAP	15	64	7
STR	15	96	0
SCL	15	96	0	96	64	4
TAP	15	112	0
TAP	15	128	1
TAP	15	144	1
TAP	15	160	2
TAP	15	192	1
TAP	15	208	1
TAP	15	224	2
TAP	15	240	2
TAP	15	256	3
STR	15	288	3
SCR	15	288	3	96	64	7
TAP	15	304	3
TAP	15	320	2
TAP	15	336	2
TAP	15	352	1
TAP	16	0	2
TAP	16	16	2
TAP	16	32	1
TAP	16	48	1
TAP	16	64	0
STR	16	96	7
SCR	16	96	7	96	64	3
TAP	16	112	7
TAP	16	128	6
TAP	16	144	6
TAP	16	160	5
TAP	16	192	6
TAP	16	208	6
TAP	16	224	5
TAP	16	240	5
TAP	16	256	4
STR	16	288	1
SCR	16	288	1	96	32	4
TAP	16	288	6
TAP	16	352	7
TAP	16	368	7
TAP	17	0	1
TAP	17	0	6
TAP	17	32	5
TAP	17	64	6
TAP	17	96	2
STR	17	96	5
SUL	17	96	5	96	32	1
TAP	17	128	1
TAP	17	160	1
TAP	17	192	2
TAP	17	192	5
TAP	17	288	1
STR	17	352	7
SI_	17	352	7	96	16	3
TAP	18	0	0
TAP	18	0	1
TAP	18	32	0
TAP	18	32	7
TAP	18	64	6
TAP	18	64	7
TAP	18	96	6
STR	18	160	0
SI_	18	160	0	96	16	4
TAP	18	192	6
TAP	18	192	7
TAP	18	224	0
TAP	18	224	7
TAP	18	256	0
TAP	18	256	1
STR	18	288	3
SCR	18	288	3	96	64	3
TAP	18	296	2
TAP	18	304	1
TAP	18	312	0
TAP	18	320	7
TAP	18	328	6
TAP	18	336	5
TAP	18	344	4
TAP	18	352	3
BRK	19	96	0
HLD	19	288	7	64
TAP	19	352	0
TAP	19	376	0
HLD	20	0	1	64
TAP	20	64	2
TAP	20	88	2
TAP	20	96	3
TAP	20	128	4
TAP	20	160	5
TAP	20	184	5
HLD	20	192	4	64
TAP	20	256	5
TAP	20	288	3
TAP	20	352	5
STR	21	0	3
SI_	21	0	3	96	64	0
STR	21	0	4
SI_	21	0	4	96	64	7
TAP	21	32	5
TAP	21	64	2
TAP	21	96	3
TAP	21	96	4
TAP	21	192	3
TAP	21	224	2
TAP	21	256	1
HLD	21	288	0	64
TAP	21	352	7
TAP	21	376	7
HLD	22	0	6	64
TAP	22	64	5
TAP	22	88	5
TAP	22	96	4
TAP	22	128	3
TAP	22	160	2
TAP	22	184	2
HLD	22	192	3	64
TAP	22	256	2
TAP	22	288	4
TAP	22	352	1
STR	23	0	0
SCR	23	0	0	96	288	7
TAP	23	192	0
TAP	23	288	0
BRK	24	0	0
BRK	24	32	1
BRK	24	32	6
BRK	24	64	2
BRK	24	64	5
STR	24	96	2
SCR	24	96	2	96	64	5
TAP	24	96	5
TAP	24	128	6
TAP	24	160	6
TAP	24	184	6
STR	24	192	5
SUL	24	192	5	96	64	7
TAP	24	224	6
TAP	24	256	7
TAP	24	280	0
STR	24	288	7
SCR	24	288	7	96	64	3
TAP	24	320	6
TAP	24	352	5
TAP	24	376	5
TAP	25	0	4
TAP	25	64	6
TAP	25	96	0
STR	25	96	7
SCL	25	96	7	96	64	4
TAP	25	128	1
TAP	25	160	3
STR	25	192	4
SUL	25	192	4	96	64	0
TAP	25	224	3
TAP	25	256	1
STR	25	288	0
SF_	25	288	0	96	64	4
TAP	25	320	1
TAP	25	352	2
TAP	26	0	0
STR	26	96	3
SCL	26	96	3	96	64	7
STR	26	96	7
SCL	26	96	7	96	64	3
TAP	26	160	3
TAP	26	160	7
TAP	26	192	3
TAP	26	192	7
BRK	26	288	0
BRK	26	288	2
BRK	26	336	5
BRK	26	336	7
BRK	27	0	1
BRK	27	0	3
BRK	27	48	4
BRK	27	48	6
BST	27	96	3
SI_	27	96	3	96	64	0
BRK	27	96	4
TAP	27	160	4
TAP	27	192	5
TAP	27	224	6
TAP	27	256	7
TAP	27	288	2
STR	27	288	5
SCL	27	288	5	96	64	2
TAP	27	320	1
TAP	27	352	1
TAP	27	376	1
STR	28	0	2
SUR	28	0	2	96	64	0
TAP	28	32	1
TAP	28	64	0
TAP	28	88	7
STR	28	96	0
SCL	28	96	0	96	64	4
TAP	28	128	1
TAP	28	160	2
TAP	28	184	2
TAP	28	192	3
TAP	28	224	2
TAP	28	256	1
STR	28	288	0
SCR	28	288	0	96	64	3
TAP	28	288	7
TAP	28	320	6
TAP	28	352	4
STR	29	0	3
SUR	29	0	3	96	64	7
TAP	29	32	4
TAP	29	64	6
STR	29	96	7
SF_	29	96	7	96	64	3
TAP	29	128	6
TAP	29	160	5
TAP	29	192	7
STR	29	288	0
SCR	29	288	0	96	64	4
STR	29	288	4
SCR	29	288	4	96	64	0
TAP	29	352	3
TAP	29	352	7
TAP	30	0	0
TAP	30	0	4
BRK	30	96	5
BRK	30	96	7
TAP	30	112	0
TAP	30	128	1
BRK	30	144	0
BRK	30	144	2
TAP	30	160	7
TAP	30	176	6
BRK	30	192	4
BRK	30	192	6
TAP	30	208	7
TAP	30	224	0
BRK	30	240	1
BRK	30	240	3
TAP	30	256	0
TAP	30	272	7
BST	30	288	6
SCL	30	288	6	96	64	1
BST	30	288	7
SCL	30	288	7	96	64	1
STR	31	96	0
SCR	31	96	0	96	64	6
STR	31	96	1
SCR	31	96	1	96	64	6
TAP	31	288	7
TAP	31	352	0
TAP	31	376	0
TAP	32	0	1
TAP	32	64	2
TAP	32	88	2
TAP	32	96	3
TAP	32	128	4
TAP	32	160	5
TAP	32	184	5
TAP	32	192	4
TAP	32	256	5
TAP	32	288	3
TAP	32	352	5
STR	33	0	3
SCL	33	0	3	96	128	6
TAP	33	32	4
TAP	33	64	5
TAP	33	256	7
TAP	33	280	7
TAP	33	288	0
TAP	33	352	7
TAP	33	376	7
STR	34	0	6
SUR	34	0	6	96	128	2
TAP	34	256	7
TAP	34	280	7
TAP	34	288	0
TAP	34	352	0
TAP	34	376	0
HLD	35	0	7	192
TAP	35	192	0
TAP	35	224	7
TAP	35	256	6
STR	35	288	1
SI_	35	288	1	96	96	5
SI_	35	288	1	96	96	5
TAP	35	288	5

T_REC_TAP	296
T_REC_BRK	24
T_REC_XTP	0
T_REC_HLD	7
T_REC_XHO	0
T_REC_STR	75
T_REC_BST	4
T_REC_XST	0
T_REC_TTP	0
T_REC_THO	0
T_REC_SLD	81
T_REC_ALL	487
T_NUM_TAP	371
T_NUM_BRK	28
T_NUM_HLD	7
T_NUM_SLD	81
T_NUM_ALL	487
T_JUDGE_TAP	399
T_JUDGE_HLD	34
T_JUDGE_SLD	81
T_JUDGE_ALL	514
TTM_EACHPAIRS	58
TTM_SCR_TAP	185500
TTM_SCR_BRK	72800
TTM_SCR_HLD	7000
TTM_SCR_SLD	121500
TTM_SCR_ALL	386800
TTM_SCR_S	372500
TTM_SCR_SS	384000
TTM_RAT_ACV	10072

