VERSION	0.00.00	1.03.00
FES_MODE	0
BPM_DEF	 90.000	 60.000	 90.000	 27.666
MET_DEF	4	4
RESOLUTION	384
CLK_DEF	384
COMPATIBLE_CODE	MA2

BPM	0	0	 90.000
BPM	0	288	 60.000
BPM	31	288	 55.333
BPM	35	288	 27.666
MET	0	0	4	5
MET	1	96	4	2

TAP	1	64	3
TAP	1	64	4
TAP	1	96	2
TAP	1	96	5
TAP	1	160	3
TAP	1	192	3
TAP	1	256	4
TAP	1	288	4
TAP	1	320	3
TAP	1	352	2
TAP	2	0	1
TAP	2	0	4
TAP	2	64	5
TAP	2	96	5
TAP	2	160	6
TAP	2	192	6
TAP	2	224	5
TAP	2	256	4
HLD	2	288	3	160
TAP	2	288	6
HLD	3	0	4	64
TAP	3	96	2
TAP	3	96	5
TAP	3	160	4
TAP	3	192	4
TAP	3	256	3
TAP	3	288	3
TAP	3	320	4
TAP	3	352	3
TAP	3	352	5
TAP	4	0	4
TAP	4	32	3
TAP	4	64	2
TAP	4	64	4
HLD	4	96	3	64
TAP	4	160	2
TAP	4	192	3
TAP	4	224	4
TAP	4	256	5
HLD	4	288	2	64
BRK	4	288	6
TAP	4	320	3
TAP	4	352	6
TAP	5	0	3
HLD	5	0	5	64
TAP	5	32	4
TAP	5	64	3
HLD	5	96	1	64
TAP	5	96	4
TAP	5	128	2
TAP	5	160	4
TAP	5	192	3
HLD	5	192	6	64
TAP	5	224	5
TAP	5	256	3
HLD	5	288	2	64
TAP	5	288	4
TAP	5	320	3
TAP	5	352	4
TAP	6	0	1
HLD	6	0	5	64
TAP	6	32	4
TAP	6	64	1
HLD	6	96	2	64
TAP	6	96	7
TAP	6	128	3
TAP	6	160	7
TAP	6	192	0
HLD	6	192	5	64
TAP	6	224	4
TAP	6	256	0
STR	6	288	6
SUL	6	288	6	96	64	4
TAP	6	288	7
TAP	6	320	0
TAP	6	352	1
TAP	7	0	2
TAP	7	96	0
STR	7	96	1
SUR	7	96	1	96	64	3
TAP	7	128	7
TAP	7	160	6
TAP	7	192	5
TAP	7	288	1
TAP	7	288	6
TAP	7	320	0
TAP	7	336	0
TAP	7	352	7
TAP	7	368	7
TAP	8	0	0
TAP	8	32	1
TAP	8	32	6
TAP	8	64	2
TAP	8	64	5
TAP	8	96	3
STR	8	96	4
SUL	8	96	4	96	64	3
TAP	8	128	2
TAP	8	160	1
TAP	8	192	0
HLD	8	288	2	64
TAP	8	288	3
TAP	8	320	1
TAP	8	352	0
TAP	9	0	4
HLD	9	0	5	64
TAP	9	32	6
TAP	9	64	7
TAP	9	96	1
TAP	9	96	3
TAP	9	128	2
TAP	9	128	4
TAP	9	160	3
TAP	9	160	5
TAP	9	192	4
TAP	9	192	6
TAP	9	224	3
TAP	9	240	3
TAP	9	256	4
TAP	9	272	4
TAP	9	288	1
TAP	9	288	5
TAP	9	352	3
TAP	9	368	3
TAP	10	0	2
TAP	10	0	6
STR	10	64	4
SUR	10	64	4	96	96	3
STR	10	64	5
SCR	10	64	5	96	96	2
TAP	10	96	2
TAP	10	96	3
HLD	10	288	1	96
TAP	10	320	3
TAP	10	352	3
HLD	11	0	6	96
TAP	11	32	4
TAP	11	64	4
HLD	11	96	1	32
HLD	11	128	2	32
HLD	11	160	3	32
HLD	11	192	4	32
TAP	11	224	5
HLD	11	288	6	96
TAP	11	320	4
TAP	11	352	4
HLD	12	0	1	96
TAP	12	32	3
TAP	12	64	3
TAP	12	96	6
TAP	12	128	5
TAP	12	160	3
TAP	12	160	4
TAP	12	192	1
TAP	12	224	2
TAP	12	256	3
TAP	12	256	4
HLD	12	288	6	96
TAP	12	320	4
TAP	12	352	4
HLD	13	0	1	96
TAP	13	32	3
TAP	13	64	3
TAP	13	96	6
HLD	13	128	6	32
HLD	13	160	5	32
HLD	13	192	4	32
HLD	13	224	3	32
HLD	13	256	2	32
HLD	13	288	1	96
TAP	13	320	3
TAP	13	352	3
HLD	14	0	6	96
TAP	14	32	4
TAP	14	64	4
STR	14	96	1
SSR	14	96	1	96	64	5
TAP	14	288	4
TAP	14	288	6
TAP	14	320	5
TAP	14	336	5
TAP	14	352	4
TAP	15	0	1
TAP	15	0	3
TAP	15	32	2
TAP	15	48	2
TAP	15	64	3
HLD	15	96	6	96
HLD	15	128	1	64
TAP	15	224	0
TAP	15	224	7
TAP	15	256	1
TAP	15	256	4
TAP	15	288	3
TAP	15	288	6
TAP	15	320	5
TAP	15	336	4
TAP	15	352	5
TAP	16	0	1
TAP	16	0	4
TAP	16	32	2
TAP	16	48	3
TAP	16	64	2
HLD	16	96	3	32
HLD	16	96	6	32
TAP	16	160	2
TAP	16	176	3
HLD	16	192	1	32
HLD	16	192	4	32
TAP	16	256	5
TAP	16	272	4
TAP	16	288	3
TAP	16	288	6
TAP	16	352	2
TAP	16	368	3
TAP	17	0	1
TAP	17	0	4
TAP	17	32	1
TAP	17	64	2
TAP	17	96	3
TAP	17	128	4
TAP	17	160	5
STR	17	192	6
SCL	17	192	6	96	64	3
TAP	17	288	2
STR	18	0	1
SUR	18	0	1	96	64	5
TAP	18	32	0
TAP	18	64	7
TAP	18	96	6
STR	18	192	6
SCR	18	192	6	96	64	1
TAP	18	224	4
TAP	18	256	3
TAP	18	288	2
STR	19	0	3
SCL	19	0	3	96	160	4
TAP	19	32	4
TAP	19	64	4
TAP	19	96	4
BRK	19	288	0
BRK	19	288	7
HLD	20	0	2	96
HLD	20	96	3	96
HLD	20	192	4	96
HLD	20	288	5	96
STR	21	0	6
SI_	21	0	6	96	32	2
STR	21	288	2
SCR	21	288	2	96	64	5
TAP	22	0	6
TAP	22	96	6
TAP	22	128	5
TAP	22	160	4
TAP	22	192	3
TAP	22	224	2
TAP	22	256	1
TAP	22	288	0
TAP	22	288	7
STR	23	0	6
SI_	23	0	6	96	32	4
STR	23	96	0
SI_	23	96	0	96	32	2
STR	23	192	7
SI_	23	192	7	96	32	3
STR	23	288	3
SF_	23	288	3	96	64	7
TAP	24	96	1
HLD	24	96	5	64
TAP	24	128	4
TAP	24	160	0
HLD	24	192	2	64
TAP	24	192	6
TAP	24	224	3
TAP	24	256	7
TAP	24	288	4
STR	24	288	5
SCR	24	288	5	96	64	1
TAP	24	320	3
TAP	24	320	4
TAP	24	352	2
TAP	24	352	3
TAP	25	96	6
TAP	25	96	7
TAP	25	128	0
TAP	25	128	5
TAP	25	160	1
TAP	25	160	4
TAP	25	192	0
TAP	25	192	7
TAP	25	224	1
TAP	25	224	6
TAP	25	256	2
TAP	25	256	5
TAP	25	288	0
TAP	25	288	1
TAP	25	320	2
TAP	25	320	7
TAP	25	352	3
TAP	25	352	6
HLD	26	0	4	64
HLD	26	0	5	64
HLD	26	96	2	64
TAP	26	96	3
TAP	26	160	1
TAP	26	192	4
HLD	26	192	5	64
TAP	26	256	6
BRK	26	288	0
BRK	26	288	7
BRK	26	336	1
BRK	26	336	6
BST	27	0	2
SCL	27	0	2	96	96	5
BRK	27	0	5
BRK	27	48	3
BRK	27	48	4
BRK	27	96	7
TAP	27	224	4
TAP	27	256	3
TAP	27	288	2
TAP	27	352	2
TAP	27	376	2
TAP	28	0	3
TAP	28	64	5
TAP	28	88	5
TAP	28	96	4
TAP	28	128	4
TAP	28	160	3
TAP	28	192	3
TAP	28	224	4
TAP	28	236	3
TAP	28	248	4
TAP	28	260	3
TAP	28	288	2
TAP	28	352	2
TAP	29	0	3
TAP	29	32	4
TAP	29	64	5
TAP	29	96	6
TAP	29	160	3
TAP	29	160	4
STR	29	192	1
SI_	29	192	1	96	32	5
TAP	29	256	6
STR	29	288	6
SI_	29	288	6	96	32	2
TAP	29	352	1
TAP	30	0	1
TAP	30	64	4
TAP	30	80	3
BRK	30	96	2
BRK	30	96	6
BRK	30	144	1
BRK	30	144	5
BST	30	192	0
SF_	30	192	0	96	160	4
BRK	30	192	4
BRK	30	240	3
BRK	30	240	7
BRK	30	288	0
HLD	31	96	2	192
HLD	31	96	6	192
TAP	31	352	2
TAP	31	376	2
TAP	32	0	3
TAP	32	64	5
TAP	32	88	5
TAP	32	96	4
TAP	32	128	3
TAP	32	160	2
TAP	32	184	2
TAP	32	192	3
TAP	32	256	4
TAP	32	288	3
TAP	32	352	0
TAP	32	352	4
TAP	33	0	1
TAP	33	0	5
TAP	33	32	1
TAP	33	32	5
TAP	33	64	2
TAP	33	64	6
STR	33	96	2
SI_	33	96	2	96	32	5
STR	33	96	6
SI_	33	96	6	96	32	1
HLD	33	288	4	96
HLD	34	0	3	96
TAP	34	96	5
TAP	34	128	4
TAP	34	160	3
TAP	34	192	2
TAP	34	224	3
TAP	34	256	4
HLD	34	288	5	96
HLD	35	0	2	192
TAP	35	192	6
TAP	35	224	4
TAP	35	256	3
STR	35	288	1
SI_	35	288	1	96	96	5

T_REC_TAP	283
T_REC_BRK	19
T_REC_XTP	0
T_REC_HLD	52
T_REC_XHO	0
T_REC_STR	22
T_REC_BST	2
T_REC_XST	0
T_REC_TTP	0
T_REC_THO	0
T_REC_SLD	24
T_REC_ALL	402
T_NUM_TAP	305
T_NUM_BRK	21
T_NUM_HLD	52
T_NUM_SLD	24
T_NUM_ALL	402
T_JUDGE_TAP	326
T_JUDGE_HLD	198
T_JUDGE_SLD	24
T_JUDGE_ALL	548
TTM_EACHPAIRS	77
TTM_SCR_TAP	152500
TTM_SCR_BRK	54600
TTM_SCR_HLD	52000
TTM_SCR_SLD	36000
TTM_SCR_ALL	295100
TTM_SCR_S	284250
TTM_SCR_SS	293000
TTM_RAT_ACV	10071

