VERSION	0.00.00	1.03.00
FES_MODE	0
BPM_DEF	 90.000	 60.000	 90.000	 27.666
MET_DEF	4	4
RESOLUTION	384
CLK_DEF	384
COMPATIBLE_CODE	MA2

BPM	0	0	 90.000
BPM	0	288	 60.000
BPM	31	288	 55.333
BPM	35	288	 27.666
MET	0	0	4	5
MET	1	96	4	2

TAP	1	96	2
TAP	1	192	3
HLD	1	288	4	96
TAP	2	0	3
TAP	2	96	4
HLD	2	192	3	96
HLD	2	288	4	96
HLD	3	0	5	96
TAP	3	96	6
TAP	3	192	5
HLD	3	288	4	96
HLD	4	0	3	96
HLD	4	96	2	96
TAP	4	192	1
TAP	4	288	0
TAP	4	320	0
TAP	4	352	0
HLD	5	0	1	96
TAP	5	96	2
TAP	5	128	2
TAP	5	160	2
HLD	5	192	3	96
TAP	5	288	4
TAP	5	320	4
TAP	5	352	4
HLD	6	0	5	96
TAP	6	96	6
TAP	6	128	6
TAP	6	160	6
BRK	6	192	0
BRK	6	192	7
TAP	6	288	0
TAP	6	288	1
TAP	6	352	2
HLD	7	0	2	64
TAP	7	64	3
TAP	7	96	1
TAP	7	96	4
TAP	7	160	6
HLD	7	192	6	64
TAP	7	256	7
TAP	7	288	0
TAP	7	288	5
TAP	7	352	1
HLD	8	0	1	64
TAP	8	64	0
TAP	8	96	2
TAP	8	96	7
TAP	8	160	5
HLD	8	192	5	64
TAP	8	256	4
TAP	8	288	3
TAP	8	320	3
TAP	8	352	2
TAP	9	0	4
TAP	9	32	4
TAP	9	64	5
TAP	9	96	3
TAP	9	128	2
TAP	9	160	1
TAP	9	192	4
TAP	9	224	5
TAP	9	256	6
TAP	9	288	0
TAP	9	288	7
TAP	9	352	3
TAP	9	352	4
STR	10	0	3
SI_	10	0	3	96	64	7
STR	10	0	4
SI_	10	0	4	96	64	0
HLD	10	288	6	96
HLD	11	0	4	96
TAP	11	96	5
TAP	11	128	4
TAP	11	160	3
TAP	11	192	2
TAP	11	224	1
TAP	11	288	2
TAP	11	288	3
TAP	11	352	4
TAP	12	0	4
TAP	12	64	3
HLD	12	96	3	96
TAP	12	192	4
TAP	12	224	3
TAP	12	256	2
HLD	12	288	1	96
HLD	13	0	3	96
TAP	13	96	2
TAP	13	128	3
TAP	13	160	4
TAP	13	192	5
TAP	13	224	6
TAP	13	288	4
TAP	13	288	5
TAP	13	352	3
TAP	14	0	3
TAP	14	64	4
HLD	14	96	4	96
TAP	14	192	3
TAP	14	288	2
TAP	14	320	2
TAP	14	352	3
TAP	15	0	1
TAP	15	0	4
TAP	15	96	5
TAP	15	128	5
TAP	15	160	4
TAP	15	192	3
TAP	15	192	6
TAP	15	288	1
TAP	15	320	1
TAP	15	352	0
TAP	16	0	6
TAP	16	32	6
TAP	16	64	7
TAP	16	96	0
TAP	16	128	0
TAP	16	160	7
TAP	16	192	1
TAP	16	192	6
HLD	16	288	2	96
TAP	17	0	3
TAP	17	32	2
TAP	17	64	3
TAP	17	96	4
TAP	17	128	5
TAP	17	160	4
HLD	17	192	5	96
TAP	17	288	2
TAP	18	0	1
TAP	18	32	2
TAP	18	64	3
TAP	18	96	4
TAP	18	96	6
TAP	18	192	6
TAP	18	224	5
TAP	18	256	4
TAP	18	288	1
TAP	18	288	3
TAP	19	0	3
STR	19	0	4
SCR	19	0	4	96	192	3
TAP	20	0	5
TAP	20	96	4
TAP	20	192	3
TAP	20	288	2
STR	21	0	1
SI_	21	0	1	96	64	5
HLD	21	288	5	96
HLD	22	0	4	96
HLD	22	96	3	96
HLD	22	192	2	96
HLD	22	288	3	96
HLD	23	0	4	96
HLD	23	96	5	96
STR	23	192	2
SCL	23	192	2	96	128	5
TAP	24	96	1
TAP	24	96	6
TAP	24	128	2
TAP	24	160	3
HLD	24	192	4	64
HLD	24	192	5	64
TAP	24	288	6
TAP	24	320	5
TAP	24	352	4
HLD	25	0	2	64
HLD	25	0	3	64
TAP	25	96	1
TAP	25	96	4
TAP	25	160	3
TAP	25	160	7
STR	25	192	3
SCL	25	192	3	96	64	0
STR	25	192	7
SCL	25	192	7	96	64	4
TAP	26	96	4
TAP	26	128	3
TAP	26	160	2
TAP	26	192	1
TAP	26	224	0
TAP	26	256	7
HLD	26	288	6	48
HLD	26	336	4	48
HLD	27	0	3	48
HLD	27	48	1	48
BRK	27	96	0
TAP	27	224	3
TAP	27	256	2
TAP	27	288	0
TAP	27	288	1
TAP	27	320	7
TAP	27	352	6
TAP	28	0	4
TAP	28	0	5
TAP	28	32	6
TAP	28	64	7
TAP	28	96	0
TAP	28	96	1
TAP	28	128	0
TAP	28	128	7
TAP	28	160	6
TAP	28	160	7
TAP	28	192	0
TAP	28	192	5
TAP	28	288	6
TAP	28	288	7
TAP	28	320	0
TAP	28	352	1
STR	29	0	2
SCL	29	0	2	96	64	7
STR	29	0	3
SCR	29	0	3	96	64	6
TAP	29	288	0
TAP	29	320	7
TAP	29	352	4
TAP	29	352	6
TAP	30	0	7
TAP	30	32	0
TAP	30	64	1
TAP	30	64	3
HLD	30	96	1	48
HLD	30	144	3	48
HLD	30	192	4	48
HLD	30	240	6	48
BRK	30	288	7
HLD	31	96	3	192
HLD	31	96	5	192
TAP	32	0	2
TAP	32	0	4
TAP	32	96	3
TAP	32	96	5
TAP	32	192	1
TAP	32	192	4
TAP	32	288	3
TAP	32	288	6
TAP	33	0	1
TAP	33	96	5
TAP	33	192	3
HLD	33	288	4	96
HLD	34	0	3	96
TAP	34	96	4
TAP	34	128	5
TAP	34	160	6
TAP	34	192	3
TAP	34	224	2
TAP	34	256	1
HLD	34	288	4	96
HLD	35	0	3	192
TAP	35	192	4
TAP	35	224	3
TAP	35	256	2
STR	35	288	1
SI_	35	288	1	96	96	5

T_REC_TAP	185
T_REC_BRK	4
T_REC_XTP	0
T_REC_HLD	47
T_REC_XHO	0
T_REC_STR	10
T_REC_BST	0
T_REC_XST	0
T_REC_TTP	0
T_REC_THO	0
T_REC_SLD	10
T_REC_ALL	256
T_NUM_TAP	195
T_NUM_BRK	4
T_NUM_HLD	47
T_NUM_SLD	10
T_NUM_ALL	256
T_JUDGE_TAP	199
T_JUDGE_HLD	196
T_JUDGE_SLD	10
T_JUDGE_ALL	405
TTM_EACHPAIRS	37
TTM_SCR_TAP	97500
TTM_SCR_BRK	10400
TTM_SCR_HLD	47000
TTM_SCR_SLD	15000
TTM_SCR_ALL	169900
TTM_SCR_S	164450
TTM_SCR_SS	169500
TTM_RAT_ACV	10023

