VERSION	0.00.00	1.03.00
FES_MODE	0
BPM_DEF	 90.000	 60.000	 90.000	 27.666
MET_DEF	4	4
RESOLUTION	384
CLK_DEF	384
COMPATIBLE_CODE	MA2

BPM	0	0	 90.000
BPM	0	288	 60.000
BPM	31	288	 55.333
BPM	35	288	 27.666
MET	0	0	4	5
MET	1	96	4	2

TAP	1	96	0
TAP	1	288	0
TAP	2	96	7
TAP	2	288	7
TAP	3	96	0
TAP	3	192	0
TAP	3	288	0
TAP	4	96	7
TAP	4	192	7
STR	4	288	7
SI_	4	288	7	96	96	4
STR	5	288	0
SI_	5	288	0	96	96	3
TAP	6	288	7
TAP	7	0	7
TAP	7	96	6
TAP	7	192	6
TAP	7	288	5
TAP	8	0	5
TAP	8	96	4
TAP	8	192	4
TAP	8	288	3
TAP	9	0	3
TAP	9	96	2
TAP	9	192	2
TAP	9	288	1
TAP	10	0	1
HLD	10	96	0	96
TAP	10	288	0
TAP	10	288	7
TAP	10	352	0
TAP	11	0	0
TAP	11	96	1
TAP	11	160	1
TAP	11	192	1
TAP	11	288	2
TAP	11	352	2
TAP	12	0	2
TAP	12	96	3
TAP	12	96	4
TAP	12	192	3
TAP	12	192	4
TAP	12	288	4
TAP	12	352	4
TAP	13	0	4
TAP	13	96	5
TAP	13	160	5
TAP	13	192	5
TAP	13	288	6
TAP	13	352	6
TAP	14	0	6
TAP	14	96	0
TAP	14	96	7
TAP	14	192	0
TAP	14	192	7
STR	14	288	0
SI_	14	288	0	96	96	4
STR	15	288	7
SI_	15	288	7	96	96	3
TAP	16	288	0
TAP	16	288	7
TAP	17	0	0
TAP	17	0	7
HLD	17	96	1	96
HLD	17	96	6	96
STR	17	288	0
SI_	17	288	0	96	96	3
STR	18	288	7
SI_	18	288	7	96	96	4
BRK	19	288	0
HLD	21	288	0	192
HLD	22	288	7	192
TAP	24	96	0
TAP	24	96	7
TAP	24	160	0
TAP	24	192	0
TAP	24	256	1
TAP	24	288	1
TAP	24	352	2
TAP	25	0	2
TAP	25	64	3
TAP	25	96	3
TAP	25	160	4
TAP	25	192	4
TAP	25	256	5
TAP	25	288	5
TAP	25	352	6
TAP	25	352	7
TAP	26	0	6
TAP	26	0	7
TAP	26	96	0
TAP	26	96	7
TAP	26	160	6
TAP	26	192	6
TAP	26	256	4
TAP	26	256	5
HLD	26	288	4	96
HLD	26	288	5	96
TAP	27	96	3
TAP	27	96	4
TAP	27	160	2
TAP	27	192	2
TAP	27	256	1
TAP	27	288	1
TAP	27	352	0
TAP	28	0	0
TAP	28	64	7
HLD	28	96	7	96
TAP	28	256	6
TAP	28	288	6
TAP	28	352	5
TAP	29	0	5
TAP	29	64	4
TAP	29	96	4
TAP	29	192	3
TAP	29	192	4
TAP	29	288	3
TAP	29	352	2
TAP	30	0	2
TAP	30	64	0
TAP	30	64	1
HLD	30	96	0	96
HLD	30	96	1	96
TAP	30	288	0
TAP	30	288	7
TAP	30	352	1
TAP	31	0	1
TAP	31	64	2
TAP	31	96	2
TAP	31	160	3
TAP	31	192	3
BRK	31	288	4
TAP	32	96	4
TAP	32	288	3
TAP	32	288	4
TAP	33	288	4
TAP	33	288	5
TAP	34	0	4
TAP	34	0	5
TAP	34	288	2
TAP	34	288	3
TAP	35	0	2
TAP	35	0	3
STR	35	288	1
SI_	35	288	1	96	96	5

T_REC_TAP	119
T_REC_BRK	2
T_REC_XTP	0
T_REC_HLD	10
T_REC_XHO	0
T_REC_STR	7
T_REC_BST	0
T_REC_XST	0
T_REC_TTP	0
T_REC_THO	0
T_REC_SLD	7
T_REC_ALL	145
T_NUM_TAP	126
T_NUM_BRK	2
T_NUM_HLD	10
T_NUM_SLD	7
T_NUM_ALL	145
T_JUDGE_TAP	128
T_JUDGE_HLD	48
T_JUDGE_SLD	7
T_JUDGE_ALL	183
TTM_EACHPAIRS	24
TTM_SCR_TAP	63000
TTM_SCR_BRK	5200
TTM_SCR_HLD	10000
TTM_SCR_SLD	10500
TTM_SCR_ALL	88700
TTM_SCR_S	85850
TTM_SCR_SS	88500
TTM_RAT_ACV	10022

