VERSION	0.00.00	1.03.00
FES_MODE	0
BPM_DEF	180.000	180.000	180.000	180.000
MET_DEF	4	4
RESOLUTION	384
CLK_DEF	384
COMPATIBLE_CODE	MA2

BPM	0	0	180.000
MET	0	0	4	4
MET	50	0	4	3
MET	52	96	4	4
MET	53	96	4	3
MET	61	192	4	2
MET	62	0	4	4

HLD	2	0	3	336
TAP	2	0	4
TAP	2	48	5
TAP	2	120	5
TAP	2	192	5
TAP	2	264	4
HLD	2	336	5	384
TAP	3	48	2
TAP	3	120	2
TAP	3	192	2
TAP	3	264	4
HLD	3	336	1	384
TAP	4	48	6
TAP	4	120	6
TAP	4	192	6
TAP	4	264	3
HLD	4	336	7	96
TAP	5	48	0
TAP	5	120	0
TAP	5	120	7
TAP	5	192	4
TAP	5	192	6
TAP	5	264	1
TAP	5	264	3
TAP	5	336	3
HLD	5	336	4	384
TAP	6	48	2
TAP	6	120	2
TAP	6	192	2
TAP	6	264	3
HLD	6	336	2	384
TAP	7	48	5
TAP	7	120	5
TAP	7	192	5
TAP	7	264	3
HLD	7	336	6	384
TAP	8	48	1
TAP	8	120	1
TAP	8	192	1
TAP	8	264	4
HLD	8	336	0	96
TAP	9	48	7
TAP	9	120	0
TAP	9	120	7
TAP	9	192	1
TAP	9	192	3
TAP	9	264	4
TAP	9	264	6
TAP	9	336	3
TAP	9	336	4
TAP	10	0	2
TAP	10	48	3
TAP	10	96	1
TAP	10	96	4
TAP	10	144	5
HLD	10	192	5	72
TAP	10	264	4
TAP	10	288	5
TAP	10	336	4
STR	11	0	3
SCL	11	0	3	96	96	7
TAP	11	0	5
TAP	11	48	4
TAP	11	96	6
TAP	11	144	6
HLD	11	192	5	72
TAP	11	264	4
TAP	11	288	5
TAP	11	336	4
TAP	12	0	2
TAP	12	48	3
TAP	12	96	1
TAP	12	96	4
TAP	12	144	5
HLD	12	192	5	72
TAP	12	264	4
TAP	12	288	5
TAP	12	336	4
TAP	13	0	3
TAP	13	0	6
TAP	13	48	2
TAP	13	48	5
HLD	13	96	1	96
TAP	13	96	4
TAP	13	144	3
HLD	13	192	3	72
TAP	13	264	2
TAP	13	288	3
TAP	13	336	1
TAP	13	336	4
TAP	14	0	5
TAP	14	48	4
TAP	14	96	3
TAP	14	96	6
TAP	14	144	2
HLD	14	192	2	72
TAP	14	264	3
TAP	14	288	2
TAP	14	336	3
TAP	15	0	2
STR	15	0	4
SCR	15	0	4	96	96	0
TAP	15	48	3
TAP	15	96	1
TAP	15	144	1
HLD	15	192	2	72
TAP	15	264	3
TAP	15	288	2
TAP	15	336	3
TAP	16	0	1
TAP	16	0	4
TAP	16	48	1
HLD	16	48	4	96
TAP	16	96	2
TAP	16	144	3
TAP	16	192	2
TAP	16	192	5
TAP	16	240	1
TAP	16	240	6
STR	16	288	0
SI_	16	288	0	96	48	4
STR	16	288	7
SI_	16	288	7	96	48	3
BRK	17	0	0
BRK	17	0	7
TAP	18	0	2
HLD	18	0	5	192
TAP	18	96	3
TAP	18	192	4
TAP	18	240	5
TAP	18	288	3
STR	18	288	6
SI_	18	288	6	96	48	3
HLD	19	0	2	96
TAP	19	0	6
TAP	19	96	4
TAP	19	144	3
TAP	19	192	2
STR	19	240	1
SCR	19	240	1	96	48	4
TAP	19	240	4
TAP	19	336	1
TAP	20	0	6
TAP	20	48	7
TAP	20	96	0
TAP	20	96	5
TAP	20	144	1
TAP	20	192	0
TAP	20	240	2
TAP	20	240	7
TAP	20	288	6
HLD	20	336	6	96
TAP	21	48	4
TAP	21	72	5
TAP	21	96	3
TAP	21	120	4
TAP	21	144	2
TAP	21	168	3
HLD	21	192	1	96
TAP	21	240	2
TAP	21	288	3
TAP	21	336	1
TAP	21	336	4
STR	22	48	6
SI_	22	48	6	96	48	3
TAP	22	96	7
TAP	22	144	6
STR	22	240	1
SI_	22	240	1	96	48	5
TAP	22	288	0
TAP	22	336	1
TAP	23	48	6
STR	23	96	7
SI_	23	96	7	96	48	3
STR	23	144	0
SI_	23	144	0	96	48	2
TAP	23	192	7
TAP	23	240	0
TAP	23	336	5
TAP	23	360	4
TAP	24	0	5
TAP	24	48	3
TAP	24	48	6
TAP	24	96	2
TAP	24	144	1
TAP	24	144	4
TAP	24	192	5
TAP	24	240	3
TAP	24	240	6
TAP	24	288	2
TAP	24	288	5
HLD	24	336	1	96
TAP	24	336	4
TAP	25	48	3
TAP	25	72	2
TAP	25	96	4
TAP	25	120	3
TAP	25	144	5
TAP	25	168	4
TAP	25	192	6
TAP	25	240	7
TAP	25	288	0
TAP	25	336	1
HLD	26	0	2	96
TAP	26	0	4
TAP	26	96	3
TAP	26	144	2
TAP	26	192	3
TAP	26	240	2
STR	26	288	1
SI_	26	288	1	96	48	4
TAP	26	288	4
TAP	27	0	1
HLD	27	0	5	96
TAP	27	96	3
TAP	27	144	4
TAP	27	192	5
TAP	27	240	3
STR	27	240	6
SCL	27	240	6	96	48	3
TAP	27	336	6
TAP	28	0	1
TAP	28	48	0
TAP	28	96	2
TAP	28	96	7
TAP	28	144	6
TAP	28	192	7
TAP	28	240	0
TAP	28	240	5
TAP	28	288	1
HLD	28	336	1	96
TAP	29	48	3
TAP	29	72	2
TAP	29	96	4
TAP	29	120	3
TAP	29	144	5
TAP	29	168	4
HLD	29	192	6	96
TAP	29	240	5
TAP	29	288	4
TAP	29	336	3
TAP	29	336	6
STR	30	48	1
SI_	30	48	1	96	48	4
TAP	30	96	0
TAP	30	144	1
STR	30	240	6
SI_	30	240	6	96	48	2
TAP	30	288	7
TAP	30	336	6
TAP	31	48	1
STR	31	96	0
SI_	31	96	0	96	48	4
STR	31	144	7
SI_	31	144	7	96	48	5
TAP	31	192	0
TAP	31	240	7
TAP	31	336	2
TAP	31	360	3
TAP	32	0	2
TAP	32	48	1
TAP	32	48	4
TAP	32	96	5
TAP	32	144	3
TAP	32	144	6
TAP	32	192	2
TAP	32	240	1
TAP	32	240	4
TAP	32	288	5
TAP	32	336	3
TAP	32	336	6
TAP	32	360	3
BST	33	0	4
SF_	33	0	4	96	96	0
TAP	33	240	2
TAP	33	240	6
HLD	34	0	5	384
TAP	34	144	4
TAP	34	288	4
TAP	34	336	1
TAP	34	352	2
TAP	34	368	3
HLD	35	0	4	288
TAP	35	144	3
HLD	35	288	3	96
HLD	36	0	2	384
TAP	36	144	3
TAP	36	288	3
TAP	36	336	6
TAP	36	352	5
TAP	36	368	4
HLD	37	0	3	288
TAP	37	144	4
HLD	37	288	4	96
HLD	38	0	6	384
TAP	38	144	5
TAP	38	288	5
TAP	38	336	1
TAP	38	352	2
TAP	38	368	3
HLD	39	0	4	288
TAP	39	144	3
HLD	39	288	3	96
HLD	40	0	1	384
TAP	40	144	2
TAP	40	288	2
TAP	40	336	6
TAP	40	352	5
TAP	40	368	4
HLD	41	0	3	288
TAP	41	144	4
HLD	41	288	4	96
BRK	42	0	6
TAP	42	72	5
TAP	42	96	4
TAP	42	144	3
HLD	42	144	6	48
HLD	42	192	5	48
HLD	42	240	4	48
HLD	42	288	3	48
HLD	42	336	2	48
HLD	43	0	1	72
TAP	43	72	0
TAP	43	96	1
TAP	43	144	6
TAP	43	168	7
TAP	43	192	6
TAP	43	240	0
STR	43	240	5
SCR	43	240	5	96	48	0
TAP	43	288	1
HLD	43	336	2	96
TAP	44	48	3
TAP	44	72	2
TAP	44	96	3
TAP	44	144	1
HLD	44	144	5	96
TAP	44	240	4
TAP	44	264	5
TAP	44	288	4
TAP	44	336	2
TAP	44	336	6
TAP	45	0	1
TAP	45	24	3
TAP	45	48	1
TAP	45	72	3
TAP	45	96	2
TAP	45	120	3
TAP	45	144	2
TAP	45	168	3
TAP	45	192	1
TAP	45	216	3
TAP	45	240	1
TAP	45	264	3
TAP	45	288	2
TAP	45	312	3
TAP	45	336	2
TAP	45	360	3
TAP	46	0	1
TAP	46	24	3
TAP	46	48	1
TAP	46	72	3
TAP	46	96	2
TAP	46	120	4
TAP	46	144	2
TAP	46	168	4
TAP	46	192	3
TAP	46	216	5
TAP	46	240	3
TAP	46	264	5
TAP	46	288	4
TAP	46	312	6
TAP	46	336	4
TAP	46	360	6
STR	47	0	5
SCL	47	0	5	96	96	0
TAP	47	96	7
HLD	47	144	7	96
TAP	47	240	0
TAP	47	288	7
TAP	47	336	6
TAP	48	0	1
TAP	48	0	5
TAP	48	48	2
TAP	48	96	3
TAP	48	96	6
TAP	48	144	5
TAP	48	192	2
TAP	48	192	4
TAP	48	240	1
STR	48	288	0
SI_	48	288	0	96	48	4
TAP	48	336	7
TAP	49	0	0
STR	49	0	6
SI_	49	0	6	96	48	3
STR	49	96	1
SCR	49	96	1	96	48	4
TAP	49	96	6
TAP	49	192	1
TAP	49	192	4
TAP	49	208	5
TAP	49	224	6
TAP	49	240	7
TAP	49	256	0
TAP	49	272	1
BRK	49	288	2
TAP	50	0	6
TAP	50	0	7
STR	50	72	0
SI_	50	72	0	96	48	4
TAP	50	72	1
TAP	50	144	0
TAP	50	144	7
TAP	50	240	3
TAP	50	240	5
TAP	50	312	2
STR	50	312	4
SUL	50	312	4	96	120	3
TAP	51	0	3
TAP	51	144	0
TAP	51	240	1
TAP	51	240	3
TAP	51	312	4
TAP	51	312	6
STR	52	0	0
SXL	52	0	0	96	336	3
STR	52	0	7
SXR	52	0	7	96	336	4
TAP	52	96	0
TAP	52	96	7
STR	53	96	1
SLR	53	96	1	96	96	7
TAP	53	96	6
TAP	53	240	0
TAP	54	0	1
STR	54	0	6
SLL	54	0	6	96	96	0
TAP	54	144	7
HLD	54	288	1	48
HLD	54	288	3	48
HLD	54	360	1	48
HLD	54	360	3	48
STR	55	48	1
SI_	55	48	1	96	48	3
STR	55	48	3
SI_	55	48	3	96	48	7
TAP	55	144	1
TAP	55	144	3
STR	55	240	6
SI_	55	240	6	96	48	3
TAP	55	336	0
TAP	56	0	0
HLD	56	96	4	48
HLD	56	96	6	48
HLD	56	168	4	48
HLD	56	168	6	48
STR	56	240	4
SI_	56	240	4	96	48	0
STR	56	240	6
SI_	56	240	6	96	48	4
TAP	56	336	4
TAP	56	336	6
STR	57	48	1
SI_	57	48	1	96	48	4
TAP	57	144	1
TAP	57	144	5
STR	57	192	6
SI_	57	192	6	96	48	2
TAP	57	288	1
TAP	57	288	6
STR	57	336	0
SI_	57	336	0	96	48	4
TAP	58	48	0
TAP	58	48	6
HLD	58	96	7	48
HLD	58	168	0	48
HLD	58	168	6	48
TAP	58	240	1
TAP	58	240	5
HLD	58	336	3	48
HLD	59	24	2	48
HLD	59	24	4	48
STR	59	96	1
SI_	59	96	1	96	48	5
TAP	59	96	5
TAP	59	192	1
TAP	59	192	6
STR	59	240	7
SI_	59	240	7	96	48	3
TAP	59	336	1
TAP	59	336	7
HLD	60	0	0	48
HLD	60	72	1	48
HLD	60	72	7	48
STR	60	144	2
SI_	60	144	2	96	48	4
TAP	60	144	6
TAP	60	240	2
STR	60	240	6
SI_	60	240	6	96	48	3
STR	60	336	1
SI_	60	336	1	96	48	5
TAP	60	336	6
TAP	61	48	1
STR	61	48	7
SI_	61	48	7	96	48	3
STR	61	144	3
SLL	61	144	3	96	96	7
SLR	61	144	3	96	96	7
TAP	61	144	7
HLD	62	0	4	720
TAP	62	336	3
STR	63	48	3
SCL	63	48	3	96	96	0
HLD	63	336	2	816
TAP	64	336	4
STR	65	48	4
SCR	65	48	4	96	96	7
HLD	66	0	6	720
TAP	66	336	2
STR	67	48	2
SCR	67	48	2	96	96	5
HLD	67	336	0	576
TAP	68	144	3
TAP	68	240	3
TAP	68	336	4
STR	69	48	4
SI_	69	48	4	96	48	7
TAP	69	240	2
TAP	69	288	3
TAP	69	336	4
HLD	70	0	1	96
HLD	70	0	5	96
TAP	70	144	1
STR	70	144	5
SI_	70	144	5	96	48	2
STR	70	240	1
SI_	70	240	1	96	48	4
HLD	70	336	6	96
TAP	71	48	5
TAP	71	96	6
TAP	71	144	1
TAP	71	144	5
TAP	71	240	4
TAP	71	288	5
TAP	71	336	3
HLD	71	336	6	96
TAP	72	48	4
TAP	72	96	6
TAP	72	144	5
TAP	72	168	4
TAP	72	192	5
TAP	72	240	3
STR	72	240	6
SUL	72	240	6	96	48	2
TAP	72	288	2
TAP	72	336	1
STR	73	48	1
SCR	73	48	1	96	96	5
TAP	73	48	4
TAP	73	96	5
HLD	73	144	6	144
TAP	73	288	0
TAP	73	336	1
HLD	74	0	2	96
HLD	74	0	6	96
STR	74	144	2
SI_	74	144	2	96	48	5
TAP	74	144	6
STR	74	240	6
SI_	74	240	6	96	48	3
HLD	74	336	1	96
TAP	75	48	2
TAP	75	96	1
HLD	75	144	2	96
TAP	75	144	6
TAP	75	240	3
TAP	75	288	2
HLD	75	336	1	96
TAP	75	336	4
TAP	76	48	3
TAP	76	96	1
TAP	76	144	2
TAP	76	168	3
TAP	76	192	2
STR	76	240	1
SUR	76	240	1	96	48	5
TAP	76	240	4
TAP	76	288	5
TAP	76	336	6
TAP	77	48	3
STR	77	48	6
SCL	77	48	6	96	48	3
TAP	77	96	2
HLD	77	144	1	96
TAP	77	240	0
TAP	77	288	2
TAP	77	288	7
TAP	77	336	3
TAP	77	336	6
TAP	78	0	5
TAP	78	24	4
TAP	78	72	2
TAP	78	96	3
TAP	78	144	6
TAP	78	168	4
TAP	78	216	1
TAP	78	240	3
TAP	78	288	7
TAP	78	312	0
TAP	78	360	2
TAP	79	0	3
TAP	79	24	2
TAP	79	48	3
TAP	79	72	2
TAP	79	96	3
TAP	79	120	2
TAP	79	144	1
TAP	79	168	0
TAP	79	192	7
TAP	79	216	6
TAP	79	240	5
TAP	79	264	4
TAP	79	288	3
TAP	79	320	3
TAP	79	352	3
TAP	80	0	5
TAP	80	24	6
TAP	80	48	7
TAP	80	72	0
TAP	80	96	1
TAP	80	120	2
TAP	80	144	3
TAP	80	144	4
TAP	80	240	1
TAP	80	240	6
TAP	80	288	1
TAP	80	288	6
TAP	80	312	5
TAP	80	336	4
TAP	80	360	3
TAP	81	0	2
TAP	81	24	1
TAP	81	48	6
TAP	81	72	5
TAP	81	96	4
TAP	81	120	3
TAP	81	144	2
TAP	81	168	1
TAP	81	192	6
TAP	81	216	5
TAP	81	240	4
TAP	81	264	3
TAP	81	288	2
TAP	81	312	1
TAP	81	336	0
STR	81	336	7
SCL	81	336	7	96	48	4
TAP	82	48	7
TAP	82	96	2
STR	82	168	0
SCR	82	168	0	96	48	3
TAP	82	168	7
TAP	82	264	0
TAP	82	336	4
TAP	82	360	3
TAP	83	0	5
TAP	83	24	2
TAP	83	48	5
TAP	83	72	2
TAP	83	96	6
TAP	83	120	1
TAP	83	144	6
TAP	83	168	1
TAP	83	192	7
TAP	83	216	6
TAP	83	240	5
TAP	83	264	0
TAP	83	288	1
TAP	83	312	2
STR	83	336	3
SI_	83	336	3	96	48	7
STR	83	336	4
SI_	83	336	4	96	48	0
STR	84	144	0
SCR	84	144	0	96	48	3
STR	84	144	7
SCL	84	144	7	96	48	4
TAP	84	336	1
HLD	84	336	6	384
TAP	85	48	0
TAP	85	72	1
TAP	85	96	2
TAP	85	120	3
TAP	85	144	4
TAP	85	192	4
TAP	85	216	3
TAP	85	240	2
TAP	85	264	1
TAP	85	288	0
HLD	85	336	1	384
TAP	86	48	7
TAP	86	72	6
TAP	86	96	5
TAP	86	120	4
TAP	86	144	3
TAP	86	192	3
TAP	86	216	4
TAP	86	240	5
TAP	86	264	6
TAP	86	288	7
HLD	86	336	5	384
TAP	87	48	0
TAP	87	72	1
TAP	87	96	2
TAP	87	120	3
TAP	87	144	4
TAP	87	192	4
TAP	87	216	3
TAP	87	240	2
TAP	87	264	1
TAP	87	288	0
HLD	87	336	2	192
TAP	88	48	7
TAP	88	72	6
TAP	88	96	5
TAP	88	120	4
TAP	88	144	3
TAP	88	168	2
TAP	88	192	1
TAP	88	216	0
TAP	88	240	7
TAP	88	264	6
TAP	88	288	2
TAP	88	288	5
TAP	89	0	2
TAP	89	0	3
TAP	89	48	3
TAP	89	48	4
TAP	89	96	5
TAP	89	120	4
TAP	89	192	0
HLD	89	192	5	72
TAP	89	264	4
TAP	89	288	5
TAP	89	336	3
TAP	89	336	6
STR	90	0	6
SCL	90	0	6	96	48	3
TAP	90	0	7
TAP	90	48	0
TAP	90	96	6
TAP	90	120	7
HLD	90	192	2	72
TAP	90	264	3
TAP	90	288	2
TAP	90	336	1
TAP	90	336	4
TAP	91	0	4
TAP	91	0	5
TAP	91	48	3
TAP	91	48	4
TAP	91	96	2
TAP	91	120	3
HLD	91	192	2	72
TAP	91	192	7
TAP	91	264	3
TAP	91	288	2
STR	91	336	1
SCR	91	336	1	96	48	4
TAP	91	336	4
TAP	92	48	1
HLD	92	48	5	72
TAP	92	120	7
HLD	92	192	1	72
TAP	92	192	3
TAP	92	264	7
TAP	92	336	0
TAP	92	336	6
TAP	93	0	4
TAP	93	0	5
TAP	93	48	3
TAP	93	48	4
TAP	93	96	2
TAP	93	120	3
HLD	93	192	2	72
TAP	93	192	7
TAP	93	264	3
TAP	93	288	2
TAP	93	336	1
TAP	93	336	4
TAP	94	0	0
STR	94	0	1
SCR	94	0	1	96	48	4
TAP	94	48	7
TAP	94	96	1
TAP	94	120	0
HLD	94	192	5	72
TAP	94	264	4
TAP	94	288	5
TAP	94	336	3
TAP	94	336	6
TAP	95	0	2
TAP	95	0	3
TAP	95	48	3
TAP	95	48	4
TAP	95	96	5
TAP	95	120	4
TAP	95	192	0
HLD	95	192	5	72
TAP	95	264	4
TAP	95	288	5
TAP	95	336	3
STR	95	336	6
SCL	95	336	6	96	48	3
HLD	96	48	2	72
TAP	96	48	6
TAP	96	120	0
TAP	96	192	4
HLD	96	192	6	72
TAP	96	264	0
TAP	96	336	2
TAP	96	336	7
TAP	97	0	0
STR	97	0	1
SI_	97	0	1	96	48	4
TAP	97	48	7
TAP	97	96	1
TAP	97	120	0
TAP	97	168	5
TAP	97	192	4
TAP	97	240	6
TAP	97	264	7
TAP	97	288	6
TAP	97	336	0
TAP	97	336	5
STR	98	0	6
SI_	98	0	6	96	48	3
TAP	98	0	7
TAP	98	48	0
TAP	98	96	6
TAP	98	120	7
TAP	98	168	2
TAP	98	192	3
TAP	98	240	1
TAP	98	264	0
TAP	98	288	1
TAP	98	336	2
TAP	98	336	7
TAP	99	0	0
STR	99	0	1
SCR	99	0	1	96	48	4
TAP	99	48	7
TAP	99	96	1
TAP	99	120	0
TAP	99	168	5
TAP	99	192	4
TAP	99	240	6
TAP	99	264	7
TAP	99	288	6
TAP	99	336	0
TAP	99	336	5
STR	100	0	6
SCL	100	0	6	96	48	3
TAP	100	0	7
TAP	100	48	0
TAP	100	96	6
TAP	100	120	7
TAP	100	168	2
TAP	100	192	3
TAP	100	240	1
TAP	100	264	0
TAP	100	288	1
TAP	100	336	2
TAP	100	336	7
TAP	101	0	6
TAP	101	0	7
TAP	101	48	0
TAP	101	48	7
TAP	101	96	1
TAP	101	120	0
TAP	101	144	1
STR	101	192	6
SI_	101	192	6	96	48	3
TAP	101	216	7
TAP	101	240	5
TAP	101	264	7
TAP	101	288	6
TAP	101	336	2
TAP	102	0	0
TAP	102	0	1
TAP	102	48	0
TAP	102	48	7
TAP	102	96	6
TAP	102	120	7
TAP	102	144	6
STR	102	192	1
SI_	102	192	1	96	48	4
TAP	102	216	0
TAP	102	240	2
TAP	102	264	0
TAP	102	288	1
TAP	102	336	5
TAP	103	0	6
TAP	103	0	7
TAP	103	48	0
TAP	103	48	1
TAP	103	96	2
TAP	103	120	3
TAP	103	144	2
STR	103	192	5
SI_	103	192	5	96	48	0
TAP	103	216	4
TAP	103	240	6
TAP	103	264	4
TAP	103	288	5
TAP	103	336	1
TAP	104	0	2
TAP	104	24	5
TAP	104	48	1
TAP	104	72	6
TAP	104	96	0
TAP	104	120	7
TAP	104	144	0
BRK	104	192	1
BRK	104	192	6
BRK	104	264	4
BRK	104	264	7
BST	104	336	0
SI_	104	336	0	96	720	3
BST	104	336	3
SCR	104	336	3	96	720	5

T_REC_TAP	684
T_REC_BRK	8
T_REC_XTP	0
T_REC_HLD	92
T_REC_XHO	0
T_REC_STR	71
T_REC_BST	3
T_REC_XST	0
T_REC_TTP	0
T_REC_THO	0
T_REC_SLD	75
T_REC_ALL	933
T_NUM_TAP	755
T_NUM_BRK	11
T_NUM_HLD	92
T_NUM_SLD	75
T_NUM_ALL	933
T_JUDGE_TAP	766
T_JUDGE_HLD	311
T_JUDGE_SLD	75
T_JUDGE_ALL	1152
TTM_EACHPAIRS	158
TTM_SCR_TAP	377500
TTM_SCR_BRK	28600
TTM_SCR_HLD	92000
TTM_SCR_SLD	112500
TTM_SCR_ALL	610600
TTM_SCR_S	591250
TTM_SCR_SS	609500
TTM_RAT_ACV	10018

