VERSION	0.00.00	1.03.00
FES_MODE	0
BPM_DEF	180.000	180.000	180.000	180.000
MET_DEF	4	4
RESOLUTION	384
CLK_DEF	384
COMPATIBLE_CODE	MA2

BPM	0	0	180.000
MET	0	0	4	4
MET	50	0	4	3
MET	52	96	4	4
MET	53	96	4	3
MET	61	192	4	2
MET	62	0	4	4

HLD	2	0	3	384
TAP	2	144	4
TAP	2	288	4
HLD	3	0	4	384
TAP	3	144	5
TAP	3	288	5
HLD	4	0	5	384
TAP	4	144	6
TAP	4	288	6
HLD	5	0	6	288
TAP	5	144	7
TAP	5	288	7
HLD	6	0	3	384
TAP	6	144	2
TAP	6	288	2
HLD	7	0	2	384
TAP	7	144	1
TAP	7	288	1
HLD	8	0	1	288
TAP	8	144	0
STR	8	288	0
SXR	8	288	0	96	288	4
TAP	10	0	3
HLD	10	48	3	960
TAP	10	144	5
TAP	10	240	4
TAP	10	336	6
TAP	11	48	4
TAP	11	144	5
TAP	11	240	4
TAP	11	336	2
TAP	12	48	4
TAP	12	144	5
TAP	12	240	4
TAP	12	336	1
TAP	12	336	6
TAP	13	48	5
TAP	13	96	4
TAP	13	96	6
TAP	13	192	2
TAP	13	240	2
TAP	13	288	1
TAP	13	288	3
TAP	14	0	4
HLD	14	48	4	960
TAP	14	144	2
TAP	14	240	3
TAP	14	336	1
TAP	15	48	3
TAP	15	144	2
TAP	15	240	3
TAP	15	336	5
TAP	16	48	3
TAP	16	144	2
TAP	16	240	3
TAP	16	336	1
TAP	16	336	6
HLD	17	0	1	288
HLD	17	0	6	288
TAP	18	0	2
TAP	18	0	5
TAP	18	96	2
TAP	18	192	2
TAP	18	240	1
TAP	18	240	4
TAP	18	288	2
TAP	19	0	2
TAP	19	0	5
TAP	19	96	2
TAP	19	144	3
TAP	19	192	2
TAP	19	240	1
HLD	19	240	4	96
TAP	19	336	3
TAP	20	0	2
TAP	20	0	5
TAP	20	48	4
TAP	20	96	3
TAP	20	144	2
TAP	20	192	3
TAP	20	240	4
TAP	20	288	5
STR	20	336	6
SUL	20	336	6	96	192	4
TAP	21	288	3
TAP	22	0	2
TAP	22	0	5
TAP	22	48	2
TAP	22	96	4
HLD	22	144	4	96
TAP	22	240	1
TAP	22	288	2
HLD	22	336	3	96
TAP	23	48	6
TAP	23	96	5
TAP	23	144	4
TAP	23	192	3
TAP	23	240	2
TAP	23	240	5
TAP	24	0	2
TAP	24	48	2
TAP	24	96	3
TAP	24	144	3
TAP	24	192	4
TAP	24	240	4
TAP	24	288	5
STR	24	336	5
SCR	24	336	5	96	144	2
TAP	25	192	3
TAP	25	240	3
TAP	25	288	4
TAP	25	336	4
TAP	26	0	2
TAP	26	0	5
TAP	26	96	5
TAP	26	192	5
TAP	26	240	3
TAP	26	240	6
TAP	26	288	5
TAP	27	0	2
TAP	27	0	5
TAP	27	96	5
TAP	27	144	3
TAP	27	192	5
HLD	27	240	3	96
TAP	27	240	6
TAP	27	336	4
TAP	28	0	2
TAP	28	0	5
TAP	28	48	3
TAP	28	96	4
TAP	28	144	5
TAP	28	192	4
TAP	28	240	3
TAP	28	288	2
STR	28	336	1
SUR	28	336	1	96	192	3
TAP	29	288	4
TAP	30	0	2
TAP	30	0	5
TAP	30	48	3
TAP	30	96	4
HLD	30	144	6	96
TAP	30	240	4
TAP	30	288	3
HLD	30	336	1	96
TAP	31	48	3
TAP	31	96	4
TAP	31	144	6
TAP	31	192	2
TAP	31	192	5
TAP	31	240	2
TAP	31	240	5
TAP	32	0	5
TAP	32	48	5
TAP	32	96	4
TAP	32	144	4
TAP	32	192	3
TAP	32	240	3
TAP	32	288	2
HLD	32	336	2	96
TAP	33	48	5
TAP	33	96	1
TAP	33	96	6
TAP	33	144	0
TAP	33	144	7
BRK	33	240	3
BRK	33	240	4
TAP	34	0	1
TAP	34	48	1
TAP	34	96	3
TAP	34	144	3
HLD	34	192	2	72
TAP	34	264	3
TAP	35	0	2
TAP	35	48	2
TAP	35	96	3
TAP	35	144	3
STR	35	192	1
SCR	35	192	1	96	96	4
TAP	36	0	6
TAP	36	48	6
TAP	36	96	4
TAP	36	144	4
HLD	36	192	5	72
TAP	36	264	4
TAP	37	0	5
TAP	37	48	5
TAP	37	96	4
TAP	37	144	4
STR	37	192	6
SCL	37	192	6	96	96	3
TAP	38	0	2
TAP	38	48	2
TAP	38	96	3
TAP	38	144	3
HLD	38	192	1	72
TAP	38	264	2
TAP	39	0	2
TAP	39	48	2
TAP	39	96	3
TAP	39	144	3
STR	39	192	1
SCR	39	192	1	96	96	4
TAP	40	0	5
TAP	40	48	5
TAP	40	96	4
TAP	40	144	4
HLD	40	192	6	72
TAP	40	264	5
TAP	41	0	5
TAP	41	48	5
TAP	41	96	4
TAP	41	144	4
STR	41	192	6
SCL	41	192	6	96	96	3
BRK	42	0	0
TAP	42	144	2
TAP	42	192	2
TAP	42	240	4
TAP	42	288	3
HLD	42	336	5	192
TAP	43	144	4
TAP	43	168	5
HLD	43	192	3	144
HLD	43	336	4	96
TAP	44	48	3
TAP	44	96	4
HLD	44	144	2	96
TAP	44	240	5
TAP	44	288	2
TAP	44	288	5
STR	45	0	1
SCR	45	0	1	96	48	4
TAP	45	96	5
STR	45	192	6
SUL	45	192	6	96	48	2
TAP	45	288	1
STR	46	0	0
SI_	46	0	0	96	48	4
TAP	46	96	5
STR	46	192	6
SUL	46	192	6	96	192	3
TAP	46	288	2
HLD	47	144	2	96
TAP	47	240	3
TAP	47	288	4
TAP	47	336	5
TAP	48	0	6
TAP	48	48	5
TAP	48	96	2
TAP	48	144	3
TAP	48	192	5
TAP	48	240	4
TAP	48	288	1
STR	48	336	2
SXL	48	336	2	96	240	5
TAP	50	0	6
TAP	50	0	7
TAP	50	72	0
TAP	50	72	5
TAP	50	144	1
TAP	50	144	4
TAP	50	240	3
TAP	50	240	6
TAP	50	312	2
TAP	50	312	7
TAP	51	0	0
STR	51	0	1
SI_	51	0	1	96	48	5
TAP	51	144	7
TAP	51	240	3
TAP	51	240	4
TAP	51	312	2
TAP	51	312	5
STR	52	0	1
SXR	52	0	1	96	288	4
STR	52	0	6
SXL	52	0	6	96	288	3
STR	53	96	1
SI_	53	96	1	96	48	4
HLD	53	96	5	96
TAP	53	240	5
HLD	54	0	2	96
STR	54	0	6
SI_	54	0	6	96	48	3
TAP	54	144	2
TAP	54	288	0
HLD	54	288	1	72
HLD	54	360	2	72
TAP	55	48	3
TAP	55	144	4
TAP	55	144	5
TAP	55	240	2
TAP	55	240	3
TAP	55	336	0
TAP	55	336	7
TAP	56	0	0
TAP	56	0	7
TAP	56	96	4
HLD	56	96	5	72
HLD	56	168	6	72
TAP	56	240	7
TAP	56	336	0
TAP	56	336	1
TAP	57	48	6
TAP	57	48	7
TAP	57	144	3
TAP	57	144	4
TAP	57	192	3
TAP	57	192	4
TAP	57	288	1
TAP	57	288	3
TAP	57	336	1
TAP	57	336	3
TAP	58	48	4
TAP	58	48	6
TAP	58	96	4
HLD	58	96	6	72
HLD	58	168	5	72
TAP	58	240	4
HLD	58	336	2	72
TAP	58	336	3
HLD	59	24	1	72
TAP	59	96	0
TAP	59	192	3
TAP	59	192	4
TAP	59	240	3
TAP	59	240	4
TAP	59	336	2
TAP	59	336	5
TAP	60	0	2
TAP	60	0	5
TAP	60	72	1
TAP	60	72	6
STR	60	144	0
SCR	60	144	0	96	48	3
TAP	60	144	7
STR	60	240	7
SCL	60	240	7	96	48	4
STR	60	336	0
SCR	60	336	0	96	48	3
STR	61	48	7
SCL	61	48	7	96	48	4
STR	61	144	0
SSL	61	144	0	96	96	4
HLD	62	0	6	144
TAP	62	144	5
TAP	62	240	5
TAP	62	336	4
TAP	63	48	4
TAP	63	144	5
TAP	63	240	5
TAP	63	336	4
HLD	63	336	6	96
TAP	64	144	3
HLD	64	144	5	96
TAP	64	336	2
HLD	64	336	4	96
TAP	65	144	1
HLD	65	144	3	96
TAP	65	240	2
TAP	65	288	2
HLD	66	0	1	144
TAP	66	144	2
TAP	66	240	2
TAP	66	336	3
TAP	67	48	3
TAP	67	144	2
TAP	67	240	2
HLD	67	336	1	96
TAP	67	336	3
HLD	68	144	2	96
TAP	68	144	4
HLD	68	336	3	96
TAP	68	336	5
HLD	69	144	4	96
TAP	69	144	6
TAP	69	240	5
TAP	69	288	5
TAP	70	0	2
TAP	70	0	5
TAP	70	96	2
TAP	70	96	3
TAP	70	144	3
TAP	70	192	2
TAP	70	240	4
TAP	70	288	2
TAP	70	336	5
TAP	71	0	2
TAP	71	48	6
TAP	71	96	6
TAP	71	144	4
TAP	71	240	1
TAP	71	288	1
TAP	71	336	3
TAP	72	48	5
TAP	72	96	5
TAP	72	144	3
TAP	72	168	4
TAP	72	192	3
TAP	72	240	4
TAP	72	288	5
TAP	72	336	6
TAP	73	48	6
TAP	73	96	5
HLD	73	144	4	144
TAP	73	288	3
TAP	73	336	4
TAP	74	0	2
TAP	74	0	5
TAP	74	96	4
TAP	74	96	5
TAP	74	144	4
TAP	74	192	5
TAP	74	240	3
TAP	74	288	5
TAP	74	336	2
TAP	75	0	5
TAP	75	48	1
TAP	75	96	1
TAP	75	144	3
TAP	75	240	6
TAP	75	288	6
TAP	75	336	4
TAP	76	48	2
TAP	76	96	2
TAP	76	144	4
TAP	76	168	3
TAP	76	192	4
TAP	76	240	3
TAP	76	288	2
TAP	76	336	1
TAP	77	48	1
TAP	77	96	2
TAP	77	144	3
TAP	77	240	3
TAP	77	240	4
TAP	77	288	2
TAP	77	288	5
TAP	77	336	1
TAP	77	336	6
TAP	78	0	0
TAP	78	24	7
TAP	78	72	1
TAP	78	72	6
TAP	78	144	0
TAP	78	168	7
TAP	78	216	1
TAP	78	216	6
TAP	78	288	0
TAP	78	312	7
TAP	78	360	1
TAP	79	0	6
TAP	79	48	2
TAP	79	72	5
STR	79	120	3
SUR	79	120	3	96	120	4
TAP	79	144	4
TAP	80	0	6
TAP	80	48	7
TAP	80	96	0
TAP	80	144	1
TAP	80	144	6
TAP	80	240	3
TAP	80	240	4
TAP	80	288	3
TAP	80	288	4
TAP	81	0	1
TAP	81	0	3
TAP	81	96	4
TAP	81	96	6
TAP	81	192	0
TAP	81	192	7
TAP	81	288	2
TAP	81	288	5
TAP	81	336	2
TAP	81	336	5
TAP	82	32	0
TAP	82	32	7
TAP	82	96	1
TAP	82	96	6
TAP	82	160	2
TAP	82	160	5
TAP	82	264	2
TAP	82	264	5
TAP	82	336	0
TAP	82	336	7
STR	83	0	0
SCR	83	0	0	96	48	3
TAP	83	0	7
STR	83	96	7
SCL	83	96	7	96	48	4
STR	83	192	0
SCR	83	192	0	96	48	3
STR	83	288	7
SSR	83	288	7	96	96	3
STR	84	144	0
SSL	84	144	0	96	96	4
HLD	84	336	5	384
TAP	85	48	4
TAP	85	144	6
TAP	85	240	4
HLD	85	336	2	384
TAP	86	48	3
TAP	86	144	1
TAP	86	240	3
HLD	86	336	6	384
TAP	87	48	5
TAP	87	144	7
TAP	87	240	5
HLD	87	336	1	288
TAP	88	48	2
STR	88	144	0
SCL	88	144	0	96	96	4
TAP	89	0	2
HLD	89	48	2	72
HLD	89	120	3	72
HLD	89	192	4	72
HLD	89	264	5	72
TAP	89	336	7
TAP	90	0	5
HLD	90	48	5	72
HLD	90	120	4	72
HLD	90	192	3	72
HLD	90	264	2	72
TAP	90	336	0
TAP	91	0	2
HLD	91	48	2	72
HLD	91	120	3	72
HLD	91	192	4	72
HLD	91	264	5	72
TAP	91	336	7
TAP	92	48	0
TAP	92	48	2
TAP	92	120	0
TAP	92	120	2
TAP	92	192	3
TAP	92	192	4
TAP	92	264	2
TAP	92	264	5
TAP	92	336	0
TAP	92	336	7
TAP	93	0	6
HLD	93	48	6	72
HLD	93	120	4	72
HLD	93	192	3	72
HLD	93	264	1	72
TAP	93	336	0
TAP	94	0	1
HLD	94	48	1	72
HLD	94	120	3	72
HLD	94	192	4	72
HLD	94	264	6	72
TAP	94	336	7
TAP	95	0	6
HLD	95	48	6	72
HLD	95	120	4	72
HLD	95	192	3	72
HLD	95	264	1	72
TAP	95	336	0
TAP	96	48	6
TAP	96	48	7
TAP	96	120	6
TAP	96	120	7
TAP	96	192	2
TAP	96	192	5
TAP	96	264	1
TAP	96	264	6
TAP	96	336	0
TAP	96	336	7
BRK	97	0	0
STR	97	0	7
SI_	97	0	7	96	48	3
STR	97	96	1
SI_	97	96	1	96	48	4
STR	97	192	5
SI_	97	192	5	96	48	0
TAP	97	288	2
STR	98	0	1
SI_	98	0	1	96	48	5
BRK	98	0	7
STR	98	96	7
SI_	98	96	7	96	48	3
STR	98	192	2
SI_	98	192	2	96	48	7
TAP	98	288	5
BRK	99	0	0
STR	99	0	6
SI_	99	0	6	96	48	3
STR	99	96	1
SI_	99	96	1	96	48	5
STR	99	192	7
SI_	99	192	7	96	48	3
STR	99	288	2
SI_	99	288	2	96	48	7
STR	100	0	6
SI_	100	0	6	96	48	3
STR	100	96	0
SI_	100	96	0	96	48	4
STR	100	192	5
SI_	100	192	5	96	48	0
BRK	100	288	0
TAP	101	0	2
TAP	101	48	3
TAP	101	96	1
TAP	101	144	5
TAP	101	192	4
TAP	101	240	5
TAP	101	288	3
TAP	101	288	6
TAP	102	0	5
TAP	102	48	4
TAP	102	96	6
TAP	102	144	2
TAP	102	192	3
TAP	102	240	2
TAP	102	288	1
TAP	102	288	4
TAP	103	0	6
TAP	103	48	7
TAP	103	96	6
TAP	103	144	1
TAP	103	192	0
TAP	103	240	1
TAP	103	288	2
TAP	103	288	7
TAP	104	0	6
TAP	104	48	6
TAP	104	96	1
TAP	104	144	1
TAP	104	192	2
BRK	104	192	3
BRK	104	264	4
TAP	104	264	5
BRK	104	336	0
BRK	104	336	7

T_REC_TAP	464
T_REC_BRK	11
T_REC_XTP	0
T_REC_HLD	76
T_REC_XHO	0
T_REC_STR	43
T_REC_BST	0
T_REC_XST	0
T_REC_TTP	0
T_REC_THO	0
T_REC_SLD	43
T_REC_ALL	637
T_NUM_TAP	507
T_NUM_BRK	11
T_NUM_HLD	76
T_NUM_SLD	43
T_NUM_ALL	637
T_JUDGE_TAP	518
T_JUDGE_HLD	262
T_JUDGE_SLD	43
T_JUDGE_ALL	823
TTM_EACHPAIRS	106
TTM_SCR_TAP	253500
TTM_SCR_BRK	28600
TTM_SCR_HLD	76000
TTM_SCR_SLD	64500
TTM_SCR_ALL	422600
TTM_SCR_S	408900
TTM_SCR_SS	421500
TTM_RAT_ACV	10026

