VERSION	0.00.00	1.03.00
FES_MODE	0
BPM_DEF	180.000	180.000	180.000	180.000
MET_DEF	4	4
RESOLUTION	384
CLK_DEF	384
COMPATIBLE_CODE	MA2

BPM	0	0	180.000
MET	0	0	4	4
MET	50	0	4	3
MET	52	96	4	4
MET	53	96	4	3
MET	61	192	4	2
MET	62	0	4	4

HLD	2	0	2	192
HLD	2	192	3	192
HLD	3	0	4	192
HLD	3	192	5	192
HLD	4	0	4	192
HLD	4	192	3	192
HLD	5	0	2	192
TAP	5	192	5
TAP	5	288	3
TAP	5	288	4
HLD	6	0	5	192
HLD	6	192	4	192
HLD	7	0	3	192
HLD	7	192	2	192
HLD	8	0	3	192
HLD	8	192	4	192
HLD	9	0	5	192
TAP	9	192	2
TAP	9	288	3
TAP	9	288	4
TAP	10	0	2
TAP	10	96	2
TAP	10	192	2
TAP	10	288	3
TAP	10	288	4
TAP	11	0	5
TAP	11	96	5
TAP	11	192	3
TAP	11	192	4
TAP	12	0	2
TAP	12	96	1
TAP	12	192	2
TAP	12	288	3
TAP	12	288	4
TAP	13	0	5
STR	13	96	6
SCL	13	96	6	96	144	3
TAP	14	0	1
TAP	14	96	2
TAP	14	192	3
TAP	14	288	4
TAP	14	288	5
TAP	15	0	6
TAP	15	96	5
TAP	15	192	3
TAP	15	192	4
TAP	16	0	2
TAP	16	96	3
TAP	16	192	4
TAP	16	288	5
STR	17	0	3
SCL	17	0	3	96	144	0
STR	17	0	4
SCR	17	0	4	96	144	7
BRK	18	0	3
BRK	18	0	4
TAP	18	96	2
TAP	18	192	1
TAP	18	288	3
TAP	19	0	4
TAP	19	0	5
TAP	19	96	6
TAP	19	192	5
TAP	19	192	7
TAP	20	0	2
TAP	20	0	3
TAP	20	96	1
TAP	20	192	2
TAP	20	192	3
STR	20	288	4
SXL	20	288	4	96	240	3
TAP	22	0	3
TAP	22	0	4
TAP	22	96	5
TAP	22	192	6
TAP	22	288	4
TAP	23	0	2
TAP	23	0	3
TAP	23	96	1
TAP	23	192	0
TAP	23	192	2
TAP	24	0	4
TAP	24	0	5
TAP	24	96	6
TAP	24	192	4
TAP	24	192	5
STR	24	288	3
SXR	24	288	3	96	240	4
TAP	26	0	3
TAP	26	0	4
TAP	26	96	2
TAP	26	96	3
TAP	26	192	1
TAP	26	288	3
TAP	27	0	2
TAP	27	0	4
TAP	27	96	3
TAP	27	96	5
TAP	27	192	4
TAP	27	192	6
TAP	28	0	2
TAP	28	96	4
TAP	28	192	3
STR	28	288	5
SCR	28	288	5	96	240	2
TAP	30	0	3
TAP	30	0	4
TAP	30	96	4
TAP	30	96	5
TAP	30	192	6
TAP	30	288	4
TAP	31	0	3
TAP	31	0	5
TAP	31	96	2
TAP	31	96	4
TAP	31	192	1
TAP	31	192	3
TAP	32	0	4
TAP	32	0	6
TAP	32	96	3
TAP	32	192	2
TAP	32	288	1
HLD	33	0	0	288
TAP	33	288	7
STR	34	0	1
SCR	34	0	1	96	144	4
TAP	34	0	6
STR	35	0	6
SI_	35	0	6	96	144	2
STR	36	0	0
SCL	36	0	0	96	144	5
TAP	37	0	4
TAP	37	0	5
TAP	37	192	2
TAP	37	192	3
TAP	38	0	1
STR	38	0	6
SCL	38	0	6	96	144	3
STR	39	0	1
SI_	39	0	1	96	144	5
STR	40	0	7
SCR	40	0	7	96	144	2
TAP	41	0	2
TAP	41	0	3
TAP	41	192	4
TAP	41	192	5
TAP	42	0	1
TAP	42	96	2
TAP	42	192	3
TAP	42	288	4
HLD	43	0	2	96
HLD	43	0	3	96
HLD	43	192	4	96
HLD	43	192	5	96
TAP	44	0	3
TAP	44	96	4
TAP	44	192	5
TAP	44	288	6
STR	45	0	7
SI_	45	0	7	96	96	5
STR	45	192	0
SI_	45	192	0	96	96	4
STR	46	0	7
SI_	46	0	7	96	96	3
STR	46	192	0
SI_	46	192	0	96	96	2
TAP	47	0	4
TAP	47	96	5
TAP	47	192	6
TAP	47	288	7
HLD	48	0	0	96
HLD	48	0	1	96
HLD	48	192	6	96
HLD	48	192	7	96
TAP	49	0	0
TAP	49	0	7
TAP	49	96	1
TAP	49	96	6
BRK	49	192	2
BRK	49	192	5
HLD	50	0	0	240
HLD	50	240	7	288
STR	51	144	0
SI_	51	144	0	96	144	4
TAP	52	96	1
TAP	52	96	6
HLD	53	96	0	144
HLD	53	96	1	144
HLD	54	0	6	144
HLD	54	0	7	144
TAP	54	288	0
TAP	54	288	7
TAP	55	0	1
TAP	55	96	2
TAP	55	192	3
TAP	55	192	4
TAP	55	288	5
TAP	56	0	6
TAP	56	96	0
TAP	56	96	7
TAP	56	192	1
TAP	56	288	2
HLD	57	0	3	144
HLD	57	0	4	144
TAP	57	288	2
TAP	57	336	2
TAP	58	48	1
HLD	58	96	1	144
HLD	58	336	0	144
TAP	59	192	7
TAP	59	240	7
TAP	59	336	6
HLD	60	0	6	144
TAP	60	240	3
TAP	60	240	4
TAP	60	336	2
TAP	60	336	5
TAP	61	48	1
TAP	61	48	6
TAP	61	144	0
TAP	61	144	7
HLD	62	0	2	192
TAP	62	192	3
TAP	62	288	4
HLD	63	0	5	192
TAP	63	192	4
TAP	63	288	3
HLD	64	0	2	96
HLD	64	192	3	96
HLD	65	0	4	96
TAP	65	192	3
TAP	65	192	5
HLD	66	0	5	192
TAP	66	192	4
TAP	66	288	3
HLD	67	0	2	192
TAP	67	192	3
TAP	67	288	4
HLD	68	0	5	96
HLD	68	192	4	96
HLD	69	0	3	96
TAP	69	192	2
TAP	69	192	4
TAP	70	0	0
TAP	70	96	0
TAP	70	192	7
TAP	70	288	7
TAP	71	0	6
TAP	71	96	6
TAP	71	192	5
TAP	71	192	7
TAP	72	0	6
TAP	72	96	5
TAP	72	192	4
TAP	72	288	3
TAP	73	0	2
TAP	73	96	3
TAP	73	192	4
TAP	73	192	5
TAP	74	0	7
TAP	74	96	7
TAP	74	192	0
TAP	74	288	0
TAP	75	0	1
TAP	75	96	1
TAP	75	192	0
TAP	75	192	2
TAP	76	0	1
TAP	76	96	2
TAP	76	192	3
TAP	76	288	4
TAP	77	0	5
TAP	77	96	4
TAP	77	192	2
TAP	77	192	3
TAP	78	0	4
TAP	78	0	5
TAP	78	96	4
TAP	78	96	5
TAP	78	192	3
TAP	78	192	6
TAP	79	0	2
TAP	79	0	3
TAP	79	96	2
TAP	79	96	3
TAP	79	192	1
TAP	79	192	4
TAP	80	0	5
TAP	80	96	5
TAP	80	192	4
TAP	80	288	4
TAP	81	0	3
TAP	81	96	3
TAP	81	192	2
STR	81	288	2
SCR	81	288	2	96	288	7
TAP	83	0	4
TAP	83	96	4
STR	83	192	5
SCL	83	192	5	96	288	0
TAP	85	0	2
TAP	85	96	3
TAP	85	192	2
TAP	85	288	1
TAP	85	288	4
TAP	86	0	5
TAP	86	96	4
TAP	86	192	5
TAP	86	288	3
TAP	86	288	6
TAP	87	0	2
TAP	87	96	3
TAP	87	192	2
TAP	87	288	1
TAP	87	288	4
TAP	88	0	0
STR	88	96	0
SI_	88	96	0	96	96	3
STR	88	96	7
SI_	88	96	7	96	96	4
TAP	89	0	3
TAP	89	0	4
TAP	89	96	2
HLD	89	192	1	96
HLD	89	192	3	96
TAP	90	0	3
TAP	90	0	4
TAP	90	96	5
HLD	90	192	4	96
HLD	90	192	6	96
TAP	91	0	3
TAP	91	0	4
TAP	91	96	2
HLD	91	192	1	96
HLD	91	192	3	96
TAP	92	0	2
TAP	92	0	5
TAP	92	96	1
TAP	92	96	6
TAP	92	192	0
TAP	92	192	7
TAP	93	0	3
TAP	93	0	4
TAP	93	96	5
HLD	93	192	4	96
HLD	93	192	6	96
TAP	94	0	3
TAP	94	0	4
TAP	94	96	2
HLD	94	192	1	96
HLD	94	192	3	96
TAP	95	0	3
TAP	95	0	4
TAP	95	96	5
HLD	95	192	4	96
HLD	95	192	6	96
TAP	96	0	1
TAP	96	0	3
TAP	96	96	4
TAP	96	96	6
TAP	96	192	0
TAP	96	192	7
TAP	97	0	2
TAP	97	96	3
TAP	97	192	2
TAP	97	288	1
TAP	97	288	4
TAP	98	0	5
TAP	98	96	4
TAP	98	192	5
TAP	98	288	3
TAP	98	288	6
TAP	99	0	7
TAP	99	96	0
TAP	99	192	7
TAP	99	288	1
TAP	99	288	6
TAP	100	0	2
TAP	100	0	5
STR	100	96	3
SI_	100	96	3	96	96	0
STR	100	96	4
SI_	100	96	4	96	96	7
TAP	101	0	1
TAP	101	96	0
TAP	101	192	1
TAP	101	288	2
TAP	101	288	7
TAP	102	0	6
TAP	102	96	7
TAP	102	192	6
TAP	102	288	0
TAP	102	288	5
TAP	103	0	4
TAP	103	96	3
TAP	103	192	4
TAP	103	288	2
TAP	103	288	5
TAP	104	0	1
TAP	104	0	6
STR	104	96	0
SCR	104	96	0	96	144	3
STR	104	96	7
SCL	104	96	7	96	144	4

T_REC_TAP	294
T_REC_BRK	4
T_REC_XTP	0
T_REC_HLD	56
T_REC_XHO	0
T_REC_STR	25
T_REC_BST	0
T_REC_XST	0
T_REC_TTP	0
T_REC_THO	0
T_REC_SLD	25
T_REC_ALL	404
T_NUM_TAP	319
T_NUM_BRK	4
T_NUM_HLD	56
T_NUM_SLD	25
T_NUM_ALL	404
T_JUDGE_TAP	323
T_JUDGE_HLD	168
T_JUDGE_SLD	25
T_JUDGE_ALL	516
TTM_EACHPAIRS	97
TTM_SCR_TAP	159500
TTM_SCR_BRK	10400
TTM_SCR_HLD	56000
TTM_SCR_SLD	37500
TTM_SCR_ALL	263400
TTM_SCR_S	255150
TTM_SCR_SS	263000
TTM_RAT_ACV	10015

