VERSION	0.00.00	1.03.00
FES_MODE	0
BPM_DEF	180.000	180.000	180.000	180.000
MET_DEF	4	4
RESOLUTION	384
CLK_DEF	384
COMPATIBLE_CODE	MA2

BPM	0	0	180.000
MET	0	0	4	4
MET	50	0	4	3
MET	52	96	4	4
MET	53	96	4	3
MET	61	192	4	2
MET	62	0	4	4

TAP	2	0	0
TAP	3	0	0
TAP	4	0	7
TAP	5	0	7
TAP	6	0	0
TAP	6	192	0
TAP	7	0	1
TAP	7	192	1
TAP	8	0	2
TAP	8	192	2
TAP	9	0	3
TAP	9	0	4
TAP	10	0	4
TAP	10	96	4
TAP	10	192	4
TAP	11	0	4
TAP	11	96	4
TAP	11	192	4
TAP	12	0	5
TAP	12	96	5
TAP	12	192	5
TAP	13	0	5
TAP	13	96	5
TAP	13	192	5
TAP	14	0	6
TAP	14	96	6
TAP	14	192	6
TAP	15	0	6
TAP	15	96	6
TAP	15	192	6
TAP	16	0	7
TAP	16	96	7
TAP	16	192	7
TAP	17	0	0
TAP	17	0	7
TAP	17	96	0
TAP	17	96	7
BRK	17	192	0
BRK	17	192	7
STR	18	0	0
SI_	18	0	0	96	288	3
STR	20	0	7
SI_	20	0	7	96	288	4
STR	22	0	1
SI_	22	0	1	96	288	4
STR	24	0	6
SI_	24	0	6	96	288	3
HLD	26	0	3	192
HLD	27	0	3	192
HLD	28	0	4	192
HLD	29	0	4	192
HLD	30	0	3	192
HLD	31	0	4	192
HLD	32	0	3	192
HLD	32	0	4	192
BRK	33	0	3
BRK	33	0	4
TAP	34	0	2
TAP	34	192	2
TAP	35	0	2
TAP	36	0	1
TAP	36	192	1
TAP	37	0	1
TAP	38	0	0
TAP	38	192	0
TAP	39	0	0
TAP	40	0	7
TAP	40	192	7
TAP	41	0	7
TAP	42	0	6
TAP	42	192	6
HLD	43	0	6	192
TAP	44	0	5
TAP	44	192	5
HLD	45	0	5	192
TAP	46	0	4
TAP	46	192	4
HLD	47	0	4	192
TAP	48	0	3
TAP	48	192	3
TAP	49	0	3
TAP	49	0	4
STR	50	0	3
SI_	50	0	3	96	288	0
STR	50	0	4
SI_	50	0	4	96	288	7
HLD	52	96	7	192
TAP	53	96	0
TAP	53	96	7
TAP	54	0	0
TAP	54	0	7
TAP	54	288	0
TAP	55	0	0
TAP	55	96	0
TAP	55	288	7
TAP	56	0	7
TAP	56	96	7
STR	56	288	0
SI_	56	288	0	96	288	3
STR	59	96	7
SI_	59	96	7	96	288	4
HLD	62	0	0	384
HLD	64	0	7	384
TAP	66	0	0
TAP	66	192	0
TAP	67	0	1
TAP	67	192	1
TAP	68	0	2
TAP	68	192	2
TAP	69	0	3
TAP	69	0	4
TAP	70	0	4
TAP	70	96	4
TAP	70	192	4
TAP	71	0	4
TAP	71	96	4
TAP	71	192	4
TAP	72	0	5
TAP	72	96	5
TAP	72	192	5
TAP	73	0	5
TAP	73	96	4
TAP	73	192	5
TAP	74	0	6
TAP	74	96	6
TAP	74	192	6
TAP	75	0	6
TAP	75	96	6
TAP	75	192	6
TAP	76	0	7
TAP	76	96	7
TAP	76	192	7
TAP	77	0	0
TAP	77	96	7
TAP	77	192	0
STR	78	0	6
SI_	78	0	6	96	288	2
STR	80	0	1
SI_	80	0	1	96	288	5
STR	82	0	7
SI_	82	0	7	96	288	3
STR	84	0	0
SI_	84	0	0	96	288	4
TAP	85	336	2
TAP	85	336	3
TAP	86	336	4
TAP	86	336	5
TAP	87	336	2
TAP	87	336	3
TAP	89	0	0
TAP	89	96	0
TAP	89	192	0
TAP	90	0	1
TAP	90	96	1
TAP	90	192	1
TAP	91	0	2
TAP	91	96	2
TAP	91	192	2
TAP	92	0	3
TAP	92	96	3
TAP	92	192	3
TAP	93	0	4
TAP	93	96	4
TAP	93	192	4
TAP	94	0	5
TAP	94	96	5
TAP	94	192	5
TAP	95	0	6
TAP	95	96	6
TAP	95	192	6
TAP	96	0	7
TAP	96	96	7
TAP	96	192	7
TAP	97	0	6
TAP	97	96	6
TAP	97	192	6
TAP	97	192	7
TAP	98	0	5
TAP	98	96	5
TAP	98	192	4
TAP	98	192	5
TAP	99	0	4
TAP	99	96	4
TAP	99	192	3
TAP	99	192	4
TAP	100	0	3
TAP	100	96	4
TAP	100	192	3
TAP	101	0	2
TAP	101	96	2
TAP	101	192	2
TAP	101	192	3
TAP	102	0	1
TAP	102	96	1
TAP	102	192	0
TAP	102	192	1
TAP	103	0	0
TAP	103	96	0
TAP	103	192	0
TAP	103	192	7
STR	104	0	7
SI_	104	0	7	96	288	3

T_REC_TAP	158
T_REC_BRK	4
T_REC_XTP	0
T_REC_HLD	14
T_REC_XHO	0
T_REC_STR	13
T_REC_BST	0
T_REC_XST	0
T_REC_TTP	0
T_REC_THO	0
T_REC_SLD	13
T_REC_ALL	202
T_NUM_TAP	171
T_NUM_BRK	4
T_NUM_HLD	14
T_NUM_SLD	13
T_NUM_ALL	202
T_JUDGE_TAP	175
T_JUDGE_HLD	64
T_JUDGE_SLD	13
T_JUDGE_ALL	252
TTM_EACHPAIRS	20
TTM_SCR_TAP	85500
TTM_SCR_BRK	10400
TTM_SCR_HLD	14000
TTM_SCR_SLD	19500
TTM_SCR_ALL	129400
TTM_SCR_S	125150
TTM_SCR_SS	129000
TTM_RAT_ACV	10031

