VERSION	0.00.00	1.03.00
FES_MODE	0
BPM_DEF	133.000	133.000	133.000	133.000
MET_DEF	4	4
RESOLUTION	384
CLK_DEF	384
COMPATIBLE_CODE	MA2

BPM	0	0	133.000

STR	1	0	2
SCR	1	0	2	96	96	5
STR	1	96	5
SV_	1	96	5	96	96	2
STR	1	192	2
SCR	1	192	2	96	96	5
STR	1	288	5
SCR	1	288	5	96	96	7
SCR	1	288	5	96	144	0
SCR	1	288	5	96	192	1
SCR	1	288	5	96	240	2
SV_	1	288	5	96	240	2
STR	3	0	5
SCL	3	0	5	96	96	2
STR	3	96	2
SV_	3	96	2	96	96	5
STR	3	192	5
SCL	3	192	5	96	96	2
STR	3	288	2
SCL	3	288	2	96	96	0
SCL	3	288	2	96	144	7
SCL	3	288	2	96	192	6
SCL	3	288	2	96	240	5
SV_	3	288	2	96	240	5
BRK	4	288	7
STR	5	0	1
SI_	5	0	1	96	48	6
STR	5	96	5
SI_	5	96	5	96	48	2
STR	5	192	1
SI_	5	192	1	96	48	4
STR	5	288	5
SI_	5	288	5	96	48	0
STR	6	0	2
SCR	6	0	2	96	48	5
STR	6	96	7
SCL	6	96	7	96	96	2
STR	7	0	1
SI_	7	0	1	96	48	4
STR	7	0	3
SV_	7	0	3	96	48	0
STR	7	192	4
SV_	7	192	4	96	48	7
STR	7	192	6
SI_	7	192	6	96	48	3
STR	8	0	1
SI_	8	0	1	96	48	4
STR	8	0	3
SV_	8	0	3	96	48	0
STR	8	192	4
SV_	8	192	4	96	48	7
STR	8	192	6
SI_	8	192	6	96	48	3
STR	9	0	6
SI_	9	0	6	96	48	1
STR	9	96	2
SI_	9	96	2	96	48	5
STR	9	192	6
SI_	9	192	6	96	48	3
STR	9	288	2
SI_	9	288	2	96	48	7
STR	10	0	5
SCL	10	0	5	96	48	2
STR	10	96	0
SCR	10	96	0	96	96	5
STR	11	0	4
SV_	11	0	4	96	48	1
STR	11	0	6
SI_	11	0	6	96	48	3
STR	11	192	1
SI_	11	192	1	96	48	4
STR	11	192	3
SV_	11	192	3	96	48	6
STR	12	0	6
SCL	12	0	6	96	48	3
STR	12	96	1
SCL	12	96	1	96	48	6
STR	12	192	4
SCL	12	192	4	96	48	1
BRK	12	288	7
STR	13	0	1
SI_	13	0	1	96	96	5
STR	13	144	6
SI_	13	144	6	96	96	3
STR	13	288	2
SCR	13	288	2	96	96	5
STR	14	48	6
SI_	14	48	6	96	96	2
STR	14	192	0
SI_	14	192	0	96	96	4
STR	15	0	6
SI_	15	0	6	96	96	2
STR	15	144	1
SI_	15	144	1	96	96	4
STR	15	288	5
SCL	15	288	5	96	96	2
STR	16	48	1
SI_	16	48	1	96	96	5
STR	16	192	6
SCR	16	192	6	96	96	1
STR	17	0	2
SI_	17	0	2	96	96	5
STR	17	144	6
SI_	17	144	6	96	96	3
STR	17	288	2
SCR	17	288	2	96	96	5
STR	18	48	6
SI_	18	48	6	96	96	2
STR	18	192	0
SI_	18	192	0	96	96	4
STR	18	288	0
SCL	18	288	0	96	72	5
SCL	18	288	0	96	96	4
SCL	18	288	0	96	120	3
SCL	18	288	0	96	144	2
SCL	18	288	0	96	168	1
STR	19	288	7
SCR	19	288	7	96	72	2
SCR	19	288	7	96	96	3
SCR	19	288	7	96	120	4
SCR	19	288	7	96	144	5
SCR	19	288	7	96	168	6
STR	21	0	2
SLR	21	0	2	96	120	1
STR	21	72	5
SI_	21	72	5	96	48	0
STR	22	0	0
SCL	22	0	0	96	48	5
STR	22	0	1
SCR	22	0	1	96	48	4
STR	22	192	6
SCL	22	192	6	96	48	3
STR	22	192	7
SCR	22	192	7	96	48	2
STR	23	0	5
SLL	23	0	5	96	120	6
STR	23	72	2
SI_	23	72	2	96	48	7
STR	24	0	2
SI_	24	0	2	96	48	5
STR	24	0	6
SI_	24	0	6	96	48	1
STR	24	192	1
SI_	24	192	1	96	48	6
STR	24	192	5
SI_	24	192	5	96	48	2
STR	25	0	1
SI_	25	0	1	96	48	4
STR	25	96	4
SI_	25	96	4	96	48	1
STR	25	192	1
SI_	25	192	1	96	48	4
STR	25	288	4
SI_	25	288	4	96	48	1
STR	26	0	6
SI_	26	0	6	96	48	3
STR	26	96	3
SI_	26	96	3	96	48	6
STR	26	192	6
SI_	26	192	6	96	48	3
STR	26	288	3
SXR	26	288	3	96	192	6
STR	27	240	4
SCR	27	240	4	96	96	7
STR	27	288	4
SXL	27	288	4	96	192	1
STR	29	0	1
SI_	29	0	1	96	192	5
STR	29	192	6
SCR	29	192	6	96	48	1
STR	30	0	6
SI_	30	0	6	96	192	2
STR	30	192	1
SCL	30	192	1	96	48	6
STR	31	0	2
SI_	31	0	2	96	192	6
STR	31	192	5
SCL	31	192	5	96	48	2
STR	32	0	5
SI_	32	0	5	96	192	1
STR	32	192	2
SCR	32	192	2	96	48	5
STR	33	0	7
SXR	33	0	7	96	96	7
STR	33	192	0
SXL	33	192	0	96	96	0
STR	34	0	4
SXL	34	0	4	96	96	4
STR	34	192	3
SXR	34	192	3	96	96	3
STR	35	0	7
SUR	35	0	7	96	96	0
STR	35	288	3
SI_	35	288	3	96	48	1
STR	35	288	4
SI_	35	288	4	96	48	6
STR	36	0	3
SI_	36	0	3	96	48	7
STR	36	0	4
SI_	36	0	4	96	48	0
STR	36	96	3
SCL	36	96	3	96	100	6
SCL	36	96	3	96	120	5
SCL	36	96	3	96	140	4
STR	36	96	4
SCR	36	96	4	96	100	1
SCR	36	96	4	96	120	2
SCR	36	96	4	96	140	3
STR	37	0	1
SI_	37	0	1	96	48	4
STR	37	48	4
SI_	37	48	4	96	48	1
STR	37	96	1
SI_	37	96	1	96	48	7
STR	37	144	7
SCR	37	144	7	96	96	6
STR	38	0	7
SI_	38	0	7	96	48	5
STR	38	48	7
SI_	38	48	7	96	48	3
STR	38	192	0
SI_	38	192	0	96	48	2
STR	38	240	0
SI_	38	240	0	96	48	4
STR	39	0	6
SI_	39	0	6	96	48	3
STR	39	48	3
SI_	39	48	3	96	48	6
STR	39	96	6
SI_	39	96	6	96	48	0
STR	39	144	0
SCL	39	144	0	96	96	1
STR	40	0	0
SI_	40	0	0	96	48	2
STR	40	48	0
SI_	40	48	0	96	48	4
STR	40	192	7
SF_	40	192	7	96	48	3
STR	41	0	2
SCR	41	0	2	96	48	5
STR	41	96	2
SCL	41	96	2	96	96	5
SUL	41	96	2	96	96	5
STR	42	0	5
SCL	42	0	5	96	48	2
STR	42	96	5
SCR	42	96	5	96	96	2
SUR	42	96	5	96	96	2
STR	43	0	2
SI_	43	0	2	96	48	4
STR	43	48	2
SI_	43	48	2	96	48	0
STR	43	192	5
SI_	43	192	5	96	48	3
STR	43	240	5
SCR	43	240	5	96	144	2
STR	44	192	0
SI_	44	192	0	96	48	4
STR	45	0	6
SI_	45	0	6	96	48	3
STR	45	48	3
SI_	45	48	3	96	48	6
STR	45	96	6
SI_	45	96	6	96	48	0
STR	45	144	0
SCL	45	144	0	96	96	1
STR	46	0	1
SXL	46	0	1	96	48	3
STR	46	0	5
SXR	46	0	5	96	48	3
STR	46	192	2
SXL	46	192	2	96	48	4
STR	46	192	6
SXR	46	192	6	96	48	4
STR	47	0	1
SI_	47	0	1	96	48	4
STR	47	48	4
SI_	47	48	4	96	48	1
STR	47	96	1
SI_	47	96	1	96	48	7
STR	47	144	7
SCR	47	144	7	96	96	6
STR	48	0	3
SI_	48	0	3	96	48	1
STR	48	48	3
SI_	48	48	3	96	48	7
STR	48	192	4
SF_	48	192	4	96	48	0
STR	49	0	5
SCL	49	0	5	96	48	2
STR	49	96	5
SCR	49	96	5	96	96	2
SUR	49	96	5	96	96	2
STR	50	0	2
SCR	50	0	2	96	48	5
STR	50	96	2
SCL	50	96	2	96	96	5
SUL	50	96	2	96	96	5
STR	51	0	0
SCR	51	0	0	96	48	3
STR	51	48	7
SCL	51	48	7	96	48	4
STR	51	96	0
SI_	51	96	0	96	48	4
STR	51	144	7
SI_	51	144	7	96	48	3
STR	51	192	0
SI_	51	192	0	96	48	2
STR	51	240	7
SI_	51	240	7	96	48	5
STR	51	288	0
SCR	51	288	0	96	144	7
STR	52	192	4
SI_	52	192	4	96	48	0
BST	52	288	4
SCR	52	288	4	96	48	6
SCR	52	288	4	96	72	7
SCR	52	288	4	96	96	0
SCR	52	288	4	96	120	1
SCR	52	288	4	96	144	2
SCR	52	288	4	96	168	3
STR	53	288	1
SI_	53	288	1	96	48	3
STR	54	0	5
SI_	54	0	5	96	48	7
STR	54	96	3
SI_	54	96	3	96	48	5
STR	54	192	7
SI_	54	192	7	96	48	1
STR	54	288	5
SI_	54	288	5	96	48	7
STR	55	0	1
SI_	55	0	1	96	48	3
STR	55	96	7
SI_	55	96	7	96	48	1
STR	55	192	3
SI_	55	192	3	96	48	5
STR	55	288	1
SI_	55	288	1	96	48	3
STR	56	0	5
SI_	56	0	5	96	48	7
STR	56	96	3
SXR	56	96	3	96	96	3
STR	56	288	6
SI_	56	288	6	96	48	4
STR	57	0	2
SI_	57	0	2	96	48	0
STR	57	96	4
SI_	57	96	4	96	48	2
STR	57	192	0
SI_	57	192	0	96	48	6
STR	57	288	2
SI_	57	288	2	96	48	0
STR	58	0	6
SI_	58	0	6	96	48	4
STR	58	96	0
SI_	58	96	0	96	48	6
STR	58	192	4
SI_	58	192	4	96	48	2
STR	58	288	6
SSL	58	288	6	96	192	2
STR	59	192	0
SI_	59	192	0	96	48	4
STR	60	0	3
SI_	60	0	3	96	672	7
SI_	60	0	3	96	672	7
STR	66	0	2
SCR	66	0	2	96	192	5
STR	67	0	5
SCL	67	0	5	96	192	2
STR	68	0	0
SI_	68	0	0	96	192	4
BRK	68	336	7
STR	69	192	3
SI_	69	192	3	96	48	0
STR	69	192	4
SI_	69	192	4	96	48	7
BRK	69	288	3
BRK	69	288	4
STR	70	0	2
SI_	70	0	2	96	48	5
STR	70	48	5
SI_	70	48	5	96	48	2
STR	70	96	2
SI_	70	96	2	96	48	7
STR	70	144	7
SCR	70	144	7	96	96	6
STR	71	0	4
SUR	71	0	4	96	48	1
STR	71	0	5
SCR	71	0	5	96	48	0
STR	71	192	2
SCL	71	192	2	96	48	7
STR	71	192	3
SUL	71	192	3	96	48	6
STR	72	0	5
SI_	72	0	5	96	48	2
STR	72	48	2
SI_	72	48	2	96	48	5
STR	72	96	5
SI_	72	96	5	96	48	0
STR	72	144	0
SCL	72	144	0	96	96	1
STR	73	0	3
SI_	73	0	3	96	48	0
STR	73	48	4
SI_	73	48	4	96	48	7
STR	73	192	0
SI_	73	192	0	96	48	3
STR	73	240	7
SI_	73	240	7	96	48	4
STR	74	0	2
SCR	74	0	2	96	48	5
STR	74	96	2
SCL	74	96	2	96	32	0
SCL	74	96	2	96	48	7
SCL	74	96	2	96	64	6
SCL	74	96	2	96	80	5
SUL	74	96	2	96	80	5
STR	75	0	5
SCL	75	0	5	96	48	2
STR	75	96	5
SCR	75	96	5	96	32	7
SCR	75	96	5	96	48	0
SCR	75	96	5	96	64	1
SCR	75	96	5	96	80	2
SUR	75	96	5	96	80	2
STR	76	0	1
SCL	76	0	1	96	96	6
STR	76	96	6
SXL	76	96	6	96	192	1
STR	77	0	3
SCR	77	0	3	96	48	7
STR	77	48	7
SCR	77	48	7	96	48	3
STR	77	192	4
SI_	77	192	4	96	48	0
BST	77	288	4
SCR	77	288	4	96	192	6
SCR	77	288	4	96	288	7
SCR	77	288	4	96	384	0
SCR	77	288	4	96	480	1
SCR	77	288	4	96	576	2
SCR	77	288	4	96	672	3
SCR	77	288	4	96	768	4

T_REC_TAP	0
T_REC_BRK	5
T_REC_XTP	0
T_REC_HLD	0
T_REC_XHO	0
T_REC_STR	196
T_REC_BST	2
T_REC_XST	0
T_REC_TTP	0
T_REC_THO	0
T_REC_SLD	242
T_REC_ALL	445
T_NUM_TAP	196
T_NUM_BRK	7
T_NUM_HLD	0
T_NUM_SLD	242
T_NUM_ALL	445
T_JUDGE_TAP	203
T_JUDGE_HLD	0
T_JUDGE_SLD	242
T_JUDGE_ALL	445
TTM_EACHPAIRS	19
TTM_SCR_TAP	98000
TTM_SCR_BRK	18200
TTM_SCR_HLD	0
TTM_SCR_SLD	363000
TTM_SCR_ALL	479200
TTM_SCR_S	464150
TTM_SCR_SS	478500
TTM_RAT_ACV	10014

