VERSION	0.00.00	1.03.00
FES_MODE	0
BPM_DEF	133.000	133.000	133.000	133.000
MET_DEF	4	4
RESOLUTION	384
CLK_DEF	380
COMPATIBLE_CODE	MA2

BPM	0	0	133.000

STR	1	0	0
SI_	1	0	0	96	480	3
STR	3	0	7
SI_	3	0	7	96	480	4
BRK	4	288	1
BRK	4	288	6
TAP	5	0	0
TAP	5	96	1
TAP	5	96	7
TAP	5	192	7
TAP	5	288	0
TAP	5	288	6
STR	6	0	1
SCL	6	0	1	96	96	6
TAP	6	288	3
TAP	6	288	5
TAP	7	0	3
TAP	7	96	2
TAP	7	96	4
TAP	7	192	4
TAP	7	288	3
TAP	7	288	5
STR	8	0	6
SCL	8	0	6	96	96	3
TAP	8	240	1
TAP	8	288	1
TAP	9	0	7
TAP	9	96	0
TAP	9	96	6
TAP	9	192	0
TAP	9	288	1
TAP	9	288	7
STR	10	0	6
SCR	10	0	6	96	96	1
TAP	10	288	2
TAP	10	288	4
TAP	11	0	4
TAP	11	96	3
TAP	11	96	5
TAP	11	192	3
TAP	11	288	2
TAP	11	288	4
STR	12	0	1
SCR	12	0	1	96	96	4
BRK	12	240	6
BRK	12	288	6
HLD	13	0	5	480
TAP	13	96	4
TAP	13	288	4
TAP	14	96	4
TAP	14	192	4
TAP	14	288	3
TAP	14	288	5
HLD	15	0	2	480
TAP	15	96	3
TAP	15	288	3
TAP	16	96	3
TAP	16	192	3
TAP	16	288	2
TAP	16	288	4
HLD	17	0	5	480
TAP	17	96	4
TAP	17	288	4
STR	18	96	4
SXL	18	96	4	96	96	6
SXR	18	96	4	96	96	2
STR	19	0	3
SUR	19	0	3	96	192	4
STR	20	0	7
SUR	20	0	7	96	192	0
HLD	21	0	2	72
HLD	21	0	3	72
TAP	21	144	1
TAP	21	144	4
TAP	21	288	4
TAP	22	96	4
TAP	22	192	3
TAP	22	240	4
TAP	22	288	3
HLD	23	0	4	72
HLD	23	0	5	72
TAP	23	144	3
TAP	23	144	6
TAP	23	288	3
TAP	24	96	3
TAP	24	192	4
TAP	24	240	3
TAP	24	288	4
TAP	25	0	2
TAP	25	96	2
TAP	25	96	3
TAP	25	192	5
TAP	25	288	3
TAP	25	288	5
TAP	26	0	2
TAP	26	96	1
TAP	26	96	4
TAP	26	192	6
TAP	26	288	3
TAP	26	288	7
STR	27	0	0
SCR	27	0	0	96	96	3
STR	27	0	1
SCL	27	0	1	96	96	6
TAP	27	288	4
TAP	27	288	5
STR	28	0	6
SCR	28	0	6	96	96	1
STR	28	0	7
SCL	28	0	7	96	96	4
TAP	28	288	2
TAP	28	288	3
HLD	29	0	2	192
TAP	29	144	3
TAP	29	192	3
TAP	29	288	1
TAP	29	288	7
HLD	30	0	5	192
TAP	30	144	4
TAP	30	192	4
TAP	30	288	0
TAP	30	288	6
HLD	31	0	1	192
TAP	31	144	3
TAP	31	192	3
TAP	31	288	2
TAP	31	288	7
HLD	32	0	6	192
TAP	32	144	4
TAP	32	192	4
TAP	32	288	0
TAP	32	288	5
HLD	33	0	2	288
TAP	33	96	4
TAP	33	192	5
TAP	33	288	6
HLD	34	0	7	288
TAP	34	96	3
TAP	34	192	2
TAP	34	288	1
HLD	35	0	0	96
HLD	35	0	6	96
HLD	35	144	2	96
HLD	35	144	7	96
HLD	35	288	0	96
HLD	35	288	5	96
HLD	36	48	1	96
HLD	36	48	7	96
TAP	36	192	0
TAP	36	240	7
BRK	36	288	1
BRK	36	288	6
TAP	37	0	2
TAP	37	48	3
TAP	37	96	2
TAP	37	96	4
TAP	37	192	5
TAP	37	240	4
TAP	37	288	3
TAP	37	288	5
TAP	38	0	3
TAP	38	48	4
TAP	38	96	2
TAP	38	144	5
TAP	38	192	1
TAP	38	192	6
TAP	38	288	0
TAP	38	288	7
TAP	39	0	5
TAP	39	48	4
TAP	39	96	3
TAP	39	96	5
TAP	39	192	2
TAP	39	240	3
TAP	39	288	2
TAP	39	288	4
TAP	40	0	0
TAP	40	0	1
TAP	40	96	2
TAP	40	96	3
TAP	40	192	4
TAP	40	192	5
TAP	40	288	6
TAP	40	288	7
STR	41	0	0
SCR	41	0	0	96	96	3
STR	41	0	4
SUL	41	0	4	96	96	7
TAP	41	288	3
TAP	41	288	7
STR	42	0	3
SUR	42	0	3	96	96	0
STR	42	0	7
SCL	42	0	7	96	96	4
TAP	42	288	0
TAP	42	288	4
HLD	43	0	2	48
HLD	43	0	4	48
HLD	43	96	3	48
HLD	43	96	5	48
TAP	43	192	4
STR	43	240	4
SXL	43	240	4	96	240	4
SXR	43	240	4	96	240	4
BRK	44	288	1
BRK	44	288	6
TAP	45	0	5
TAP	45	48	4
TAP	45	96	3
TAP	45	96	6
TAP	45	192	2
TAP	45	240	3
TAP	45	288	1
TAP	45	288	4
TAP	46	0	7
TAP	46	48	0
TAP	46	96	6
TAP	46	144	1
TAP	46	192	2
TAP	46	192	5
TAP	46	288	3
TAP	46	288	4
TAP	47	0	2
TAP	47	48	3
TAP	47	96	1
TAP	47	96	4
TAP	47	192	5
TAP	47	240	4
TAP	47	288	3
TAP	47	288	6
STR	48	0	3
SF_	48	0	3	96	96	7
TAP	48	288	1
TAP	48	288	5
STR	49	0	1
SCR	49	0	1	96	96	4
STR	49	0	5
SUL	49	0	5	96	96	0
TAP	49	288	2
TAP	49	288	6
STR	50	0	2
SUR	50	0	2	96	96	7
STR	50	0	6
SCL	50	0	6	96	96	3
TAP	50	288	0
TAP	50	288	4
STR	51	0	0
SXL	51	0	0	96	192	3
STR	51	0	4
SXL	51	0	4	96	192	7
BRK	52	0	1
BRK	52	0	6
HLD	53	0	1	96
TAP	53	96	0
HLD	53	192	6	96
TAP	53	288	7
HLD	54	0	1	96
TAP	54	96	0
TAP	54	192	6
TAP	54	240	7
TAP	54	288	6
TAP	55	0	5
TAP	55	96	4
TAP	55	96	6
TAP	55	192	2
TAP	55	288	1
TAP	55	288	3
STR	56	0	2
SUR	56	0	2	96	192	4
HLD	57	0	6	72
TAP	57	72	7
HLD	57	144	0	144
TAP	57	144	5
TAP	57	240	7
TAP	57	288	7
HLD	58	0	1	72
TAP	58	72	0
TAP	58	144	2
HLD	58	144	7	144
TAP	58	240	0
TAP	58	288	0
HLD	59	0	2	72
HLD	59	0	7	72
HLD	59	144	1	72
HLD	59	144	4	72
TAP	59	288	3
STR	59	288	5
SCR	59	288	5	96	576	2
HLD	66	0	3	288
TAP	66	96	2
TAP	66	192	2
TAP	66	288	2
HLD	67	0	4	288
TAP	67	96	5
TAP	67	192	5
TAP	67	288	5
TAP	68	0	3
TAP	68	0	5
TAP	68	96	2
TAP	68	96	4
TAP	68	192	2
TAP	68	192	5
STR	68	240	2
SXR	68	240	2	96	240	4
STR	68	240	5
SXL	68	240	5	96	240	3
BRK	69	288	1
BRK	69	288	6
TAP	70	0	5
TAP	70	48	4
TAP	70	96	3
TAP	70	96	6
TAP	70	192	2
TAP	70	240	3
TAP	70	288	1
TAP	70	288	4
STR	71	0	1
SCL	71	0	1	96	96	6
STR	71	0	3
SXL	71	0	3	96	96	5
TAP	71	288	0
TAP	71	288	7
TAP	72	0	2
TAP	72	48	3
TAP	72	96	1
TAP	72	96	4
TAP	72	192	5
TAP	72	240	4
TAP	72	288	3
TAP	72	288	6
STR	73	0	5
SCL	73	0	5	96	96	2
STR	73	0	7
SXL	73	0	7	96	96	1
TAP	73	288	0
TAP	73	288	7
TAP	74	0	1
TAP	74	0	5
STR	74	48	1
SI_	74	48	1	96	72	4
STR	74	48	5
SI_	74	48	5	96	72	0
TAP	74	288	3
TAP	74	288	7
TAP	75	0	2
TAP	75	0	6
STR	75	48	2
SI_	75	48	2	96	72	7
STR	75	48	6
SI_	75	48	6	96	72	3
TAP	75	288	0
TAP	75	288	4
TAP	76	0	1
TAP	76	0	5
STR	76	48	1
SXL	76	48	1	96	168	4
STR	76	48	5
SXL	76	48	5	96	168	0
TAP	77	0	3
TAP	77	0	4
TAP	77	96	2
TAP	77	96	5
TAP	77	192	1
TAP	77	192	6
TAP	77	288	0
TAP	77	288	7
BST	78	0	0
SCR	78	0	0	96	480	3
BST	78	0	7
SCL	78	0	7	96	480	4

T_REC_TAP	236
T_REC_BRK	12
T_REC_XTP	0
T_REC_HLD	38
T_REC_XHO	0
T_REC_STR	39
T_REC_BST	2
T_REC_XST	0
T_REC_TTP	0
T_REC_THO	0
T_REC_SLD	43
T_REC_ALL	370
T_NUM_TAP	275
T_NUM_BRK	14
T_NUM_HLD	38
T_NUM_SLD	43
T_NUM_ALL	370
T_JUDGE_TAP	289
T_JUDGE_HLD	122
T_JUDGE_SLD	43
T_JUDGE_ALL	454
TTM_EACHPAIRS	97
TTM_SCR_TAP	137500
TTM_SCR_BRK	36400
TTM_SCR_HLD	38000
TTM_SCR_SLD	64500
TTM_SCR_ALL	276400
TTM_SCR_S	266750
TTM_SCR_SS	275000
TTM_RAT_ACV	10050

