VERSION	0.00.00	1.03.00
FES_MODE	0
BPM_DEF	133.000	133.000	133.000	133.000
MET_DEF	4	4
RESOLUTION	384
CLK_DEF	384
COMPATIBLE_CODE	MA2

BPM	0	0	133.000

TAP	1	0	3
TAP	1	96	3
TAP	1	192	3
TAP	1	288	3
TAP	2	0	4
TAP	2	96	4
TAP	2	192	4
TAP	2	288	4
TAP	3	0	3
TAP	3	96	2
TAP	3	96	3
TAP	3	192	3
TAP	3	192	4
STR	3	288	4
SUR	3	288	4	96	192	3
STR	3	288	5
SCR	3	288	5	96	192	2
BRK	4	288	0
BRK	4	288	7
TAP	5	0	5
TAP	5	96	4
TAP	5	192	5
TAP	5	288	3
TAP	5	288	6
TAP	6	0	7
STR	6	96	0
SCR	6	96	0	96	96	3
TAP	7	0	2
TAP	7	96	3
TAP	7	192	2
TAP	7	288	1
TAP	7	288	4
TAP	8	0	0
STR	8	96	7
SCL	8	96	7	96	96	4
TAP	9	0	6
TAP	9	96	7
TAP	9	192	6
TAP	9	288	0
TAP	9	288	5
TAP	10	0	1
STR	10	96	2
SCL	10	96	2	96	96	7
TAP	11	0	1
TAP	11	96	0
TAP	11	192	1
TAP	11	288	2
TAP	11	288	7
TAP	12	0	6
STR	12	96	5
SCR	12	96	5	96	96	0
HLD	13	0	2	288
TAP	13	96	3
TAP	13	288	3
TAP	14	0	4
TAP	14	96	4
TAP	14	192	3
TAP	14	288	3
HLD	15	0	5	288
TAP	15	96	4
TAP	15	288	4
TAP	16	0	3
TAP	16	96	4
TAP	16	192	2
TAP	16	192	5
HLD	17	0	1	288
TAP	17	96	3
TAP	17	288	3
TAP	18	0	2
TAP	18	96	3
TAP	18	192	4
TAP	18	288	5
HLD	19	0	6	288
TAP	19	96	4
TAP	19	288	4
STR	20	0	5
SCR	20	0	5	96	192	2
STR	21	0	0
SCL	21	0	0	96	192	5
SCR	21	0	0	96	192	3
TAP	22	0	4
TAP	22	0	5
TAP	22	96	3
TAP	22	96	4
HLD	22	192	2	96
TAP	22	192	3
TAP	22	288	0
STR	23	0	7
SCL	23	0	7	96	192	4
SCR	23	0	7	96	192	2
TAP	24	0	2
TAP	24	0	3
TAP	24	96	3
TAP	24	96	4
TAP	24	192	4
HLD	24	192	5	96
TAP	24	288	7
TAP	25	0	2
TAP	25	96	3
TAP	25	192	2
TAP	25	288	1
TAP	25	288	4
TAP	26	0	5
TAP	26	96	4
TAP	26	192	5
TAP	26	288	3
TAP	26	288	6
TAP	27	0	2
TAP	27	96	1
TAP	27	96	3
TAP	27	192	0
TAP	27	192	4
TAP	28	0	5
TAP	28	96	4
TAP	28	96	6
TAP	28	192	3
TAP	28	192	7
HLD	29	0	2	192
TAP	29	192	3
TAP	29	288	3
TAP	29	288	4
HLD	30	0	5	192
TAP	30	192	4
TAP	30	288	3
TAP	30	288	4
HLD	31	0	2	192
TAP	31	192	3
TAP	31	288	1
TAP	31	288	4
HLD	32	0	5	192
TAP	32	192	4
TAP	32	288	3
TAP	32	288	6
TAP	33	0	2
TAP	33	96	1
TAP	33	192	0
TAP	33	288	7
TAP	34	0	6
TAP	34	96	5
TAP	34	192	3
TAP	34	192	4
TAP	34	288	1
TAP	34	288	6
HLD	35	0	0	96
HLD	35	0	7	96
HLD	35	144	1	96
HLD	35	144	6	96
HLD	35	288	2	96
HLD	35	288	5	96
HLD	36	48	3	96
HLD	36	48	4	96
TAP	36	192	3
TAP	36	192	4
BRK	36	288	1
BRK	36	288	6
TAP	37	0	0
TAP	37	96	1
TAP	37	192	2
TAP	37	288	1
TAP	37	288	3
TAP	38	0	7
TAP	38	96	6
TAP	38	192	5
TAP	38	288	4
TAP	38	288	6
TAP	39	0	3
TAP	39	0	5
TAP	39	96	2
TAP	39	96	4
HLD	39	192	0	96
HLD	39	192	1	96
TAP	40	0	2
TAP	40	0	4
TAP	40	96	3
TAP	40	96	5
HLD	40	192	6	96
HLD	40	192	7	96
TAP	41	0	3
TAP	41	0	4
TAP	41	96	1
STR	41	96	3
SI_	41	96	3	96	96	7
TAP	42	0	3
TAP	42	0	4
STR	42	96	4
SI_	42	96	4	96	96	0
TAP	42	96	6
TAP	43	0	1
TAP	43	0	7
TAP	43	96	2
TAP	43	96	6
TAP	43	192	3
TAP	43	192	5
TAP	43	288	2
TAP	43	288	4
TAP	44	0	1
TAP	44	0	5
TAP	44	96	0
TAP	44	96	6
TAP	44	192	1
TAP	44	192	7
BRK	44	288	0
TAP	45	0	7
TAP	45	96	6
TAP	45	192	5
TAP	45	288	4
TAP	45	288	6
TAP	46	0	0
TAP	46	96	1
TAP	46	192	2
TAP	46	288	1
TAP	46	288	3
TAP	47	0	2
TAP	47	0	4
TAP	47	96	3
TAP	47	96	5
TAP	47	192	6
TAP	47	192	7
TAP	47	288	0
TAP	47	288	4
TAP	48	0	3
TAP	48	0	5
TAP	48	96	2
TAP	48	96	4
TAP	48	192	0
TAP	48	192	1
TAP	48	288	3
TAP	48	288	7
TAP	49	0	2
TAP	49	0	4
STR	49	96	4
SI_	49	96	4	96	96	0
TAP	49	96	6
TAP	50	0	3
TAP	50	0	5
TAP	50	96	1
STR	50	96	3
SI_	50	96	3	96	96	7
TAP	51	0	2
TAP	51	0	4
STR	51	96	4
SI_	51	96	4	96	96	0
TAP	51	96	6
STR	52	0	1
SCR	52	0	1	96	96	4
STR	52	0	7
SCL	52	0	7	96	96	4
BRK	52	288	0
BRK	52	288	4
TAP	53	0	5
TAP	53	96	4
TAP	53	192	3
TAP	53	192	6
TAP	54	0	2
TAP	54	96	3
TAP	54	192	1
TAP	54	192	4
TAP	55	0	6
TAP	55	96	6
TAP	55	192	7
TAP	55	288	7
TAP	56	0	0
TAP	56	96	0
TAP	56	192	1
TAP	56	192	6
TAP	57	0	2
TAP	57	96	3
TAP	57	192	1
TAP	57	192	4
TAP	58	0	5
TAP	58	96	4
TAP	58	192	3
TAP	58	192	6
TAP	59	0	1
TAP	59	96	0
TAP	59	192	7
TAP	59	288	6
STR	60	0	0
SXL	60	0	0	96	480	3
STR	60	0	7
SXR	60	0	7	96	480	4
HLD	66	0	2	192
HLD	66	192	3	192
HLD	67	0	4	192
HLD	67	192	5	192
TAP	68	0	2
TAP	68	96	3
STR	68	192	4
SCR	68	192	4	96	288	3
BRK	69	288	0
BRK	69	288	7
TAP	70	0	6
TAP	70	96	5
TAP	70	96	7
TAP	70	192	4
TAP	70	288	3
TAP	70	288	5
TAP	71	0	1
TAP	71	96	0
TAP	71	96	2
TAP	71	192	3
TAP	71	288	2
TAP	71	288	4
TAP	72	0	3
TAP	72	0	5
TAP	72	96	2
TAP	72	96	4
TAP	72	192	0
TAP	72	192	1
TAP	72	288	3
TAP	72	288	7
TAP	73	0	2
TAP	73	0	4
TAP	73	96	3
TAP	73	96	5
TAP	73	192	6
TAP	73	192	7
TAP	73	288	0
TAP	73	288	4
TAP	74	0	3
TAP	74	0	5
TAP	74	96	1
STR	74	96	3
SI_	74	96	3	96	96	7
TAP	75	0	2
TAP	75	0	4
STR	75	96	4
SI_	75	96	4	96	96	0
TAP	75	96	6
TAP	76	0	3
TAP	76	0	5
TAP	76	96	1
STR	76	96	3
SI_	76	96	3	96	96	7
STR	77	0	0
SCR	77	0	0	96	96	3
STR	77	0	6
SCL	77	0	6	96	96	3
BST	77	288	2
SLL	77	288	2	96	672	3
BST	77	288	4
SLR	77	288	4	96	672	3

T_REC_TAP	253
T_REC_BRK	9
T_REC_XTP	0
T_REC_HLD	26
T_REC_XHO	0
T_REC_STR	24
T_REC_BST	2
T_REC_XST	0
T_REC_TTP	0
T_REC_THO	0
T_REC_SLD	28
T_REC_ALL	342
T_NUM_TAP	277
T_NUM_BRK	11
T_NUM_HLD	26
T_NUM_SLD	28
T_NUM_ALL	342
T_JUDGE_TAP	288
T_JUDGE_HLD	84
T_JUDGE_SLD	28
T_JUDGE_ALL	400
TTM_EACHPAIRS	97
TTM_SCR_TAP	138500
TTM_SCR_BRK	28600
TTM_SCR_HLD	26000
TTM_SCR_SLD	42000
TTM_SCR_ALL	235100
TTM_SCR_S	227000
TTM_SCR_SS	234000
TTM_RAT_ACV	10047

