VERSION	0.00.00	1.03.00
FES_MODE	0
BPM_DEF	133.000	133.000	133.000	133.000
MET_DEF	4	4
RESOLUTION	384
CLK_DEF	384
COMPATIBLE_CODE	MA2

BPM	0	0	133.000

TAP	5	0	0
TAP	5	192	0
TAP	6	0	0
STR	7	0	0
SI_	7	0	0	96	288	4
TAP	9	0	7
TAP	9	192	7
TAP	10	0	7
STR	11	0	7
SI_	11	0	7	96	288	3
TAP	13	0	2
TAP	13	192	2
TAP	14	0	2
TAP	15	0	3
TAP	15	192	3
TAP	16	0	3
TAP	16	0	4
TAP	17	0	4
TAP	17	192	4
TAP	18	0	4
STR	19	0	5
SI_	19	0	5	96	288	1
TAP	21	0	0
TAP	21	192	0
TAP	22	0	0
TAP	22	0	1
TAP	23	0	7
TAP	23	192	7
TAP	24	0	6
TAP	24	0	7
TAP	25	0	5
TAP	25	192	5
TAP	26	0	5
HLD	27	0	4	192
HLD	27	0	5	192
HLD	28	0	2	192
HLD	28	0	3	192
TAP	29	0	4
TAP	29	192	4
TAP	30	0	3
TAP	30	0	5
TAP	31	0	3
TAP	31	192	3
TAP	32	0	2
TAP	32	0	4
TAP	33	0	4
TAP	33	192	4
TAP	34	0	5
TAP	34	192	5
TAP	35	0	6
TAP	35	192	6
BRK	36	0	0
BRK	36	0	7
TAP	37	0	0
TAP	37	96	0
TAP	37	192	0
TAP	38	0	0
TAP	38	96	0
TAP	38	192	0
TAP	39	0	1
TAP	39	96	1
TAP	39	192	1
TAP	40	0	1
TAP	40	96	1
TAP	40	192	1
TAP	41	0	2
TAP	41	0	3
TAP	41	192	2
TAP	41	192	3
TAP	42	0	4
TAP	42	0	5
TAP	42	192	4
TAP	42	192	5
TAP	43	0	3
TAP	43	96	4
TAP	43	192	3
HLD	44	0	3	192
HLD	44	0	4	192
TAP	45	0	4
TAP	45	96	4
TAP	45	192	4
TAP	46	0	4
TAP	46	96	4
TAP	46	192	4
TAP	47	0	5
TAP	47	96	5
TAP	47	192	5
TAP	48	0	5
TAP	48	96	5
TAP	48	192	5
TAP	49	0	6
TAP	49	0	7
TAP	49	192	6
TAP	49	192	7
TAP	50	0	0
TAP	50	0	1
TAP	50	192	0
TAP	50	192	1
TAP	51	0	0
TAP	51	0	7
TAP	51	192	0
TAP	51	192	7
BRK	52	0	1
BRK	52	0	6
STR	53	0	0
SI_	53	0	0	96	288	4
STR	55	0	7
SI_	55	0	7	96	288	3
HLD	57	0	0	192
HLD	57	0	1	192
HLD	58	0	6	192
HLD	58	0	7	192
STR	59	0	0
SI_	59	0	0	96	288	3
TAP	66	0	3
TAP	66	192	3
TAP	67	0	4
TAP	67	192	4
HLD	68	0	3	336
HLD	68	0	4	336
TAP	70	0	4
TAP	70	96	4
TAP	70	192	4
TAP	71	0	5
TAP	71	96	5
TAP	71	192	4
TAP	71	192	5
TAP	72	0	6
TAP	72	96	6
TAP	72	192	6
TAP	73	0	7
TAP	73	96	7
TAP	73	192	0
TAP	73	192	7
TAP	74	0	0
TAP	74	0	1
TAP	74	192	0
TAP	74	192	1
TAP	75	0	6
TAP	75	0	7
TAP	75	192	6
TAP	75	192	7
TAP	76	0	0
TAP	76	0	7
TAP	76	192	0
TAP	76	192	7
BRK	77	0	1
BRK	77	0	6
STR	78	0	0
SI_	78	0	0	96	480	3
STR	78	0	7
SI_	78	0	7	96	480	4

T_REC_TAP	118
T_REC_BRK	6
T_REC_XTP	0
T_REC_HLD	12
T_REC_XHO	0
T_REC_STR	8
T_REC_BST	0
T_REC_XST	0
T_REC_TTP	0
T_REC_THO	0
T_REC_SLD	8
T_REC_ALL	152
T_NUM_TAP	126
T_NUM_BRK	6
T_NUM_HLD	12
T_NUM_SLD	8
T_NUM_ALL	152
T_JUDGE_TAP	132
T_JUDGE_HLD	54
T_JUDGE_SLD	8
T_JUDGE_ALL	194
TTM_EACHPAIRS	33
TTM_SCR_TAP	63000
TTM_SCR_BRK	15600
TTM_SCR_HLD	12000
TTM_SCR_SLD	12000
TTM_SCR_ALL	102600
TTM_SCR_S	98950
TTM_SCR_SS	102000
TTM_RAT_ACV	10058

