VERSION	0.00.00	1.03.00
FES_MODE	0
BPM_DEF	150.000	150.000	225.000	 75.000
MET_DEF	4	4
RESOLUTION	384
CLK_DEF	384
COMPATIBLE_CODE	MA2

BPM	0	0	150.000
BPM	18	96	200.000
BPM	24	96	150.000
BPM	47	192	 75.000
BPM	51	0	150.000
BPM	71	288	225.000
MET	0	0	4	4
MET	6	0	8	6
MET	13	192	4	3
MET	15	288	4	4
MET	16	288	4	3
MET	18	96	4	3
MET	24	96	8	6
MET	29	192	4	4
MET	30	192	8	6
MET	35	0	16	12
MET	38	0	8	5
MET	39	96	16	12
MET	40	288	8	6
MET	43	288	4	3
MET	44	192	4	4
MET	47	192	4	2
MET	51	0	4	4
MET	52	0	8	15
MET	67	0	8	6
MET	68	192	4	3
MET	70	288	4	4
MET	71	288	4	3
MET	77	288	4	4
MET	79	288	4	6
MET	85	288	8	6

TAP	2	0	0
TAP	2	0	7
TAP	2	6	1
TAP	2	6	6
TAP	2	12	2
HLD	2	12	5	516
TAP	2	18	3
TAP	2	24	4
TAP	2	192	4
HLD	3	0	4	96
HLD	3	192	3	96
HLD	3	192	5	144
HLD	4	0	2	96
HLD	4	0	5	144
HLD	4	192	1	96
HLD	4	192	5	144
TAP	5	0	0
HLD	5	0	5	192
TAP	5	96	2
TAP	5	192	3
TAP	5	208	5
TAP	5	224	3
TAP	5	240	5
TAP	5	256	3
TAP	5	272	5
TAP	5	288	2
TAP	5	304	4
TAP	5	320	2
TAP	5	336	4
TAP	5	352	2
TAP	5	368	4
STR	6	0	2
SCR	6	0	2	96	48	5
TAP	6	48	2
TAP	6	72	3
TAP	6	96	2
TAP	6	144	7
TAP	6	192	5
TAP	6	216	4
TAP	6	240	6
TAP	6	264	4
STR	6	288	5
SCL	6	288	5	96	48	2
TAP	6	336	5
TAP	6	360	4
TAP	7	0	5
TAP	7	48	0
TAP	7	96	2
TAP	7	120	3
TAP	7	144	1
TAP	7	168	3
STR	7	192	2
SCL	7	192	2	96	48	7
TAP	7	240	2
TAP	7	264	3
TAP	7	288	2
TAP	7	336	4
TAP	8	0	5
TAP	8	24	4
TAP	8	48	6
TAP	8	72	4
STR	8	96	5
SCR	8	96	5	96	48	0
TAP	8	144	5
TAP	8	168	4
TAP	8	192	5
TAP	8	240	3
TAP	8	288	2
TAP	8	312	3
TAP	8	336	1
TAP	8	360	3
STR	9	0	2
SCR	9	0	2	96	48	5
TAP	9	48	1
TAP	9	72	3
TAP	9	96	2
TAP	9	144	7
TAP	9	192	5
TAP	9	216	4
TAP	9	240	6
TAP	9	264	4
STR	9	288	5
SCL	9	288	5	96	48	2
TAP	9	336	6
TAP	9	360	4
TAP	10	0	5
TAP	10	48	0
TAP	10	96	2
TAP	10	120	3
TAP	10	144	1
TAP	10	168	3
STR	10	192	2
SCL	10	192	2	96	48	7
TAP	10	240	1
TAP	10	264	3
TAP	10	288	2
TAP	10	336	4
TAP	11	0	5
TAP	11	24	4
TAP	11	48	6
TAP	11	72	4
STR	11	96	5
SCR	11	96	5	96	48	0
TAP	11	144	6
TAP	11	168	4
TAP	11	192	5
TAP	11	240	3
TAP	11	288	2
TAP	11	312	3
TAP	11	336	1
TAP	11	360	3
STR	12	0	0
SCR	12	0	0	96	48	3
TAP	12	48	2
TAP	12	96	6
STR	12	144	7
SCL	12	144	7	96	48	4
TAP	12	192	5
STR	12	240	0
SCR	12	240	0	96	48	3
TAP	12	288	2
TAP	12	336	6
STR	13	0	4
SCR	13	0	4	96	48	7
TAP	13	48	5
TAP	13	96	2
TAP	13	192	2
TAP	13	208	4
TAP	13	224	3
TAP	13	240	4
TAP	13	256	3
TAP	13	272	4
TAP	13	288	1
TAP	13	304	4
TAP	13	320	3
TAP	13	336	4
TAP	13	352	3
TAP	13	368	4
TAP	14	0	2
TAP	14	16	4
TAP	14	32	3
TAP	14	48	4
TAP	14	64	3
TAP	14	80	4
TAP	14	96	3
TAP	14	120	2
TAP	14	144	1
TAP	14	168	0
TAP	14	192	7
TAP	14	216	6
TAP	14	240	5
TAP	14	264	4
HLD	14	288	3	48
BRK	15	0	7
BRK	15	288	3
TAP	16	288	3
TAP	16	360	3
TAP	17	48	3
TAP	17	120	3
TAP	17	192	3
TAP	17	208	4
TAP	17	224	3
TAP	17	240	4
TAP	17	256	3
TAP	17	272	4
TAP	17	288	3
TAP	17	300	2
TAP	17	312	1
TAP	17	324	0
TAP	17	336	7
TAP	17	348	6
TAP	17	360	5
TAP	17	372	4
TAP	18	0	3
TAP	18	96	2
TAP	18	96	5
HLD	18	192	3	96
HLD	18	288	4	48
HLD	18	336	2	48
HLD	19	0	3	48
HLD	19	48	1	48
HLD	19	96	7	96
TAP	19	192	4
TAP	19	240	3
HLD	19	288	2	96
HLD	20	0	3	48
HLD	20	48	1	48
HLD	20	96	2	48
HLD	20	144	0	48
TAP	20	192	3
TAP	20	216	2
TAP	20	240	4
TAP	20	264	3
HLD	20	288	5	48
HLD	20	336	3	48
TAP	21	0	4
TAP	21	48	4
HLD	21	96	3	96
HLD	21	192	5	48
HLD	21	240	4	48
HLD	21	288	7	48
HLD	21	336	0	48
TAP	22	0	5
TAP	22	48	5
TAP	22	72	4
STR	22	96	3
SCL	22	96	3	96	48	0
TAP	22	192	7
TAP	22	240	7
TAP	22	288	7
TAP	22	336	5
TAP	23	0	3
TAP	23	48	1
TAP	23	96	7
TAP	23	144	5
TAP	23	192	2
TAP	23	216	3
TAP	23	240	1
TAP	23	264	5
TAP	23	288	4
TAP	23	312	6
TAP	23	336	2
TAP	23	360	4
BRK	24	0	0
TAP	24	96	1
STR	24	96	4
SCR	24	96	4	96	48	7
TAP	24	144	5
TAP	24	192	3
TAP	24	240	0
TAP	24	288	5
TAP	24	304	4
TAP	24	320	5
TAP	24	336	6
TAP	24	352	5
STR	25	0	3
SCL	25	0	3	96	48	0
TAP	25	0	6
TAP	25	48	2
TAP	25	96	4
TAP	25	144	7
TAP	25	192	2
TAP	25	208	3
TAP	25	224	2
TAP	25	240	1
TAP	25	256	2
TAP	25	288	1
STR	25	288	4
SCR	25	288	4	96	48	7
TAP	25	336	5
TAP	26	0	3
TAP	26	48	0
TAP	26	96	5
TAP	26	112	4
TAP	26	128	5
TAP	26	144	6
TAP	26	160	5
TAP	26	192	3
TAP	26	192	6
TAP	26	224	4
TAP	26	256	2
TAP	26	288	2
TAP	26	304	4
TAP	26	320	3
TAP	26	336	5
TAP	26	352	4
TAP	26	368	6
TAP	27	0	3
TAP	27	16	5
TAP	27	32	2
TAP	27	48	4
TAP	27	64	1
TAP	27	80	3
STR	27	96	0
SI_	27	96	0	96	48	3
TAP	27	144	6
TAP	27	192	4
STR	27	240	7
SI_	27	240	7	96	48	4
TAP	27	288	1
TAP	27	336	3
STR	28	0	0
SI_	28	0	0	96	48	4
TAP	28	48	6
TAP	28	96	3
STR	28	144	7
SI_	28	144	7	96	48	3
TAP	28	192	1
TAP	28	240	4
STR	28	288	0
SI_	28	288	0	96	48	5
TAP	28	336	6
TAP	29	0	3
TAP	29	48	7
TAP	29	96	1
STR	29	144	0
SI_	29	144	0	96	48	4
STR	29	144	7
SI_	29	144	7	96	48	3
TAP	29	192	1
TAP	29	192	6
STR	29	240	0
SI_	29	240	0	96	48	2
STR	29	240	7
SI_	29	240	7	96	48	5
STR	29	336	0
SI_	29	336	0	96	48	4
STR	29	336	7
SI_	29	336	7	96	48	3
TAP	30	48	0
TAP	30	48	7
TAP	30	144	1
TAP	30	144	6
STR	30	192	7
SI_	30	192	7	96	48	4
TAP	30	240	1
TAP	30	288	2
TAP	30	312	1
STR	30	336	0
SI_	30	336	0	96	48	3
TAP	31	0	6
TAP	31	48	5
TAP	31	72	6
STR	31	96	7
SI_	31	96	7	96	48	3
TAP	31	144	1
TAP	31	192	2
TAP	31	216	1
STR	31	240	0
SI_	31	240	0	96	48	4
TAP	31	288	6
TAP	31	336	3
TAP	32	0	7
TAP	32	72	6
TAP	32	96	3
TAP	32	144	5
TAP	32	192	3
TAP	32	216	4
TAP	32	288	3
TAP	32	288	4
TAP	32	360	2
TAP	33	0	4
TAP	33	48	1
TAP	33	96	4
TAP	33	120	1
TAP	33	132	2
TAP	33	144	3
TAP	33	156	4
TAP	33	168	5
TAP	33	180	6
TAP	33	192	7
TAP	33	264	6
TAP	33	336	5
TAP	34	24	0
TAP	34	48	0
TAP	34	48	7
TAP	34	96	0
TAP	34	96	7
TAP	34	144	1
TAP	34	144	6
STR	34	192	2
SCL	34	192	2	96	48	0
STR	34	192	5
SCR	34	192	5	96	48	7
TAP	34	240	3
TAP	34	240	4
TAP	35	0	0
TAP	35	0	7
TAP	35	8	1
TAP	35	8	6
TAP	35	16	2
TAP	35	16	5
HLD	35	24	3	48
HLD	35	24	4	48
TAP	35	80	2
TAP	35	80	5
STR	35	88	1
SI_	35	88	1	96	56	5
TAP	35	88	6
HLD	35	96	0	48
HLD	35	96	7	48
TAP	35	152	1
TAP	35	152	6
TAP	35	160	2
TAP	35	160	5
TAP	35	168	3
TAP	35	168	4
TAP	35	288	6
TAP	35	288	7
TAP	35	296	0
TAP	35	296	5
TAP	35	304	1
TAP	35	304	4
HLD	35	312	2	48
HLD	35	312	3	48
TAP	35	368	1
TAP	35	368	4
TAP	35	376	0
STR	35	376	5
SI_	35	376	5	96	56	1
HLD	36	0	6	48
HLD	36	0	7	48
TAP	36	56	0
TAP	36	56	5
TAP	36	64	1
TAP	36	64	4
TAP	36	72	2
TAP	36	72	3
TAP	36	192	0
TAP	36	192	1
TAP	36	200	2
TAP	36	200	7
TAP	36	208	3
TAP	36	208	6
HLD	36	216	4	48
HLD	36	216	5	48
TAP	36	272	3
TAP	36	272	6
TAP	36	280	2
TAP	36	280	7
HLD	36	288	0	120
HLD	36	288	1	48
TAP	36	344	2
TAP	36	352	3
HLD	36	360	4	192
TAP	37	32	7
TAP	37	40	6
HLD	37	48	5	48
TAP	37	104	6
TAP	37	112	7
HLD	37	120	0	120
STR	37	176	3
SI_	37	176	3	96	64	7
TAP	37	184	2
HLD	37	192	1	48
TAP	37	248	2
TAP	37	248	7
TAP	37	256	3
TAP	37	256	6
TAP	37	264	4
TAP	37	264	5
STR	38	0	4
SUL	38	0	4	96	48	7
STR	38	0	7
SUR	38	0	7	96	48	4
STR	38	48	4
SCR	38	48	4	96	48	7
STR	38	48	7
SCL	38	48	7	96	48	4
STR	38	240	0
SUL	38	240	0	96	48	3
STR	38	240	3
SUR	38	240	3	96	48	0
STR	38	288	0
SCR	38	288	0	96	48	3
STR	38	288	3
SCL	38	288	3	96	48	0
TAP	39	96	6
TAP	39	96	7
TAP	39	104	0
TAP	39	104	5
TAP	39	112	1
TAP	39	112	4
HLD	39	120	2	48
HLD	39	120	3	48
TAP	39	176	1
TAP	39	176	4
TAP	39	184	0
TAP	39	184	5
HLD	39	192	6	48
HLD	39	192	7	120
TAP	39	248	5
TAP	39	256	4
HLD	39	264	3	120
TAP	39	320	0
TAP	39	328	1
HLD	39	336	2	48
TAP	40	12	4
TAP	40	24	5
TAP	40	36	6
TAP	40	48	7
TAP	40	60	0
TAP	40	72	1
TAP	40	84	2
TAP	40	96	3
TAP	40	108	4
TAP	40	120	5
TAP	40	132	6
TAP	40	144	7
TAP	40	156	0
TAP	40	168	1
TAP	40	180	2
TAP	40	192	3
STR	40	288	1
SCR	40	288	1	96	48	4
TAP	40	336	0
TAP	40	360	0
TAP	41	0	7
STR	41	48	6
SCR	41	48	6	96	48	1
TAP	41	96	5
TAP	41	120	5
TAP	41	144	4
STR	41	192	3
SCR	41	192	3	96	48	6
TAP	41	240	2
TAP	41	264	2
TAP	41	288	1
STR	41	336	0
SCR	41	336	0	96	48	3
TAP	42	0	7
TAP	42	24	7
TAP	42	48	6
STR	42	96	5
SCR	42	96	5	96	48	0
TAP	42	144	4
TAP	42	168	4
TAP	42	192	3
STR	42	240	2
SCR	42	240	2	96	48	5
TAP	42	288	1
TAP	42	312	1
TAP	42	336	0
STR	43	0	7
SCR	43	0	7	96	48	2
TAP	43	48	6
TAP	43	72	6
TAP	43	96	5
STR	43	144	4
SCR	43	144	4	96	48	7
TAP	43	192	3
TAP	43	216	3
TAP	43	240	2
HLD	43	288	1	288
TAP	44	198	0
TAP	44	198	2
TAP	44	204	3
TAP	44	204	7
TAP	44	210	4
TAP	44	210	6
HLD	44	216	5	360
TAP	45	192	3
TAP	45	208	4
TAP	45	224	2
TAP	45	240	5
TAP	45	256	3
TAP	45	272	4
TAP	45	288	3
TAP	45	304	4
TAP	45	320	2
TAP	45	336	5
TAP	45	352	3
TAP	45	368	4
TAP	46	0	3
TAP	46	16	4
TAP	46	32	2
TAP	46	48	5
TAP	46	64	3
TAP	46	80	4
TAP	46	96	3
TAP	46	112	4
TAP	46	128	2
TAP	46	144	5
TAP	46	160	3
TAP	46	176	4
TAP	46	192	3
TAP	46	216	2
TAP	46	240	1
TAP	46	264	0
TAP	46	288	7
TAP	46	336	7
TAP	47	0	7
TAP	47	96	3
TAP	47	96	4
TAP	47	192	0
TAP	47	192	4
TAP	47	200	1
TAP	47	208	2
TAP	47	216	3
TAP	47	224	4
TAP	47	232	5
TAP	47	240	2
TAP	47	240	6
TAP	47	248	7
TAP	47	256	0
TAP	47	264	1
TAP	47	272	2
TAP	47	280	3
TAP	47	288	0
TAP	47	288	4
TAP	47	296	5
TAP	47	304	6
TAP	47	312	7
TAP	47	320	0
TAP	47	328	1
TAP	47	336	2
TAP	47	336	6
TAP	47	344	3
TAP	47	352	4
TAP	47	360	5
TAP	47	368	6
TAP	47	376	7
TAP	48	0	0
TAP	48	0	4
TAP	48	8	1
TAP	48	16	2
TAP	48	24	3
TAP	48	32	4
TAP	48	40	5
TAP	48	48	2
TAP	48	48	6
TAP	48	56	7
TAP	48	64	0
TAP	48	72	1
TAP	48	80	2
TAP	48	88	3
TAP	48	96	0
TAP	48	96	4
TAP	48	104	5
TAP	48	112	6
TAP	48	120	7
TAP	48	128	0
TAP	48	136	1
TAP	48	144	2
TAP	48	144	6
TAP	48	152	3
TAP	48	160	4
TAP	48	168	5
TAP	48	176	6
TAP	48	184	7
TAP	48	192	0
TAP	48	192	4
TAP	48	200	1
TAP	48	208	2
TAP	48	216	3
TAP	48	224	4
TAP	48	232	5
TAP	48	240	2
TAP	48	240	6
TAP	48	248	7
TAP	48	256	0
TAP	48	264	1
TAP	48	272	2
TAP	48	280	3
TAP	48	288	0
TAP	48	288	4
TAP	48	296	5
TAP	48	304	6
TAP	48	312	7
TAP	48	320	0
TAP	48	328	1
TAP	48	336	2
TAP	48	336	6
TAP	48	344	3
TAP	48	352	4
TAP	48	360	5
TAP	48	368	6
TAP	48	376	7
TAP	49	0	0
TAP	49	0	4
TAP	49	8	1
TAP	49	16	2
TAP	49	24	3
TAP	49	32	4
TAP	49	40	5
TAP	49	48	2
TAP	49	48	6
TAP	49	56	7
TAP	49	64	0
TAP	49	72	1
TAP	49	80	2
TAP	49	88	3
BRK	49	96	0
TAP	49	96	4
TAP	49	104	5
TAP	49	112	6
TAP	49	120	7
TAP	49	128	0
TAP	49	136	1
TAP	49	144	2
BRK	49	144	6
TAP	49	168	7
HLD	49	192	3	0
TAP	49	192	7
TAP	49	198	6
TAP	49	204	5
TAP	49	210	4
TAP	49	216	3
TAP	49	222	2
HLD	49	224	6	0
TAP	49	228	1
TAP	49	234	0
TAP	49	240	7
TAP	49	246	6
TAP	49	252	5
HLD	49	256	1	0
TAP	49	258	4
TAP	49	264	3
TAP	49	270	2
TAP	49	276	1
TAP	49	282	0
HLD	49	288	3	0
TAP	49	288	7
TAP	49	294	6
TAP	49	300	5
TAP	49	306	4
TAP	49	312	3
TAP	49	318	2
HLD	49	320	6	0
TAP	49	324	1
TAP	49	330	0
TAP	49	336	7
TAP	49	342	6
TAP	49	348	5
HLD	49	352	0	0
TAP	49	354	4
TAP	49	360	3
TAP	49	366	2
TAP	49	372	1
TAP	49	378	0
HLD	50	0	3	0
TAP	50	0	7
TAP	50	6	6
TAP	50	12	5
TAP	50	18	4
TAP	50	24	3
TAP	50	30	2
HLD	50	32	6	0
TAP	50	36	1
TAP	50	42	0
TAP	50	48	7
TAP	50	54	6
TAP	50	60	5
HLD	50	64	1	0
TAP	50	66	4
TAP	50	72	3
TAP	50	78	2
TAP	50	84	1
TAP	50	88	0
HLD	50	96	3	0
TAP	50	96	7
TAP	50	102	6
TAP	50	108	5
TAP	50	114	4
TAP	50	120	3
TAP	50	126	2
HLD	50	128	6	0
TAP	50	132	1
TAP	50	138	0
TAP	50	144	7
TAP	50	150	6
TAP	50	156	5
HLD	50	160	0	0
TAP	50	162	4
TAP	50	168	3
TAP	50	174	2
TAP	50	180	1
TAP	50	186	0
HLD	50	192	3	0
TAP	50	192	7
TAP	50	198	6
TAP	50	204	5
TAP	50	210	4
TAP	50	216	3
TAP	50	222	2
HLD	50	224	6	0
TAP	50	228	1
TAP	50	234	0
TAP	50	240	7
TAP	50	246	6
TAP	50	252	5
HLD	50	256	1	0
TAP	50	258	4
TAP	50	264	3
TAP	50	270	2
TAP	50	276	1
TAP	50	282	0
HLD	50	288	3	0
TAP	50	288	7
TAP	50	294	6
TAP	50	300	5
TAP	50	306	4
TAP	50	312	3
TAP	50	318	2
HLD	50	320	6	0
TAP	50	324	1
TAP	50	330	0
TAP	50	336	7
TAP	50	342	6
TAP	50	348	5
HLD	50	352	0	0
TAP	50	354	4
TAP	50	360	3
TAP	50	366	2
TAP	50	372	1
TAP	50	378	0
HLD	51	0	7	240
TAP	51	240	3
TAP	51	252	2
TAP	51	264	1
TAP	51	276	0
TAP	51	288	7
TAP	51	300	6
TAP	51	312	5
TAP	51	324	4
TAP	51	336	3
TAP	52	0	3
TAP	52	0	4
TAP	52	48	2
TAP	52	48	6
STR	52	96	5
SCR	52	96	5	96	48	0
TAP	52	120	3
STR	52	144	0
SLR	52	144	0	96	48	6
TAP	52	192	0
TAP	52	288	3
TAP	52	336	1
TAP	53	0	0
TAP	53	0	3
TAP	53	48	5
TAP	53	96	2
TAP	53	112	3
TAP	53	128	4
STR	53	144	3
SCL	53	144	3	96	48	0
TAP	53	160	4
TAP	53	176	5
TAP	53	240	7
TAP	53	288	7
TAP	53	336	0
TAP	53	336	7
TAP	54	0	1
TAP	54	0	5
STR	54	48	2
SCL	54	48	2	96	48	7
TAP	54	72	4
STR	54	96	7
SLL	54	96	7	96	48	1
TAP	54	144	7
TAP	54	240	4
TAP	54	288	6
TAP	54	336	4
TAP	54	336	7
TAP	55	0	2
TAP	55	48	5
TAP	55	64	4
TAP	55	80	3
STR	55	96	4
SCR	55	96	4	96	48	7
TAP	55	112	3
TAP	55	128	2
STR	55	144	1
SV_	55	144	1	96	48	4
TAP	55	288	7
TAP	55	336	2
TAP	55	336	6
STR	56	0	5
SCR	56	0	5	96	48	0
TAP	56	24	3
STR	56	48	0
SLR	56	48	0	96	48	6
TAP	56	96	0
TAP	56	192	3
TAP	56	240	1
TAP	56	288	0
TAP	56	288	3
TAP	56	336	5
TAP	57	0	2
TAP	57	16	3
TAP	57	32	4
STR	57	48	3
SCL	57	48	3	96	48	0
TAP	57	64	4
TAP	57	80	5
TAP	57	144	7
TAP	57	192	7
TAP	57	240	0
TAP	57	240	7
TAP	57	288	1
TAP	57	288	5
STR	57	336	2
SCL	57	336	2	96	48	7
TAP	57	360	4
STR	58	0	7
SLL	58	0	7	96	48	1
TAP	58	48	7
TAP	58	144	4
TAP	58	192	6
TAP	58	240	4
TAP	58	240	7
TAP	58	288	2
TAP	58	336	5
TAP	58	352	4
TAP	58	368	3
STR	59	0	4
SCR	59	0	4	96	48	7
TAP	59	16	3
TAP	59	32	2
STR	59	48	1
SV_	59	48	1	96	48	4
TAP	59	192	7
STR	59	240	2
SI_	59	240	2	96	48	6
TAP	59	240	5
STR	59	288	6
SCR	59	288	6	96	48	1
TAP	59	336	7
TAP	59	360	7
TAP	60	0	7
TAP	60	48	5
TAP	60	96	4
TAP	60	144	2
TAP	60	144	6
STR	60	192	3
SI_	60	192	3	96	48	7
TAP	60	216	4
TAP	60	240	1
TAP	60	264	2
STR	60	288	0
SI_	60	288	0	96	48	4
TAP	60	336	0
TAP	61	0	7
TAP	61	48	7
TAP	61	96	1
TAP	61	96	6
TAP	61	144	2
TAP	61	168	3
TAP	61	192	2
TAP	61	216	4
TAP	61	240	2
TAP	61	264	1
TAP	61	288	2
TAP	61	312	3
TAP	61	336	2
TAP	61	360	0
TAP	62	0	2
TAP	62	24	4
TAP	62	48	2
TAP	62	64	4
TAP	62	80	3
TAP	62	96	5
TAP	62	120	4
TAP	62	144	5
TAP	62	168	3
TAP	62	192	5
TAP	62	216	6
TAP	62	240	5
TAP	62	264	4
TAP	62	288	5
TAP	62	312	7
TAP	62	336	5
TAP	62	360	3
TAP	63	0	5
TAP	63	16	3
TAP	63	32	4
TAP	63	48	2
TAP	63	64	4
TAP	63	80	3
TAP	63	96	2
TAP	63	96	5
TAP	63	144	0
STR	63	192	2
SCR	63	192	2	96	48	5
TAP	63	216	3
TAP	63	240	1
TAP	63	288	6
TAP	63	336	7
TAP	64	0	1
TAP	64	0	6
TAP	64	48	2
TAP	64	56	3
BRK	64	72	1
BRK	64	72	4
TAP	64	120	5
TAP	64	128	4
BRK	64	144	3
BRK	64	144	6
TAP	64	192	2
TAP	64	200	3
BRK	64	216	0
BRK	64	216	4
TAP	64	264	5
TAP	64	272	4
BRK	64	288	3
BST	64	288	7
SI_	64	288	7	96	48	3
STR	64	336	3
SI_	64	336	3	96	48	7
TAP	64	336	7
TAP	65	48	0
TAP	65	96	2
STR	65	144	5
SCR	65	144	5	96	48	0
TAP	65	168	3
STR	65	192	0
SLR	65	192	0	96	48	6
TAP	65	240	0
TAP	65	336	3
TAP	66	0	1
TAP	66	48	0
TAP	66	48	3
TAP	66	96	5
TAP	66	144	2
TAP	66	160	3
TAP	66	176	4
STR	66	192	3
SCL	66	192	3	96	48	0
TAP	66	208	4
TAP	66	224	5
TAP	66	288	7
TAP	66	336	7
STR	67	0	0
SI_	67	0	0	96	48	4
TAP	67	0	7
TAP	67	48	4
TAP	67	72	4
TAP	67	96	4
STR	67	144	7
SI_	67	144	7	96	48	3
TAP	67	192	3
TAP	67	216	3
TAP	67	240	3
STR	67	288	0
SI_	67	288	0	96	48	4
TAP	67	336	4
TAP	67	360	4
TAP	68	0	4
TAP	68	48	7
TAP	68	96	3
TAP	68	120	3
TAP	68	144	3
TAP	68	144	4
TAP	68	192	3
TAP	68	208	4
TAP	68	224	3
TAP	68	240	4
TAP	68	256	3
TAP	68	272	4
TAP	68	288	2
TAP	68	304	4
TAP	68	320	3
TAP	68	336	4
TAP	68	352	3
TAP	68	368	4
TAP	69	0	1
TAP	69	16	4
TAP	69	32	3
TAP	69	48	4
TAP	69	64	3
TAP	69	80	4
TAP	69	96	3
TAP	69	120	2
TAP	69	144	1
TAP	69	168	0
TAP	69	192	7
TAP	69	216	6
TAP	69	240	5
TAP	69	264	4
HLD	69	288	3	48
STR	70	0	0
SI_	70	0	0	96	336	4
TAP	70	288	0
STR	71	0	0
SCL	71	0	0	96	96	4
SCR	71	0	0	96	96	4
STR	71	288	3
SCL	71	288	3	96	96	0
TAP	71	288	4
TAP	72	0	5
TAP	72	96	6
TAP	72	192	0
STR	72	192	7
SCL	72	192	7	96	96	4
TAP	72	288	1
TAP	73	0	2
STR	73	96	3
SCL	73	96	3	96	96	0
TAP	73	96	4
TAP	73	192	5
TAP	73	288	6
TAP	74	0	0
STR	74	0	7
SCL	74	0	7	96	96	4
TAP	74	96	1
TAP	74	192	2
TAP	74	288	3
TAP	74	288	4
TAP	75	0	5
TAP	75	48	2
TAP	75	96	6
TAP	75	192	0
TAP	75	192	7
TAP	75	288	0
TAP	75	288	7
TAP	75	352	1
TAP	75	352	6
TAP	76	32	2
TAP	76	32	5
TAP	76	96	3
TAP	76	96	4
TAP	76	192	2
TAP	76	288	1
TAP	77	0	0
TAP	77	0	7
TAP	77	96	6
TAP	77	144	4
TAP	77	144	5
TAP	77	240	1
TAP	77	288	2
TAP	77	288	3
STR	78	0	3
SI_	78	0	3	96	48	1
TAP	78	0	4
TAP	78	96	4
TAP	78	192	3
STR	78	192	4
SI_	78	192	4	96	48	6
TAP	78	288	3
TAP	78	352	2
TAP	79	32	1
TAP	79	96	0
TAP	79	96	7
TAP	79	160	6
TAP	79	224	5
TAP	79	288	2
TAP	79	288	4
TAP	79	336	2
TAP	80	0	2
TAP	80	48	3
TAP	80	48	5
TAP	80	96	5
TAP	80	144	5
TAP	80	192	2
TAP	80	192	4
TAP	80	240	2
TAP	80	288	2
TAP	80	336	3
TAP	80	336	5
TAP	81	0	5
TAP	81	48	5
TAP	81	96	2
TAP	81	96	4
TAP	81	144	2
TAP	81	192	2
TAP	81	240	3
TAP	81	240	4
TAP	81	288	4
TAP	81	336	4
TAP	82	0	2
TAP	82	0	3
TAP	82	48	2
TAP	82	96	2
TAP	82	144	3
TAP	82	144	5
TAP	82	192	5
TAP	82	240	5
TAP	82	288	1
TAP	82	288	4
TAP	82	336	1
TAP	83	0	1
TAP	83	48	2
TAP	83	48	6
TAP	83	96	6
TAP	83	144	6
TAP	83	192	2
TAP	83	192	5
TAP	83	240	2
TAP	83	288	2
TAP	83	336	3
TAP	83	336	4
TAP	84	0	4
TAP	84	48	4
TAP	84	96	3
TAP	84	96	4
TAP	84	240	5
TAP	84	240	6
TAP	85	0	0
TAP	85	0	7
TAP	85	144	1
TAP	85	144	2
TAP	85	288	3
TAP	85	288	4
TAP	85	336	2
TAP	86	0	2
TAP	86	48	2
TAP	86	64	3
TAP	86	80	4
TAP	86	96	5
TAP	86	144	5
TAP	86	192	6
TAP	86	208	5
TAP	86	224	4
TAP	86	240	1
TAP	86	256	2
TAP	86	272	3
TAP	86	288	4
TAP	86	336	6
TAP	86	352	5
TAP	86	368	4
TAP	87	0	3
TAP	87	48	0
TAP	87	48	7
TAP	87	96	2
TAP	87	120	3
TAP	87	144	1
TAP	87	168	5
TAP	87	192	4
TAP	87	216	6
TAP	87	240	2
TAP	87	264	3
TAP	87	288	1
TAP	87	312	5
TAP	87	336	4
TAP	87	360	6
TAP	88	0	2
TAP	88	24	3
TAP	88	48	0
TAP	88	72	5
TAP	88	96	4
TAP	88	120	7
TAP	88	144	2
TAP	88	168	3
TAP	88	192	0
TAP	88	216	5
TAP	88	240	4
TAP	88	264	7
TAP	88	288	2
TAP	88	312	4
TAP	88	336	0
TAP	88	360	5
TAP	89	0	3
TAP	89	24	7
TAP	89	48	2
TAP	89	72	4
TAP	89	96	0
TAP	89	120	5
TAP	89	144	3
TAP	89	168	7
TAP	89	192	2
TAP	89	240	3
TAP	89	240	4
TAP	89	288	2
TAP	89	288	3
TAP	89	336	1
TAP	89	336	2
TAP	90	0	0
TAP	90	0	1
TAP	90	48	0
TAP	90	48	7
TAP	90	96	6
TAP	90	96	7
TAP	90	144	5
TAP	90	144	6
TAP	90	192	4
TAP	90	192	5
TAP	90	240	3
TAP	90	264	3
TAP	90	288	4
TAP	90	312	2
TAP	90	336	4
TAP	90	360	4
TAP	91	0	3
TAP	91	24	5
TAP	91	48	2
TAP	91	72	2
TAP	91	96	3
TAP	91	120	1
TAP	91	144	5
TAP	91	168	5
TAP	91	192	4
TAP	91	216	6
TAP	91	240	2
TAP	91	264	5
TAP	91	288	3
TAP	91	304	4
TAP	91	320	3
TAP	91	336	4
TAP	91	352	3
TAP	91	368	4
TAP	92	0	2
TAP	92	16	5
TAP	92	32	2
TAP	92	48	5
TAP	92	64	2
TAP	92	80	5
TAP	92	96	1
TAP	92	112	6
TAP	92	128	1
TAP	92	144	6
TAP	92	160	1
TAP	92	176	6
TAP	92	192	0
TAP	92	208	7
TAP	92	224	0
TAP	92	240	7
TAP	92	256	0
TAP	92	272	7
TAP	92	288	1
TAP	92	304	6
TAP	92	320	2
TAP	92	336	5
TAP	92	352	3
TAP	92	368	4
TAP	93	0	3
TAP	93	12	2
TAP	93	24	1
TAP	93	36	0
TAP	93	48	7
TAP	93	60	6
TAP	93	72	5
TAP	93	84	4
TAP	93	96	3
TAP	93	108	2
TAP	93	120	1
TAP	93	132	0
TAP	93	144	7
TAP	93	156	6
TAP	93	168	5
TAP	93	180	4
TAP	93	192	3
TAP	93	204	2
TAP	93	216	1
TAP	93	228	0
TAP	93	240	7
TAP	93	252	6
TAP	93	264	5
STR	93	276	4
SI_	93	276	4	96	684	7
STR	93	288	3
SI_	93	288	3	96	672	0
BRK	94	0	3
TAP	95	336	0
TAP	95	336	7
TAP	95	344	1
TAP	95	344	6
TAP	95	352	2
TAP	95	352	5
TAP	95	360	3
TAP	95	360	4
BRK	96	0	0
TAP	96	0	1

T_REC_TAP	1077
T_REC_BRK	14
T_REC_XTP	0
T_REC_HLD	72
T_REC_XHO	0
T_REC_STR	88
T_REC_BST	1
T_REC_XST	0
T_REC_TTP	0
T_REC_THO	0
T_REC_SLD	90
T_REC_ALL	1342
T_NUM_TAP	1165
T_NUM_BRK	15
T_NUM_HLD	72
T_NUM_SLD	90
T_NUM_ALL	1342
T_JUDGE_TAP	1180
T_JUDGE_HLD	126
T_JUDGE_SLD	90
T_JUDGE_ALL	1396
TTM_EACHPAIRS	162
TTM_SCR_TAP	582500
TTM_SCR_BRK	39000
TTM_SCR_HLD	72000
TTM_SCR_SLD	135000
TTM_SCR_ALL	828500
TTM_SCR_S	802200
TTM_SCR_SS	827000
TTM_RAT_ACV	10018

