VERSION	0.00.00	1.03.00
FES_MODE	0
BPM_DEF	150.000	150.000	225.000	 75.000
MET_DEF	4	4
RESOLUTION	384
CLK_DEF	384
COMPATIBLE_CODE	MA2

BPM	0	0	150.000
BPM	18	96	200.000
BPM	24	96	150.000
BPM	47	192	 75.000
BPM	51	0	150.000
BPM	71	288	225.000
MET	0	0	4	4
MET	6	0	8	6
MET	13	192	4	3
MET	15	288	4	4
MET	16	288	4	3
MET	18	96	4	3
MET	24	96	8	6
MET	29	192	4	4
MET	30	192	8	6
MET	35	0	16	12
MET	38	0	8	5
MET	39	96	16	12
MET	40	288	8	6
MET	43	288	4	3
MET	44	192	4	4
MET	47	192	4	2
MET	51	0	4	4
MET	52	0	8	15
MET	67	0	8	6
MET	68	192	4	3
MET	70	288	4	4
MET	71	288	4	3
MET	77	288	4	4
MET	79	288	4	6
MET	85	288	8	6

TAP	1	360	7
TAP	1	368	0
TAP	1	368	6
TAP	1	376	1
TAP	1	376	5
TAP	2	0	2
STR	2	0	4
SCR	2	0	4	96	1200	3
TAP	2	8	3
HLD	2	192	3	96
HLD	3	0	3	96
HLD	3	192	4	96
HLD	4	0	4	96
HLD	4	192	5	96
HLD	5	0	5	96
TAP	5	192	5
TAP	5	212	3
TAP	5	232	5
TAP	5	248	3
TAP	5	268	5
TAP	5	288	2
TAP	5	308	4
TAP	5	328	2
TAP	5	344	4
TAP	5	364	2
BRK	6	0	1
BRK	6	0	5
TAP	6	96	2
TAP	6	120	3
TAP	6	144	2
TAP	6	168	3
TAP	6	192	2
TAP	6	216	1
TAP	6	240	2
TAP	6	264	3
TAP	6	288	2
TAP	6	336	3
TAP	6	336	4
TAP	7	0	6
TAP	7	24	7
TAP	7	48	6
TAP	7	72	7
TAP	7	96	6
TAP	7	120	4
TAP	7	144	6
TAP	7	168	7
TAP	7	192	6
TAP	7	240	3
TAP	7	240	4
TAP	7	288	1
TAP	7	312	0
TAP	7	336	1
TAP	7	360	7
TAP	8	0	1
TAP	8	24	3
TAP	8	48	1
TAP	8	72	7
TAP	8	96	1
TAP	8	144	3
TAP	8	144	4
TAP	8	192	6
TAP	8	216	3
TAP	8	240	5
TAP	8	264	4
TAP	8	288	5
TAP	8	312	1
TAP	8	336	4
TAP	8	360	3
TAP	9	0	2
STR	9	0	5
SI_	9	0	5	96	48	2
TAP	9	48	2
TAP	9	96	1
STR	9	144	0
SI_	9	144	0	96	48	4
TAP	9	192	7
TAP	9	240	6
STR	9	288	5
SI_	9	288	5	96	48	0
TAP	9	336	3
TAP	10	0	2
STR	10	48	1
SI_	10	48	1	96	48	5
STR	10	96	7
SLR	10	96	7	96	144	3
STR	10	144	7
SLL	10	144	7	96	96	3
TAP	11	0	6
TAP	11	48	2
TAP	11	48	6
TAP	11	96	5
TAP	11	120	4
TAP	11	144	5
TAP	11	168	4
TAP	11	192	6
TAP	11	216	6
TAP	11	240	2
TAP	11	264	3
TAP	11	288	2
TAP	11	312	4
TAP	11	336	1
TAP	11	336	4
STR	12	0	2
SCR	12	0	2	96	48	4
TAP	12	0	5
TAP	12	48	6
TAP	12	72	6
TAP	12	96	6
STR	12	144	7
SCL	12	144	7	96	48	4
TAP	12	192	3
TAP	12	216	3
TAP	12	240	3
TAP	12	288	2
STR	12	336	2
SXR	12	336	2	96	96	2
STR	12	336	4
SXL	12	336	4	96	96	4
TAP	13	0	2
TAP	13	0	4
TAP	13	192	1
TAP	13	212	4
TAP	13	232	1
TAP	13	248	4
TAP	13	268	1
TAP	13	284	5
TAP	13	308	2
TAP	13	328	5
TAP	13	344	2
TAP	13	364	5
TAP	14	0	2
TAP	14	20	6
TAP	14	40	3
TAP	14	56	6
TAP	14	76	3
TAP	14	96	5
TAP	14	120	5
TAP	14	144	4
TAP	14	168	4
TAP	14	192	3
TAP	14	224	4
HLD	14	256	5	80
HLD	14	288	3	48
HLD	15	0	1	240
STR	15	0	3
SI_	15	0	3	96	144	7
TAP	15	288	7
TAP	15	304	0
TAP	15	304	6
TAP	15	320	1
TAP	15	320	5
TAP	15	336	2
TAP	15	336	4
HLD	15	352	3	320
HLD	16	288	4	48
HLD	16	360	1	36
HLD	16	360	5	36
HLD	17	48	2	24
HLD	17	48	6	24
HLD	17	120	3	12
HLD	17	120	7	12
TAP	17	192	3
TAP	17	192	7
TAP	17	216	2
TAP	17	216	6
TAP	17	240	1
TAP	17	240	5
TAP	17	264	0
TAP	17	264	4
TAP	17	288	3
STR	17	288	7
SI_	17	288	7	96	48	3
TAP	17	304	6
TAP	17	320	5
TAP	17	336	4
TAP	17	352	3
TAP	17	368	2
TAP	18	0	1
TAP	18	0	7
BRK	18	96	1
BRK	18	96	5
TAP	18	192	3
TAP	18	192	7
TAP	18	288	4
TAP	18	336	3
TAP	19	0	2
TAP	19	0	5
TAP	19	48	1
TAP	19	48	6
TAP	19	96	1
TAP	19	96	6
TAP	19	144	0
TAP	19	168	0
HLD	19	192	7	192
TAP	19	288	1
TAP	19	336	2
HLD	20	0	3	96
TAP	20	48	7
STR	20	96	6
SCL	20	96	6	96	48	4
TAP	20	144	1
TAP	20	192	1
TAP	20	216	2
TAP	20	240	3
TAP	20	288	3
TAP	20	288	4
TAP	20	336	3
TAP	20	336	4
TAP	21	0	2
TAP	21	0	5
TAP	21	96	3
TAP	21	96	6
TAP	21	144	5
TAP	21	168	5
HLD	21	192	4	96
HLD	21	288	6	96
TAP	21	336	4
STR	22	0	3
SCR	22	0	3	96	48	6
TAP	22	48	2
TAP	22	96	1
STR	22	192	0
SSR	22	192	0	96	192	4
STR	22	216	7
SI_	22	216	7	96	168	3
TAP	22	240	0
TAP	22	264	7
TAP	23	192	2
TAP	23	192	5
TAP	23	224	4
TAP	23	256	3
TAP	23	288	2
TAP	23	320	3
TAP	23	352	4
TAP	24	0	2
TAP	24	0	5
TAP	24	32	1
TAP	24	32	6
TAP	24	64	0
TAP	24	64	7
TAP	24	96	1
HLD	24	96	6	96
TAP	24	144	2
TAP	24	192	3
TAP	24	216	6
HLD	24	240	4	96
TAP	24	288	5
TAP	24	336	7
TAP	24	360	4
HLD	25	0	7	96
TAP	25	48	0
TAP	25	96	1
TAP	25	120	7
STR	25	144	1
SCR	25	144	1	96	48	4
TAP	25	192	2
TAP	25	240	1
STR	25	240	5
SI_	25	240	5	96	48	0
TAP	25	288	6
TAP	25	336	1
TAP	25	336	5
TAP	26	0	1
TAP	26	24	2
TAP	26	48	3
TAP	26	72	4
TAP	26	96	2
TAP	26	120	3
TAP	26	144	4
TAP	26	168	5
TAP	26	192	3
TAP	26	192	6
TAP	26	240	3
TAP	26	240	6
TAP	26	288	5
TAP	26	312	5
TAP	26	336	4
TAP	26	360	4
TAP	27	0	3
TAP	27	24	3
TAP	27	48	2
TAP	27	48	4
BST	27	96	1
SLR	27	96	1	96	96	7
BRK	27	96	5
TAP	27	192	7
TAP	27	240	6
STR	27	288	5
SLR	27	288	5	96	96	3
TAP	27	336	5
TAP	28	0	3
TAP	28	48	2
TAP	28	96	1
TAP	28	144	1
TAP	28	160	0
TAP	28	176	1
STR	28	192	0
SI_	28	192	0	96	48	4
TAP	28	240	2
TAP	28	288	2
TAP	29	0	0
TAP	29	0	4
TAP	29	48	1
TAP	29	48	5
TAP	29	96	2
TAP	29	96	6
STR	29	144	3
SI_	29	144	3	96	48	1
STR	29	144	7
SI_	29	144	7	96	48	5
TAP	29	192	0
TAP	29	192	4
BST	29	240	3
SI_	29	240	3	96	48	6
BST	29	240	7
SI_	29	240	7	96	48	2
BST	29	336	3
SI_	29	336	3	96	48	7
BST	29	336	7
SI_	29	336	7	96	48	3
BRK	30	48	3
BRK	30	48	7
TAP	30	144	2
TAP	30	144	6
BRK	30	192	2
BST	30	192	6
SLL	30	192	6	96	96	0
TAP	30	288	0
TAP	30	336	1
STR	31	0	2
SLL	31	0	2	96	96	4
TAP	31	48	2
TAP	31	96	5
TAP	31	144	6
TAP	31	192	7
TAP	31	240	7
TAP	31	264	3
TAP	31	288	5
TAP	31	312	1
TAP	31	336	0
TAP	31	336	4
TAP	32	0	1
HLD	32	0	3	64
TAP	32	80	2
HLD	32	80	4	48
TAP	32	144	3
HLD	32	144	5	60
HLD	32	216	4	72
TAP	32	216	6
TAP	32	288	6
HLD	32	304	3	48
TAP	32	352	5
HLD	32	368	2	64
TAP	33	48	4
HLD	33	64	1	48
HLD	33	112	4	80
TAP	33	128	0
HLD	33	192	0	60
HLD	33	264	1	60
HLD	33	264	7	60
HLD	33	336	2	60
HLD	33	336	6	60
HLD	34	24	3	60
HLD	34	24	5	60
STR	34	96	4
SCR	34	96	4	96	48	0
TAP	34	192	0
TAP	34	208	1
TAP	34	224	2
TAP	34	240	3
BRK	35	0	2
HLD	35	0	3	48
HLD	35	72	2	48
HLD	35	72	4	48
TAP	35	144	1
TAP	35	144	3
TAP	35	192	2
TAP	35	204	3
TAP	35	216	2
TAP	35	228	3
TAP	35	240	2
TAP	35	252	3
HLD	35	288	4	48
BRK	35	288	5
HLD	35	360	3	48
HLD	35	360	5	48
TAP	36	48	4
TAP	36	48	6
TAP	36	96	5
TAP	36	108	4
TAP	36	120	5
TAP	36	132	4
TAP	36	144	5
TAP	36	156	4
BST	36	192	5
SI_	36	192	5	96	24	2
BST	36	264	0
SI_	36	264	0	96	24	5
BRK	36	264	5
BRK	36	336	0
BST	36	336	4
SI_	36	336	4	96	24	0
BST	37	24	1
SI_	37	24	1	96	24	4
BRK	37	24	4
BRK	37	96	1
BST	37	96	5
SI_	37	96	5	96	24	1
BST	37	168	0
SCR	37	168	0	96	72	6
BRK	37	168	5
BRK	37	240	0
BRK	37	240	6
BST	38	0	2
SLR	38	0	2	96	48	6
BST	38	0	6
SLL	38	0	6	96	48	2
BST	38	48	2
SLL	38	48	2	96	48	6
BST	38	48	6
SLR	38	48	6	96	48	2
BST	38	240	1
SLR	38	240	1	96	48	5
BST	38	240	5
SLL	38	240	5	96	48	1
BST	38	288	1
SLL	38	288	1	96	48	5
BST	38	288	5
SLR	38	288	5	96	48	1
BST	39	96	7
SV_	39	96	7	96	24	4
BST	39	168	2
SV_	39	168	2	96	24	7
BRK	39	168	7
BRK	39	240	2
BST	39	240	5
SV_	39	240	5	96	24	2
BRK	39	312	0
BRK	39	312	5
TAP	40	0	1
TAP	40	16	0
TAP	40	32	1
TAP	40	48	0
TAP	40	64	1
TAP	40	80	0
TAP	40	96	2
TAP	40	108	7
TAP	40	120	3
TAP	40	132	6
TAP	40	144	4
TAP	40	160	5
TAP	40	176	4
TAP	40	192	5
TAP	40	240	0
TAP	40	240	7
BRK	40	288	1
BST	40	288	6
SLL	40	288	6	96	96	0
STR	41	0	0
SLL	41	0	0	96	96	2
TAP	41	48	1
STR	41	96	2
SLL	41	96	2	96	96	4
TAP	41	144	3
STR	41	192	4
SLR	41	192	4	96	96	2
TAP	41	240	3
STR	41	288	2
SCR	41	288	2	96	96	7
TAP	41	336	1
TAP	42	0	1
TAP	42	48	0
STR	42	96	0
SCR	42	96	0	96	48	3
TAP	42	144	0
TAP	42	192	3
STR	42	240	4
SCR	42	240	4	96	48	7
TAP	42	288	4
TAP	42	336	7
STR	43	0	0
SI_	43	0	0	96	48	4
STR	43	48	0
SLL	43	48	0	96	96	2
TAP	43	96	0
BST	43	288	0
SUL	43	288	0	96	144	7
BST	43	288	4
SUL	43	288	4	96	144	3
TAP	44	192	4
TAP	44	224	4
TAP	44	256	0
TAP	44	288	0
TAP	44	320	1
TAP	44	352	1
TAP	45	0	2
TAP	45	32	2
TAP	45	64	3
HLD	45	96	1	96
TAP	45	96	4
TAP	45	192	6
TAP	45	212	3
TAP	45	232	6
TAP	45	248	3
TAP	45	268	6
TAP	45	284	3
TAP	45	308	5
TAP	45	328	2
TAP	45	344	5
TAP	45	364	2
TAP	46	0	4
TAP	46	20	1
TAP	46	40	4
TAP	46	56	1
TAP	46	76	4
TAP	46	96	2
TAP	46	120	2
TAP	46	144	3
TAP	46	168	3
TAP	46	192	4
TAP	46	224	3
HLD	46	256	2	80
HLD	46	288	4	48
TAP	47	0	3
TAP	47	0	4
TAP	47	96	0
TAP	47	96	7
BRK	47	192	2
HLD	47	192	6	48
TAP	47	198	3
TAP	47	204	4
TAP	47	210	5
TAP	47	222	7
TAP	47	228	0
TAP	47	234	1
HLD	47	240	2	48
TAP	47	246	5
TAP	47	252	4
TAP	47	258	3
TAP	47	270	1
TAP	47	276	0
TAP	47	282	7
HLD	47	288	6	48
TAP	47	294	3
TAP	47	300	4
TAP	47	306	5
TAP	47	318	7
TAP	47	324	0
TAP	47	330	1
HLD	47	336	2	48
TAP	47	342	5
TAP	47	348	4
TAP	47	354	3
TAP	47	366	1
TAP	47	372	0
TAP	47	378	7
HLD	48	0	6	48
TAP	48	6	3
TAP	48	12	4
TAP	48	18	5
TAP	48	30	7
TAP	48	36	0
TAP	48	42	1
HLD	48	48	2	48
TAP	48	54	5
TAP	48	60	4
TAP	48	66	3
TAP	48	78	1
TAP	48	84	0
TAP	48	90	7
TAP	48	96	6
TAP	48	102	3
TAP	48	108	4
TAP	48	114	5
TAP	48	120	6
TAP	48	126	7
TAP	48	132	0
TAP	48	138	1
TAP	48	144	2
TAP	48	144	5
TAP	48	150	4
TAP	48	156	3
TAP	48	162	2
TAP	48	168	1
TAP	48	174	0
TAP	48	180	7
TAP	48	186	6
HLD	48	192	1	48
TAP	48	192	5
TAP	48	198	4
TAP	48	204	3
TAP	48	210	2
TAP	48	222	0
TAP	48	228	7
TAP	48	234	6
HLD	48	240	5	48
TAP	48	246	2
TAP	48	252	3
TAP	48	258	4
TAP	48	270	6
TAP	48	276	7
TAP	48	282	0
HLD	48	288	1	48
TAP	48	294	4
TAP	48	300	3
TAP	48	306	2
TAP	48	318	0
TAP	48	324	7
TAP	48	330	6
HLD	48	336	5	48
TAP	48	342	2
TAP	48	348	3
TAP	48	354	4
TAP	48	366	6
TAP	48	372	7
TAP	48	378	0
HLD	49	0	1	48
TAP	49	6	4
TAP	49	12	3
TAP	49	18	2
TAP	49	30	0
TAP	49	36	7
TAP	49	42	6
HLD	49	48	5	48
TAP	49	54	2
TAP	49	60	3
TAP	49	66	4
TAP	49	78	6
TAP	49	84	7
TAP	49	90	0
BRK	49	96	1
TAP	49	102	4
TAP	49	108	3
TAP	49	114	2
TAP	49	120	1
TAP	49	126	0
TAP	49	132	7
TAP	49	138	6
BRK	49	144	1
BRK	49	144	5
TAP	49	150	0
TAP	49	150	4
TAP	49	156	3
TAP	49	156	7
TAP	49	192	0
TAP	49	192	6
TAP	49	224	2
TAP	49	224	6
TAP	49	240	2
TAP	49	256	2
TAP	49	256	6
TAP	49	288	3
TAP	49	288	7
TAP	49	320	3
TAP	49	320	6
TAP	49	336	6
TAP	49	352	3
TAP	49	352	6
HLD	50	0	2	16
HLD	50	0	5	16
TAP	50	32	2
TAP	50	32	5
TAP	50	48	3
TAP	50	56	4
TAP	50	64	2
TAP	50	72	5
TAP	50	80	3
TAP	50	88	4
TAP	50	96	2
TAP	50	104	5
TAP	50	112	3
TAP	50	120	4
TAP	50	128	2
TAP	50	136	5
TAP	50	144	3
TAP	50	152	4
TAP	50	160	2
TAP	50	168	5
TAP	50	192	0
HLD	50	192	4	0
TAP	50	196	1
TAP	50	200	2
TAP	50	204	3
TAP	50	208	4
TAP	50	212	5
TAP	50	216	6
TAP	50	220	7
TAP	50	224	0
HLD	50	224	4	0
TAP	50	228	1
TAP	50	232	2
TAP	50	236	3
TAP	50	240	4
TAP	50	244	5
TAP	50	248	6
TAP	50	252	7
HLD	50	256	0	0
HLD	50	256	4	0
HLD	50	288	2	0
TAP	50	288	6
TAP	50	292	5
TAP	50	296	4
TAP	50	300	3
TAP	50	304	2
TAP	50	308	1
TAP	50	312	0
TAP	50	316	7
HLD	50	320	2	0
TAP	50	320	6
TAP	50	324	5
TAP	50	328	4
TAP	50	332	3
TAP	50	336	2
TAP	50	340	1
TAP	50	344	0
TAP	50	348	7
HLD	50	352	2	0
HLD	50	352	6	0
STR	51	0	0
SXL	51	0	0	96	96	4
STR	51	0	4
SXL	51	0	4	96	96	0
TAP	51	240	1
TAP	51	264	3
TAP	51	288	1
TAP	51	312	6
TAP	51	336	4
TAP	51	360	6
BST	52	0	2
SCL	52	0	2	96	48	7
BRK	52	0	5
TAP	52	96	2
STR	52	96	7
SI_	52	96	7	96	48	3
TAP	52	112	6
TAP	52	128	5
TAP	52	144	4
TAP	52	192	4
TAP	52	240	4
TAP	52	256	5
TAP	52	272	6
TAP	52	288	2
TAP	52	288	7
TAP	52	336	0
STR	52	336	5
SCR	52	336	5	96	48	0
TAP	53	0	2
TAP	53	48	0
TAP	53	48	5
TAP	53	64	1
TAP	53	80	2
TAP	53	96	3
TAP	53	144	1
TAP	53	160	0
TAP	53	176	1
TAP	53	192	0
TAP	53	216	2
TAP	53	240	2
TAP	53	288	1
TAP	53	288	3
TAP	53	336	2
STR	53	336	5
SCR	53	336	5	96	48	0
TAP	54	0	4
STR	54	48	0
SI_	54	48	0	96	48	4
TAP	54	48	5
TAP	54	64	1
TAP	54	80	2
TAP	54	96	3
TAP	54	144	3
TAP	54	192	3
TAP	54	208	2
TAP	54	224	1
TAP	54	240	0
TAP	54	240	5
STR	54	288	2
SCL	54	288	2	96	48	7
TAP	54	288	7
TAP	54	336	3
TAP	54	336	5
TAP	55	0	2
TAP	55	0	7
TAP	55	16	6
TAP	55	32	5
TAP	55	48	4
TAP	55	96	6
TAP	55	112	7
TAP	55	128	6
TAP	55	144	7
TAP	55	168	5
TAP	55	192	5
TAP	55	240	4
TAP	55	240	6
STR	55	288	1
SCR	55	288	1	96	48	4
TAP	55	312	7
TAP	55	336	0
TAP	56	0	1
STR	56	0	4
SI_	56	0	4	96	48	0
TAP	56	16	5
TAP	56	32	6
TAP	56	48	7
TAP	56	96	7
TAP	56	144	7
TAP	56	160	6
TAP	56	176	5
TAP	56	192	1
TAP	56	192	4
TAP	56	240	3
STR	56	240	6
SCL	56	240	6	96	48	3
TAP	56	288	0
TAP	56	288	1
TAP	56	336	3
TAP	56	336	6
TAP	56	352	2
TAP	56	368	1
TAP	57	0	0
TAP	57	48	2
TAP	57	64	3
TAP	57	80	2
TAP	57	96	3
TAP	57	120	0
TAP	57	144	0
TAP	57	192	1
TAP	57	192	7
STR	57	240	6
SCL	57	240	6	96	48	3
TAP	57	264	0
TAP	57	288	7
STR	57	336	3
SI_	57	336	3	96	48	7
TAP	57	336	6
TAP	57	352	2
TAP	57	368	1
TAP	58	0	0
TAP	58	48	0
TAP	58	96	0
TAP	58	112	1
TAP	58	128	2
TAP	58	144	3
TAP	58	144	6
TAP	58	192	0
STR	58	192	7
SCL	58	192	7	96	48	4
TAP	58	240	1
TAP	58	240	4
TAP	58	288	3
TAP	58	288	7
TAP	58	304	2
TAP	58	320	1
TAP	58	336	0
TAP	59	0	0
TAP	59	0	4
TAP	59	16	1
TAP	59	16	5
TAP	59	32	2
TAP	59	32	6
TAP	59	48	3
TAP	59	48	7
TAP	59	64	0
TAP	59	80	1
TAP	59	96	2
TAP	59	112	3
TAP	59	128	0
TAP	59	128	4
TAP	59	144	1
TAP	59	144	5
TAP	59	160	2
TAP	59	160	6
TAP	59	176	3
TAP	59	176	7
BST	59	192	0
SSL	59	192	0	96	96	4
BST	59	192	4
SSL	59	192	4	96	96	0
TAP	60	48	3
TAP	60	48	7
TAP	60	96	2
TAP	60	96	6
STR	60	144	1
SCR	60	144	1	96	48	4
STR	60	144	5
SCR	60	144	5	96	48	0
STR	60	240	1
SI_	60	240	1	96	48	5
STR	60	240	5
SI_	60	240	5	96	48	1
TAP	60	336	1
TAP	60	336	5
TAP	61	48	3
TAP	61	48	7
TAP	61	72	3
TAP	61	72	7
TAP	61	96	3
TAP	61	96	7
TAP	61	144	2
TAP	61	168	3
TAP	61	192	2
TAP	61	216	3
TAP	61	240	2
TAP	61	264	1
TAP	61	288	2
TAP	61	312	6
TAP	61	336	7
TAP	61	360	6
TAP	62	0	5
TAP	62	24	6
TAP	62	48	7
TAP	62	72	6
BRK	62	96	1
TAP	62	112	3
TAP	62	128	2
TAP	62	144	4
TAP	62	168	3
TAP	62	192	6
TAP	62	208	4
TAP	62	224	5
TAP	62	240	3
TAP	62	264	4
TAP	62	288	2
TAP	62	304	3
TAP	62	320	2
TAP	62	336	1
TAP	62	336	4
TAP	63	0	7
TAP	63	12	0
TAP	63	12	6
TAP	63	24	1
TAP	63	24	5
TAP	63	36	2
TAP	63	36	4
TAP	63	48	3
TAP	63	96	0
STR	63	96	5
SCR	63	96	5	96	48	0
TAP	63	144	2
TAP	63	144	3
TAP	63	192	0
TAP	63	192	5
TAP	63	208	1
TAP	63	224	2
TAP	63	240	3
TAP	63	288	0
TAP	63	288	3
TAP	63	336	3
TAP	63	336	4
TAP	64	0	1
TAP	64	0	6
TAP	64	48	4
TAP	64	48	5
BRK	64	72	3
BRK	64	72	6
TAP	64	120	2
TAP	64	120	3
BRK	64	144	1
BRK	64	144	4
TAP	64	192	0
TAP	64	192	7
BRK	64	216	1
BRK	64	216	6
TAP	64	264	0
TAP	64	288	0
TAP	64	312	6
TAP	64	336	2
TAP	64	360	4
BRK	65	0	0
BRK	65	0	5
STR	65	48	2
SCL	65	48	2	96	48	7
TAP	65	72	6
TAP	65	96	4
TAP	65	144	2
STR	65	144	7
SI_	65	144	7	96	48	3
TAP	65	160	6
TAP	65	176	5
TAP	65	192	4
TAP	65	240	4
TAP	65	288	4
TAP	65	304	5
TAP	65	320	6
TAP	65	336	1
TAP	65	336	7
TAP	66	0	2
TAP	66	24	2
TAP	66	48	1
TAP	66	48	3
TAP	66	96	5
TAP	66	120	5
TAP	66	144	4
TAP	66	144	6
TAP	66	192	3
TAP	66	192	7
TAP	66	216	2
TAP	66	216	6
TAP	66	240	1
TAP	66	240	5
TAP	66	264	0
TAP	66	264	4
TAP	66	288	5
TAP	66	300	6
TAP	66	312	7
TAP	66	324	0
TAP	66	336	1
TAP	66	348	2
TAP	66	360	3
TAP	66	368	4
BST	67	0	1
SCL	67	0	1	96	48	7
BRK	67	0	5
TAP	67	48	3
TAP	67	72	3
TAP	67	96	3
STR	67	144	4
SCR	67	144	4	96	48	7
TAP	67	192	0
TAP	67	216	0
TAP	67	240	0
TAP	67	288	1
STR	67	336	1
SXL	67	336	1	96	96	1
STR	67	336	7
SXR	67	336	7	96	96	7
TAP	68	0	1
TAP	68	0	7
TAP	68	192	2
TAP	68	212	7
TAP	68	232	2
TAP	68	248	7
TAP	68	268	2
TAP	68	284	7
TAP	68	308	1
TAP	68	328	6
TAP	68	344	1
TAP	68	364	6
TAP	69	0	0
TAP	69	20	5
TAP	69	40	0
TAP	69	56	5
TAP	69	76	0
TAP	69	96	6
TAP	69	120	6
TAP	69	144	7
TAP	69	168	7
TAP	69	192	0
TAP	69	224	7
HLD	69	256	6	80
HLD	69	288	0	48
STR	70	0	4
SI_	70	0	4	96	144	0
HLD	70	0	6	240
TAP	70	288	0
TAP	70	288	7
TAP	70	304	1
TAP	70	304	6
TAP	70	320	2
TAP	70	320	5
HLD	70	336	3	144
TAP	70	336	4
STR	71	96	7
SSL	71	96	7	96	48	3
SSR	71	96	7	96	48	3
TAP	71	288	3
STR	71	288	4
SCR	71	288	4	96	96	7
TAP	72	0	2
TAP	72	96	1
STR	72	192	0
SCR	72	192	0	96	96	3
TAP	72	192	7
TAP	72	288	6
TAP	73	0	5
TAP	73	96	3
STR	73	96	4
SCR	73	96	4	96	96	7
TAP	73	192	2
TAP	73	288	1
STR	74	0	0
SCR	74	0	0	96	96	3
TAP	74	0	7
TAP	74	96	6
TAP	74	192	5
HLD	74	288	3	96
HLD	74	288	5	96
HLD	75	96	2	96
HLD	75	96	4	96
HLD	75	288	3	96
HLD	75	288	6	96
HLD	76	96	2	96
HLD	76	96	4	96
HLD	76	240	6	96
HLD	76	244	4	92
HLD	77	0	1	96
HLD	77	0	4	96
HLD	77	144	4	92
HLD	77	148	7	92
HLD	77	288	0	96
HLD	78	0	6	96
HLD	78	96	2	96
HLD	78	192	4	96
HLD	78	288	5	48
HLD	78	352	6	44
HLD	79	32	7	40
HLD	79	96	0	24
HLD	79	160	1	20
HLD	79	224	2	16
BRK	79	288	3
BRK	79	288	5
TAP	79	336	3
TAP	79	336	5
TAP	80	0	3
TAP	80	48	3
TAP	80	96	2
TAP	80	96	4
TAP	80	144	2
TAP	80	144	4
TAP	80	192	4
TAP	80	240	4
TAP	80	288	2
TAP	80	288	5
TAP	80	336	2
TAP	80	336	5
TAP	81	0	2
TAP	81	48	2
TAP	81	96	1
TAP	81	96	5
TAP	81	144	1
TAP	81	144	5
TAP	81	192	5
TAP	81	240	5
TAP	81	288	3
TAP	81	288	6
TAP	81	336	3
TAP	81	336	6
TAP	82	0	3
TAP	82	48	3
TAP	82	96	2
TAP	82	96	4
TAP	82	144	2
TAP	82	144	4
TAP	82	192	4
TAP	82	240	4
TAP	82	288	3
TAP	82	288	5
TAP	82	336	3
TAP	82	336	5
TAP	83	0	3
TAP	83	48	3
TAP	83	96	2
TAP	83	96	5
TAP	83	144	2
TAP	83	144	5
TAP	83	192	5
TAP	83	240	5
TAP	83	288	3
TAP	83	288	6
TAP	83	336	3
TAP	83	336	6
TAP	84	0	3
TAP	84	48	3
TAP	84	96	3
STR	84	96	6
SI_	84	96	6	96	48	3
STR	84	240	1
SI_	84	240	1	96	48	6
STR	85	0	4
SI_	85	0	4	96	48	1
BRK	85	144	0
STR	85	288	6
SI_	85	288	6	96	48	4
TAP	86	0	2
STR	86	0	6
SI_	86	0	6	96	48	0
TAP	86	96	1
TAP	86	96	6
STR	86	192	1
SI_	86	192	1	96	48	3
TAP	86	192	7
STR	86	288	1
SI_	86	288	1	96	48	7
TAP	86	288	5
TAP	87	0	1
TAP	87	0	6
TAP	87	96	0
STR	87	96	6
SI_	87	96	6	96	48	4
TAP	87	144	0
TAP	87	192	1
STR	87	192	6
SI_	87	192	6	96	48	0
TAP	87	240	1
TAP	87	288	2
TAP	87	288	6
TAP	87	336	2
STR	88	0	2
SI_	88	0	2	96	48	4
TAP	88	0	5
TAP	88	48	5
STR	88	96	2
SI_	88	96	2	96	48	0
TAP	88	96	6
TAP	88	144	6
TAP	88	192	2
TAP	88	192	7
TAP	88	240	7
TAP	88	288	1
STR	88	288	7
SI_	88	288	7	96	48	5
TAP	88	336	1
TAP	89	0	2
STR	89	0	7
SI_	89	0	7	96	48	3
TAP	89	48	2
TAP	89	96	2
TAP	89	96	7
TAP	89	120	1
TAP	89	144	0
STR	89	192	0
SI_	89	192	0	96	48	2
TAP	89	192	4
TAP	89	240	4
STR	89	288	0
SI_	89	288	0	96	48	4
TAP	89	288	5
TAP	89	336	5
TAP	90	0	0
TAP	90	0	5
TAP	90	24	6
TAP	90	48	7
TAP	90	96	2
STR	90	96	7
SCL	90	96	7	96	48	5
TAP	90	144	2
TAP	90	168	1
TAP	90	192	0
STR	90	192	7
SI_	90	192	7	96	48	3
TAP	90	240	0
TAP	90	288	0
TAP	90	288	7
TAP	90	312	1
TAP	90	336	2
STR	91	0	0
SCR	91	0	0	96	48	2
TAP	91	0	6
TAP	91	48	6
TAP	91	72	5
STR	91	96	0
SI_	91	96	0	96	48	4
TAP	91	96	4
TAP	91	144	4
TAP	91	192	0
TAP	91	192	4
TAP	91	216	5
TAP	91	240	6
TAP	91	288	0
STR	91	288	6
SCL	91	288	6	96	48	4
TAP	91	336	0
TAP	91	360	1
TAP	92	0	2
STR	92	0	6
SI_	92	0	6	96	48	2
TAP	92	48	2
TAP	92	96	2
TAP	92	96	6
TAP	92	120	1
TAP	92	144	0
STR	92	192	0
SCR	92	192	0	96	48	3
TAP	92	192	3
TAP	92	240	3
TAP	92	288	0
TAP	92	288	3
TAP	92	304	4
TAP	92	320	5
TAP	92	336	6
BRK	93	0	6
TAP	93	16	5
TAP	93	32	4
TAP	93	48	3
TAP	93	64	2
TAP	93	80	1
TAP	93	96	0
TAP	93	112	7
BRK	93	128	1
BRK	93	128	6
TAP	93	144	2
TAP	93	160	3
TAP	93	176	4
TAP	93	192	5
TAP	93	208	6
TAP	93	224	7
TAP	93	240	0
TAP	93	256	1
TAP	93	256	6
TAP	93	272	2
TAP	93	272	5
STR	93	288	3
SF_	93	288	3	96	624	7
STR	93	288	4
SF_	93	288	4	96	624	0
BRK	95	336	3
BRK	95	336	7
BRK	96	0	1
BRK	96	0	5

T_REC_TAP	931
T_REC_BRK	47
T_REC_XTP	0
T_REC_HLD	98
T_REC_XHO	0
T_REC_STR	86
T_REC_BST	30
T_REC_XST	0
T_REC_TTP	0
T_REC_THO	0
T_REC_SLD	117
T_REC_ALL	1309
T_NUM_TAP	1017
T_NUM_BRK	77
T_NUM_HLD	98
T_NUM_SLD	117
T_NUM_ALL	1309
T_JUDGE_TAP	1094
T_JUDGE_HLD	175
T_JUDGE_SLD	117
T_JUDGE_ALL	1386
TTM_EACHPAIRS	246
TTM_SCR_TAP	508500
TTM_SCR_BRK	200200
TTM_SCR_HLD	98000
TTM_SCR_SLD	175500
TTM_SCR_ALL	982200
TTM_SCR_S	945300
TTM_SCR_SS	974500
TTM_RAT_ACV	10079

