VERSION	0.00.00	1.03.00
FES_MODE	0
BPM_DEF	150.000	150.000	225.000	 75.000
MET_DEF	4	4
RESOLUTION	384
CLK_DEF	384
COMPATIBLE_CODE	MA2

BPM	0	0	150.000
BPM	18	96	200.000
BPM	24	96	150.000
BPM	47	192	 75.000
BPM	51	0	150.000
BPM	71	288	225.000
MET	0	0	4	4
MET	6	0	8	6
MET	13	192	4	3
MET	15	288	4	4
MET	16	288	4	3
MET	18	96	4	3
MET	24	96	8	6
MET	29	192	4	4
MET	30	192	8	6
MET	35	0	16	12
MET	38	0	8	5
MET	39	96	16	12
MET	40	288	8	6
MET	43	288	4	3
MET	44	192	4	4
MET	47	192	4	2
MET	51	0	4	4
MET	52	0	8	15
MET	67	0	8	6
MET	68	192	4	3
MET	70	288	4	4
MET	71	288	4	3
MET	77	288	4	4
MET	79	288	4	6
MET	85	288	8	6

TAP	1	336	0
TAP	1	336	7
STR	1	352	1
SV_	1	352	1	96	1232	2
TAP	1	352	6
TAP	1	368	2
STR	1	368	5
SV_	1	368	5	96	1216	6
TAP	2	0	3
TAP	2	0	4
TAP	5	192	1
TAP	5	212	0
TAP	5	232	1
TAP	5	248	0
TAP	5	268	1
TAP	5	288	5
TAP	5	308	4
TAP	5	328	5
TAP	5	344	4
TAP	5	364	5
BRK	6	0	3
BST	6	0	6
SCR	6	0	6	96	48	1
TAP	6	192	6
TAP	6	216	5
TAP	6	240	4
TAP	6	264	3
STR	6	288	2
SCR	6	288	2	96	48	5
TAP	7	96	2
TAP	7	120	3
TAP	7	144	4
TAP	7	168	5
STR	7	192	1
SCL	7	192	1	96	48	6
TAP	8	0	1
TAP	8	24	0
TAP	8	48	7
TAP	8	72	6
STR	8	96	5
SCL	8	96	5	96	48	2
TAP	8	288	5
TAP	8	312	4
TAP	8	336	3
TAP	8	360	2
STR	9	0	0
SCR	9	0	0	96	48	3
STR	9	96	4
SCR	9	96	4	96	48	7
TAP	9	192	0
TAP	9	216	1
TAP	9	240	2
TAP	9	264	3
STR	9	288	5
SCL	9	288	5	96	48	2
STR	10	0	1
SCL	10	0	1	96	48	6
TAP	10	96	5
TAP	10	120	4
TAP	10	144	3
TAP	10	168	2
STR	10	192	4
SCR	10	192	4	96	48	7
STR	10	288	0
SCR	10	288	0	96	48	3
TAP	11	0	4
TAP	11	24	5
TAP	11	48	6
TAP	11	72	7
STR	11	96	1
SCL	11	96	1	96	48	6
STR	11	192	5
SCL	11	192	5	96	48	2
TAP	11	288	1
TAP	11	312	0
TAP	11	336	7
TAP	11	360	6
TAP	12	0	0
TAP	12	0	5
TAP	12	48	6
TAP	12	72	7
TAP	12	96	6
TAP	12	144	2
TAP	12	144	7
TAP	12	192	1
TAP	12	216	0
TAP	12	240	1
TAP	12	288	3
TAP	12	288	6
TAP	12	336	5
TAP	12	360	4
TAP	13	0	5
TAP	13	48	1
TAP	13	48	4
TAP	13	96	2
TAP	13	120	3
TAP	13	144	2
TAP	13	192	5
TAP	13	216	4
TAP	13	240	4
TAP	13	264	4
TAP	13	288	6
TAP	13	312	4
TAP	13	336	4
TAP	13	360	4
TAP	14	0	7
TAP	14	24	4
TAP	14	48	4
TAP	14	72	4
TAP	14	96	0
TAP	14	120	4
TAP	14	144	4
TAP	14	168	4
TAP	14	192	1
TAP	14	224	4
TAP	14	256	4
BRK	14	288	2
TAP	15	0	7
TAP	15	288	2
TAP	15	304	3
TAP	15	320	4
TAP	15	336	5
TAP	15	352	4
TAP	15	368	3
TAP	16	0	2
HLD	16	288	4	48
HLD	16	360	4	36
HLD	17	48	4	24
HLD	17	120	4	12
TAP	17	192	2
TAP	17	216	5
TAP	17	240	2
TAP	17	264	5
TAP	17	288	3
TAP	17	304	4
TAP	17	320	3
TAP	17	336	4
TAP	17	352	3
TAP	17	368	4
TAP	18	0	3
BRK	18	96	1
BRK	18	96	6
TAP	18	192	4
TAP	18	288	0
TAP	18	336	6
TAP	19	0	1
TAP	19	48	6
TAP	19	96	2
TAP	19	144	6
TAP	19	192	3
TAP	19	240	6
TAP	19	288	1
TAP	19	336	6
TAP	20	0	1
TAP	20	48	5
TAP	20	96	1
TAP	20	144	4
TAP	20	192	0
TAP	20	216	7
TAP	20	240	0
TAP	20	264	7
TAP	20	288	0
TAP	20	336	6
TAP	21	0	0
TAP	21	48	7
TAP	21	96	1
TAP	21	192	5
TAP	21	240	3
TAP	21	288	4
TAP	21	336	2
TAP	22	0	6
TAP	22	24	4
TAP	22	48	6
TAP	22	72	4
TAP	22	96	6
TAP	22	192	1
TAP	22	216	3
TAP	22	240	1
TAP	22	264	3
TAP	22	288	1
TAP	23	0	5
TAP	23	24	2
TAP	23	48	5
TAP	23	72	2
TAP	23	96	5
TAP	23	144	3
TAP	23	192	6
TAP	23	224	2
TAP	23	256	5
TAP	23	288	1
TAP	23	320	4
TAP	23	352	2
TAP	24	0	7
TAP	24	32	0
TAP	24	64	5
STR	24	96	2
SUL	24	96	2	96	48	6
TAP	24	144	3
TAP	24	192	4
STR	24	240	5
SUR	24	240	5	96	48	1
TAP	24	288	4
TAP	24	336	3
STR	25	0	2
SV_	25	0	2	96	48	0
TAP	25	48	7
TAP	25	96	6
STR	25	144	5
SV_	25	144	5	96	48	7
TAP	25	192	1
TAP	25	240	2
STR	25	288	3
SUL	25	288	3	96	96	2
TAP	26	0	6
TAP	26	48	7
TAP	26	96	6
TAP	26	144	5
STR	26	192	4
SUR	26	192	4	96	96	5
TAP	26	288	1
TAP	26	336	0
TAP	27	0	1
TAP	27	48	2
HLD	27	96	3	96
TAP	27	144	5
TAP	27	192	6
TAP	27	240	3
HLD	27	240	7	96
TAP	27	288	2
TAP	27	336	1
HLD	28	0	0	96
TAP	28	0	7
TAP	28	48	6
TAP	28	96	5
TAP	28	144	0
HLD	28	144	4	96
TAP	28	192	1
TAP	28	240	2
HLD	28	288	3	96
TAP	28	288	4
TAP	28	336	5
TAP	29	0	6
TAP	29	48	3
HLD	29	48	7	96
TAP	29	96	2
STR	29	144	1
SI_	29	144	1	96	48	5
TAP	29	192	7
BST	29	240	6
SI_	29	240	6	96	48	3
BST	29	336	2
SI_	29	336	2	96	48	7
BST	30	48	5
SI_	30	48	5	96	48	1
BRK	30	144	3
HLD	30	192	2	96
TAP	30	240	3
TAP	30	288	4
TAP	30	336	2
HLD	30	336	5	96
TAP	31	0	7
TAP	31	48	0
HLD	31	96	1	96
TAP	31	96	5
TAP	31	144	0
TAP	31	192	7
TAP	31	240	1
HLD	31	240	6	96
TAP	31	288	5
TAP	31	336	4
STR	32	0	3
SCL	32	0	3	96	48	0
TAP	32	48	5
TAP	32	96	6
STR	32	144	7
SCL	32	144	7	96	48	4
TAP	32	192	1
TAP	32	240	2
STR	32	288	3
SCL	32	288	3	96	48	0
TAP	32	336	5
TAP	33	0	6
STR	33	48	7
SCL	33	48	7	96	48	4
TAP	33	96	1
TAP	33	144	2
STR	33	192	3
SCL	33	192	3	96	48	0
TAP	33	240	5
TAP	33	288	6
STR	33	336	7
SCL	33	336	7	96	48	4
TAP	34	0	1
TAP	34	48	2
STR	34	96	3
SCL	34	96	3	96	96	4
HLD	35	0	1	48
HLD	35	0	4	48
HLD	35	72	2	48
HLD	35	72	5	48
BRK	35	144	3
BRK	35	144	6
TAP	35	192	1
TAP	35	216	1
TAP	35	240	1
HLD	35	288	0	48
HLD	35	288	5	48
HLD	35	360	1	48
HLD	35	360	6	48
BRK	36	48	2
BRK	36	48	7
TAP	36	96	5
TAP	36	120	5
TAP	36	144	5
HLD	36	192	2	48
HLD	36	192	6	48
HLD	36	264	3	48
HLD	36	264	7	48
HLD	36	336	0	48
HLD	36	336	4	48
HLD	37	24	1	48
HLD	37	24	5	48
HLD	37	96	0	48
HLD	37	96	4	48
HLD	37	168	3	48
HLD	37	168	7	48
BRK	37	240	2
BRK	37	240	6
TAP	37	288	7
TAP	37	312	0
TAP	37	336	6
TAP	37	360	1
STR	38	0	5
SXR	38	0	5	96	96	0
HLD	38	48	5	144
STR	38	240	2
SXL	38	240	2	96	96	7
HLD	38	288	2	144
HLD	39	96	1	48
HLD	39	96	5	48
HLD	39	168	0	48
HLD	39	168	3	48
HLD	39	240	2	48
HLD	39	240	6	48
HLD	39	312	4	48
HLD	39	312	7	48
BRK	40	0	1
BRK	40	0	6
TAP	40	72	2
TAP	40	96	5
TAP	40	112	3
TAP	40	128	4
TAP	40	144	3
TAP	40	160	4
TAP	40	176	2
TAP	40	192	5
TAP	40	288	0
TAP	40	304	1
TAP	40	320	2
TAP	40	336	3
TAP	41	48	7
TAP	41	64	6
TAP	41	80	5
TAP	41	96	4
TAP	41	192	1
TAP	41	208	2
TAP	41	224	3
TAP	41	240	4
TAP	41	336	6
TAP	41	352	5
TAP	41	368	4
TAP	42	0	3
TAP	42	96	0
TAP	42	96	4
TAP	42	112	1
TAP	42	112	5
TAP	42	128	2
TAP	42	128	6
TAP	42	144	3
TAP	42	144	7
TAP	42	240	3
TAP	42	240	7
TAP	42	256	2
TAP	42	256	6
TAP	42	272	1
TAP	42	272	5
TAP	42	288	0
TAP	42	288	4
TAP	43	0	1
TAP	43	0	3
TAP	43	16	2
TAP	43	16	4
TAP	43	32	3
TAP	43	32	5
TAP	43	48	4
TAP	43	48	6
TAP	43	144	4
TAP	43	144	6
TAP	43	160	3
TAP	43	160	5
TAP	43	176	2
TAP	43	176	4
TAP	43	192	1
TAP	43	192	3
TAP	43	288	5
TAP	44	192	7
TAP	44	224	5
TAP	44	256	0
TAP	44	288	4
TAP	44	320	1
TAP	44	352	3
TAP	45	0	2
TAP	45	32	0
TAP	45	64	3
TAP	45	96	7
TAP	45	128	4
TAP	45	160	6
TAP	45	192	2
TAP	45	216	3
TAP	45	240	3
TAP	45	264	3
TAP	45	288	1
TAP	45	312	3
TAP	45	336	3
TAP	45	360	3
TAP	46	0	0
TAP	46	24	3
TAP	46	48	3
TAP	46	72	3
TAP	46	96	7
TAP	46	120	3
TAP	46	144	3
TAP	46	168	3
TAP	46	192	6
TAP	46	224	3
TAP	46	256	3
BST	46	288	5
SCR	46	288	5	96	144	2
SXR	46	288	5	96	144	2
STR	47	192	7
SUL	47	192	7	96	48	3
SUR	47	192	7	96	48	3
TAP	47	216	7
TAP	47	240	1
TAP	47	240	5
TAP	47	264	1
TAP	47	264	5
STR	48	0	1
SUL	48	0	1	96	48	5
SUR	48	0	1	96	48	5
TAP	48	24	1
TAP	48	48	3
TAP	48	48	7
TAP	48	72	3
TAP	48	72	7
STR	48	192	4
SUR	48	192	4	96	48	0
TAP	48	240	6
STR	48	288	3
SUL	48	288	3	96	48	7
TAP	48	336	1
STR	49	0	4
SUL	49	0	4	96	48	3
TAP	49	48	6
TAP	49	96	0
TAP	49	144	2
STR	49	192	7
SLL	49	192	7	96	32	0
STR	49	224	7
SLL	49	224	7	96	32	1
STR	49	256	7
SLL	49	256	7	96	32	2
STR	50	0	0
SLR	50	0	0	96	32	7
STR	50	32	0
SLR	50	32	0	96	32	6
STR	50	64	0
SLR	50	64	0	96	32	5
STR	50	192	7
SCR	50	192	7	96	96	5
STR	50	208	0
SCR	50	208	0	96	112	6
STR	50	224	1
SCR	50	224	1	96	128	7
STR	50	240	2
SCR	50	240	2	96	144	0
STR	50	256	3
SCR	50	256	3	96	160	1
STR	50	272	4
SCR	50	272	4	96	176	2
TAP	51	240	7
TAP	51	264	0
TAP	51	288	7
TAP	51	312	6
TAP	51	336	7
TAP	51	360	0
BST	52	0	1
SCR	52	0	1	96	48	4
TAP	52	96	0
TAP	52	120	7
STR	52	144	6
SCL	52	144	6	96	48	3
TAP	52	240	7
TAP	52	288	1
STR	52	336	0
SI_	52	336	0	96	48	3
TAP	53	48	7
TAP	53	96	1
TAP	53	144	6
STR	53	144	7
SV_	53	144	7	96	48	4
STR	53	168	6
SV_	53	168	6	96	48	1
TAP	53	168	7
STR	53	336	6
SCL	53	336	6	96	48	3
TAP	54	48	7
TAP	54	72	0
STR	54	96	1
SCR	54	96	1	96	48	4
TAP	54	192	0
TAP	54	240	6
STR	54	288	7
SI_	54	288	7	96	48	4
TAP	55	0	0
TAP	55	48	6
STR	55	96	0
SV_	55	96	0	96	48	3
TAP	55	96	1
TAP	55	120	0
STR	55	120	1
SV_	55	120	1	96	48	6
STR	55	288	1
SCR	55	288	1	96	48	4
TAP	56	0	0
TAP	56	24	7
STR	56	48	6
SCL	56	48	6	96	48	3
TAP	56	144	7
TAP	56	192	1
STR	56	240	0
SI_	56	240	0	96	48	3
TAP	56	336	6
TAP	57	0	1
TAP	57	48	0
STR	57	48	7
SV_	57	48	7	96	48	2
STR	57	72	0
SV_	57	72	0	96	48	5
TAP	57	72	7
STR	57	240	6
SCL	57	240	6	96	48	3
TAP	57	336	7
TAP	57	360	0
STR	58	0	1
SCR	58	0	1	96	48	4
TAP	58	96	0
TAP	58	144	6
STR	58	192	7
SI_	58	192	7	96	48	4
TAP	58	288	1
TAP	58	336	6
TAP	59	0	0
TAP	59	0	7
TAP	59	24	1
TAP	59	24	6
TAP	59	96	7
TAP	59	120	0
TAP	59	144	6
TAP	59	168	7
STR	59	192	0
SSR	59	192	0	96	96	4
STR	59	192	6
SSL	59	192	6	96	96	2
TAP	60	48	1
TAP	60	48	5
TAP	60	96	2
TAP	60	96	4
STR	60	144	3
SUL	60	144	3	96	48	7
TAP	60	240	6
TAP	60	288	5
STR	60	336	4
SUR	60	336	4	96	48	0
TAP	61	48	1
TAP	61	96	2
TAP	61	144	3
TAP	61	168	5
TAP	61	192	2
TAP	61	216	4
TAP	61	240	3
TAP	61	264	5
TAP	61	288	4
TAP	61	312	6
TAP	61	336	3
TAP	61	360	5
TAP	62	0	2
TAP	62	24	4
TAP	62	48	1
TAP	62	72	5
TAP	62	96	2
TAP	62	120	6
TAP	62	144	3
TAP	62	168	7
TAP	62	192	2
TAP	62	216	6
TAP	62	240	1
TAP	62	264	5
TAP	62	288	0
TAP	62	312	4
TAP	62	336	1
TAP	62	360	5
TAP	63	0	2
TAP	63	24	6
TAP	63	48	1
TAP	63	72	7
STR	63	96	0
SSL	63	96	0	96	48	4
TAP	63	192	5
TAP	63	216	6
STR	63	240	7
SSR	63	240	7	96	48	3
TAP	63	336	1
TAP	64	0	0
HLD	64	72	1	48
HLD	64	72	3	48
HLD	64	144	4	48
HLD	64	144	6	48
BRK	64	216	0
BRK	64	216	7
TAP	64	228	1
TAP	64	228	6
TAP	64	240	2
TAP	64	240	5
TAP	64	288	0
TAP	64	312	7
TAP	64	336	0
TAP	64	360	1
TAP	65	0	0
TAP	65	24	7
STR	65	48	6
SCL	65	48	6	96	48	3
TAP	65	144	7
TAP	65	168	0
STR	65	192	1
SCR	65	192	1	96	48	4
TAP	65	288	5
TAP	65	336	6
STR	66	0	7
SI_	66	0	7	96	48	3
TAP	66	96	0
TAP	66	144	5
STR	66	192	2
SV_	66	192	2	96	48	0
TAP	66	192	7
TAP	66	216	2
STR	66	216	7
SV_	66	216	7	96	48	5
TAP	67	0	1
TAP	67	48	2
TAP	67	72	4
TAP	67	96	3
TAP	67	144	6
TAP	67	192	5
TAP	67	216	3
TAP	67	240	4
TAP	67	288	2
TAP	67	336	4
TAP	67	360	1
TAP	68	0	3
TAP	68	48	5
TAP	68	96	3
TAP	68	120	6
TAP	68	144	4
TAP	68	192	3
TAP	68	216	4
TAP	68	240	4
TAP	68	264	4
TAP	68	288	5
TAP	68	312	3
TAP	68	336	3
TAP	68	360	3
TAP	69	0	2
TAP	69	24	4
TAP	69	48	4
TAP	69	72	4
TAP	69	96	6
TAP	69	120	3
TAP	69	144	3
TAP	69	168	3
TAP	69	192	1
TAP	69	224	4
TAP	69	256	4
BRK	69	288	3
TAP	70	0	6
TAP	70	288	1
TAP	70	320	3
TAP	70	352	0
TAP	71	0	4
TAP	71	32	7
TAP	71	64	5
TAP	71	96	4
TAP	71	128	6
TAP	71	160	3
TAP	71	192	7
TAP	71	224	2
TAP	71	256	0
BST	71	288	4
SCL	71	288	4	96	96	1
SCR	71	288	4	96	96	7
STR	72	192	0
SCL	72	192	0	96	96	5
SCR	72	192	0	96	96	3
STR	73	96	1
SCR	73	96	1	96	96	4
STR	73	96	4
SCR	73	96	4	96	96	7
STR	74	0	3
SCL	74	0	3	96	96	0
STR	74	0	6
SCL	74	0	6	96	96	3
HLD	74	288	0	96
HLD	74	288	6	96
HLD	75	96	1	96
HLD	75	96	7	96
HLD	75	288	0	96
HLD	75	288	5	96
HLD	76	96	3	96
HLD	76	96	7	96
HLD	76	240	2	96
HLD	76	240	4	96
HLD	77	0	3	96
HLD	77	0	6	96
HLD	77	144	1	96
HLD	77	144	4	96
HLD	77	288	5	96
HLD	78	0	7	96
HLD	78	96	3	96
HLD	78	192	1	96
HLD	78	288	0	64
HLD	78	352	7	64
HLD	79	32	6	64
HLD	79	96	7	64
HLD	79	160	0	64
HLD	79	224	1	64
TAP	79	288	7
TAP	79	336	7
TAP	80	0	7
TAP	80	48	2
TAP	80	96	2
TAP	80	144	2
TAP	80	192	5
TAP	80	240	5
TAP	80	288	5
TAP	80	336	0
TAP	81	0	0
TAP	81	48	0
TAP	81	96	5
TAP	81	144	5
TAP	81	192	4
TAP	81	240	2
TAP	81	288	2
TAP	81	336	3
TAP	82	0	4
TAP	82	48	4
TAP	82	96	5
TAP	82	144	3
TAP	82	192	3
TAP	82	240	2
TAP	82	288	0
TAP	82	336	0
TAP	83	0	0
TAP	83	48	5
TAP	83	96	5
TAP	83	144	5
TAP	83	192	2
TAP	83	240	2
TAP	83	288	2
TAP	83	336	7
TAP	84	0	7
TAP	84	48	7
BST	84	96	0
SI_	84	96	0	96	48	5
TAP	84	192	7
BST	84	240	7
SI_	84	240	7	96	48	2
TAP	84	336	1
BST	85	0	1
SI_	85	0	1	96	48	4
TAP	85	96	6
BST	85	144	6
SI_	85	144	6	96	48	3
TAP	85	240	0
STR	85	288	0
SI_	85	288	0	96	48	4
STR	86	0	7
SI_	86	0	7	96	48	5
BRK	86	96	1
STR	86	192	7
SI_	86	192	7	96	48	3
STR	86	288	0
SI_	86	288	0	96	48	2
BRK	87	0	6
STR	87	96	1
SI_	87	96	1	96	48	4
STR	87	192	0
SI_	87	192	0	96	48	5
BRK	87	288	7
STR	88	0	6
SI_	88	0	6	96	48	3
STR	88	96	7
SI_	88	96	7	96	48	2
BRK	88	192	0
STR	88	288	1
SI_	88	288	1	96	48	5
BST	89	0	7
SI_	89	0	7	96	48	3
TAP	89	96	0
BST	89	192	6
SI_	89	192	6	96	48	2
STR	89	288	0
SI_	89	288	0	96	48	4
BRK	90	0	7
STR	90	96	1
SI_	90	96	1	96	48	6
BST	90	192	5
SI_	90	192	5	96	48	2
STR	90	288	0
SI_	90	288	0	96	48	4
BST	91	0	7
SI_	91	0	7	96	48	3
STR	91	96	2
SI_	91	96	2	96	48	5
BST	91	192	6
SI_	91	192	6	96	48	1
BST	91	288	0
SI_	91	288	0	96	48	5
BST	92	0	7
SI_	92	0	7	96	48	2
BST	92	96	1
SI_	92	96	1	96	48	4
BST	92	192	6
SI_	92	192	6	96	48	3
BST	92	288	2
SI_	92	288	2	96	48	7
BST	93	0	5
SI_	93	0	5	96	48	0
BST	93	96	1
SUR	93	96	1	96	864	3
BST	93	192	6
SXL	93	192	6	96	768	4
BRK	95	336	2
BRK	95	336	5
BRK	96	0	0
BRK	96	0	7

T_REC_TAP	521
T_REC_BRK	25
T_REC_XTP	0
T_REC_HLD	72
T_REC_XHO	0
T_REC_STR	92
T_REC_BST	24
T_REC_XST	0
T_REC_TTP	0
T_REC_THO	0
T_REC_SLD	121
T_REC_ALL	855
T_NUM_TAP	613
T_NUM_BRK	49
T_NUM_HLD	72
T_NUM_SLD	121
T_NUM_ALL	855
T_JUDGE_TAP	662
T_JUDGE_HLD	110
T_JUDGE_SLD	121
T_JUDGE_ALL	893
TTM_EACHPAIRS	85
TTM_SCR_TAP	306500
TTM_SCR_BRK	127400
TTM_SCR_HLD	72000
TTM_SCR_SLD	181500
TTM_SCR_ALL	687400
TTM_SCR_S	662050
TTM_SCR_SS	682500
TTM_RAT_ACV	10071

