VERSION	0.00.00	1.03.00
FES_MODE	0
BPM_DEF	150.000	150.000	225.000	 75.000
MET_DEF	4	4
RESOLUTION	384
CLK_DEF	384
COMPATIBLE_CODE	MA2

BPM	0	0	150.000
BPM	18	96	200.000
BPM	24	96	150.000
BPM	47	192	 75.000
BPM	51	0	150.000
BPM	71	288	225.000
MET	0	0	4	4
MET	6	0	8	6
MET	13	192	4	3
MET	15	288	4	4
MET	16	288	4	3
MET	18	96	4	3
MET	24	96	8	6
MET	29	192	4	4
MET	30	192	8	6
MET	35	0	16	12
MET	38	0	8	5
MET	39	96	16	12
MET	40	288	8	6
MET	43	288	4	3
MET	44	192	4	4
MET	47	192	4	2
MET	51	0	4	4
MET	52	0	8	15
MET	67	0	8	6
MET	68	192	4	3
MET	70	288	4	4
MET	71	288	4	3
MET	77	288	4	4
MET	79	288	4	6
MET	85	288	8	6

TAP	2	0	0
TAP	2	0	7
TAP	2	192	1
TAP	3	0	2
TAP	3	192	3
TAP	4	0	4
TAP	4	192	5
TAP	5	0	6
TAP	5	96	6
TAP	5	192	7
BRK	5	288	7
TAP	6	0	6
TAP	6	48	6
TAP	6	96	5
TAP	6	144	5
TAP	6	192	3
TAP	6	192	4
TAP	6	288	2
TAP	6	336	2
TAP	7	0	1
TAP	7	48	1
TAP	7	96	0
TAP	7	96	7
TAP	7	192	1
TAP	7	240	1
TAP	7	288	2
TAP	7	336	2
TAP	8	0	3
TAP	8	0	4
TAP	8	96	5
TAP	8	144	5
TAP	8	192	6
TAP	8	240	6
TAP	8	288	0
TAP	8	288	7
TAP	9	0	6
TAP	9	48	6
TAP	9	96	5
TAP	9	144	5
TAP	9	192	3
TAP	9	192	4
TAP	9	240	3
TAP	9	240	4
TAP	9	288	2
TAP	9	336	2
TAP	10	0	1
TAP	10	48	1
TAP	10	96	0
TAP	10	96	7
TAP	10	144	0
TAP	10	144	7
TAP	10	192	1
TAP	10	240	1
TAP	10	288	2
TAP	10	336	2
TAP	11	0	3
TAP	11	0	4
TAP	11	48	3
TAP	11	48	4
TAP	11	96	5
TAP	11	144	5
TAP	11	192	6
TAP	11	240	6
TAP	11	288	0
TAP	11	288	7
TAP	11	336	0
TAP	11	336	7
TAP	12	0	6
TAP	12	48	6
TAP	12	96	6
TAP	12	144	5
TAP	12	192	5
TAP	12	240	5
TAP	12	288	4
TAP	12	336	4
TAP	13	0	4
TAP	13	48	3
TAP	13	96	3
TAP	13	144	3
TAP	13	192	2
TAP	13	288	3
TAP	14	0	4
TAP	14	96	5
TAP	14	192	6
TAP	14	288	7
BRK	15	0	0
BRK	15	288	7
TAP	16	288	0
TAP	16	360	0
TAP	17	48	0
TAP	17	120	0
STR	17	192	0
SI_	17	192	0	96	96	3
HLD	18	96	5	480
TAP	18	192	4
TAP	18	288	4
TAP	19	0	3
TAP	19	48	3
TAP	19	96	3
TAP	19	192	4
HLD	19	288	2	480
TAP	20	0	3
TAP	20	96	3
TAP	20	192	4
TAP	20	240	4
TAP	20	288	4
TAP	21	0	3
HLD	21	96	5	480
TAP	21	192	4
TAP	21	288	4
TAP	22	0	3
TAP	22	48	3
TAP	22	96	3
TAP	22	192	4
HLD	22	288	2	192
TAP	23	0	3
TAP	23	96	3
TAP	23	192	2
TAP	23	192	3
TAP	23	288	1
TAP	23	288	4
TAP	24	0	0
TAP	24	0	5
TAP	24	96	6
TAP	24	144	6
TAP	24	192	6
TAP	24	240	4
TAP	24	240	6
TAP	24	288	4
TAP	24	336	4
TAP	25	0	4
TAP	25	0	5
TAP	25	48	5
TAP	25	96	5
TAP	25	144	2
TAP	25	144	5
TAP	25	192	2
TAP	25	192	5
TAP	25	288	1
TAP	25	336	1
TAP	26	0	1
TAP	26	48	1
TAP	26	48	3
TAP	26	96	3
TAP	26	144	3
TAP	26	192	2
TAP	26	192	3
TAP	26	240	2
TAP	26	288	2
TAP	26	336	2
TAP	26	336	5
TAP	27	96	7
TAP	27	144	6
TAP	27	192	5
TAP	27	240	4
TAP	28	0	0
TAP	28	48	1
TAP	28	96	2
TAP	28	144	3
TAP	28	288	7
TAP	28	336	6
TAP	29	0	5
TAP	29	48	4
TAP	29	96	3
TAP	29	144	2
TAP	29	192	1
TAP	29	240	0
TAP	29	240	7
TAP	29	336	1
TAP	29	336	6
TAP	30	48	2
TAP	30	48	5
TAP	30	144	3
TAP	30	144	4
TAP	30	192	4
TAP	30	240	5
TAP	30	288	6
TAP	30	336	7
TAP	31	96	3
TAP	31	144	2
TAP	31	192	1
TAP	31	240	0
HLD	32	0	1	144
HLD	32	144	2	144
HLD	32	288	3	144
HLD	33	48	4	144
HLD	33	192	5	144
HLD	33	336	6	144
HLD	34	96	7	144
TAP	34	240	0
TAP	35	0	1
TAP	35	0	2
TAP	35	72	1
TAP	35	72	2
TAP	35	144	1
TAP	35	144	2
TAP	35	288	5
TAP	35	288	6
TAP	35	360	5
TAP	35	360	6
TAP	36	48	5
TAP	36	48	6
TAP	36	192	1
TAP	36	192	2
TAP	36	264	1
TAP	36	264	2
TAP	36	336	1
TAP	36	336	2
TAP	37	24	3
TAP	37	24	4
TAP	37	96	5
TAP	37	96	6
TAP	37	168	5
TAP	37	168	6
TAP	37	240	5
TAP	37	240	6
BRK	38	0	7
BRK	38	48	7
BRK	38	240	0
BRK	38	288	0
TAP	39	96	0
TAP	39	96	7
TAP	39	168	1
TAP	39	168	6
TAP	39	240	2
TAP	39	240	5
STR	39	312	3
SI_	39	312	3	96	120	0
STR	39	312	4
SI_	39	312	4	96	120	7
TAP	40	288	6
HLD	40	288	7	144
TAP	41	0	6
TAP	41	48	6
HLD	41	192	4	144
TAP	41	192	5
TAP	41	288	5
TAP	41	336	5
TAP	42	96	2
HLD	42	96	3	144
TAP	42	192	2
TAP	42	240	2
HLD	43	0	0	144
TAP	43	0	1
TAP	43	96	1
TAP	43	144	1
STR	43	288	7
SI_	43	288	7	96	192	3
TAP	45	192	3
TAP	45	288	3
TAP	45	288	4
TAP	46	0	4
TAP	46	96	3
TAP	46	96	4
TAP	46	192	3
TAP	46	288	3
TAP	46	288	4
TAP	47	0	2
TAP	47	0	5
HLD	47	192	4	48
HLD	47	240	5	48
HLD	47	288	6	48
HLD	47	336	7	48
HLD	48	0	0	48
HLD	48	48	1	48
HLD	48	96	2	48
HLD	48	144	3	48
HLD	48	192	2	48
HLD	48	240	1	48
HLD	48	288	0	48
HLD	48	336	7	48
HLD	49	0	6	48
HLD	49	48	5	48
TAP	49	96	4
HLD	49	192	5	32
HLD	49	224	4	32
HLD	49	256	3	32
HLD	49	288	2	32
HLD	49	320	1	32
HLD	49	352	0	32
HLD	50	0	7	32
HLD	50	32	6	32
HLD	50	64	5	32
HLD	50	96	4	32
HLD	50	128	3	32
HLD	50	160	2	32
HLD	50	192	1	32
HLD	50	224	0	32
HLD	50	256	7	32
HLD	50	288	6	32
HLD	50	320	5	32
HLD	50	352	4	32
TAP	51	0	3
TAP	52	0	5
TAP	52	48	4
TAP	52	96	3
TAP	52	144	2
TAP	52	240	1
TAP	52	240	3
TAP	52	288	2
TAP	52	288	4
TAP	52	336	3
TAP	52	336	5
TAP	53	48	6
TAP	53	96	0
TAP	53	96	7
TAP	53	144	1
TAP	53	192	2
TAP	53	240	3
TAP	53	288	4
TAP	53	336	2
TAP	54	0	3
TAP	54	48	4
TAP	54	96	5
TAP	54	192	4
TAP	54	192	6
TAP	54	240	3
TAP	54	240	5
TAP	54	288	2
TAP	54	288	4
TAP	55	0	1
TAP	55	48	0
TAP	55	48	7
TAP	55	96	6
TAP	55	144	5
TAP	55	192	4
TAP	55	240	3
TAP	55	288	5
TAP	55	336	4
TAP	56	0	3
TAP	56	48	2
TAP	56	144	1
TAP	56	144	3
TAP	56	192	2
TAP	56	192	4
TAP	56	240	3
TAP	56	240	5
TAP	56	336	6
TAP	57	0	0
TAP	57	0	7
TAP	57	48	1
TAP	57	96	2
TAP	57	144	3
TAP	57	192	4
TAP	57	240	2
TAP	57	288	3
TAP	57	336	4
TAP	58	0	5
TAP	58	96	4
TAP	58	96	6
TAP	58	144	3
TAP	58	144	5
TAP	58	192	2
TAP	58	192	4
TAP	58	288	1
TAP	58	336	0
TAP	58	336	7
TAP	59	0	6
TAP	59	48	5
TAP	59	96	4
TAP	59	144	3
HLD	59	192	2	96
TAP	59	288	3
TAP	60	0	2
TAP	60	48	3
TAP	60	96	4
HLD	60	144	5	96
TAP	60	240	4
TAP	60	336	5
TAP	61	0	4
TAP	61	48	3
TAP	61	48	4
TAP	61	144	4
TAP	61	192	4
TAP	61	240	5
TAP	61	288	5
TAP	61	336	6
TAP	62	0	6
TAP	62	48	7
TAP	62	96	7
TAP	62	144	0
TAP	62	192	0
TAP	62	240	1
TAP	62	288	1
TAP	62	336	2
TAP	63	0	2
TAP	63	48	3
TAP	63	96	3
TAP	63	96	4
TAP	63	192	4
TAP	63	240	3
TAP	63	288	2
TAP	63	336	1
TAP	64	0	1
TAP	64	72	0
TAP	64	72	7
TAP	64	144	1
TAP	64	144	2
TAP	64	216	3
TAP	64	216	4
TAP	64	288	5
TAP	64	288	6
TAP	64	336	4
TAP	65	0	3
TAP	65	48	5
TAP	65	96	4
TAP	65	144	3
TAP	65	192	2
TAP	65	288	1
TAP	65	288	3
TAP	65	336	2
TAP	65	336	4
TAP	66	0	3
TAP	66	0	5
TAP	66	96	6
TAP	66	144	0
TAP	66	144	7
TAP	66	192	1
TAP	66	240	2
TAP	66	288	3
TAP	66	336	4
HLD	67	0	5	144
HLD	67	144	4	144
HLD	67	288	3	144
TAP	68	48	2
TAP	68	192	2
TAP	68	240	2
TAP	68	288	2
TAP	68	288	4
TAP	68	336	4
TAP	69	0	3
TAP	69	0	4
TAP	69	48	3
TAP	69	96	3
TAP	69	96	5
TAP	69	144	5
TAP	69	192	3
TAP	69	192	5
TAP	69	240	3
TAP	69	288	3
TAP	69	288	4
TAP	69	336	4
BRK	70	0	4
BRK	70	288	3
STR	71	288	4
SI_	71	288	4	96	96	7
STR	72	192	0
SI_	72	192	0	96	96	3
STR	73	96	4
SI_	73	96	4	96	96	7
STR	74	0	0
SI_	74	0	0	96	96	3
TAP	74	288	4
TAP	75	0	4
TAP	75	96	5
TAP	75	192	5
TAP	75	288	6
TAP	76	0	6
TAP	76	96	7
TAP	76	192	7
TAP	76	288	0
TAP	77	0	1
TAP	77	96	2
TAP	77	192	3
TAP	77	288	4
TAP	78	0	5
TAP	78	96	6
TAP	78	192	7
TAP	78	288	0
TAP	79	0	1
TAP	79	96	2
TAP	79	192	3
HLD	79	288	4	288
TAP	80	0	3
TAP	80	48	3
TAP	80	96	3
HLD	80	192	3	288
TAP	80	288	4
TAP	80	336	4
TAP	81	0	4
HLD	81	96	4	288
TAP	81	192	3
TAP	81	240	3
TAP	81	288	3
HLD	82	0	3	288
TAP	82	96	4
TAP	82	144	4
TAP	82	192	4
HLD	82	288	4	288
TAP	83	0	2
TAP	83	48	2
TAP	83	96	2
HLD	83	192	3	288
TAP	83	288	5
TAP	83	336	5
TAP	84	0	5
TAP	84	96	4
TAP	84	240	2
TAP	84	240	5
TAP	85	0	1
TAP	85	0	6
TAP	85	144	0
TAP	85	144	7
TAP	85	288	2
TAP	86	0	1
TAP	86	96	0
TAP	86	192	7
TAP	86	288	6
TAP	87	0	5
HLD	87	96	5	96
HLD	87	192	6	96
HLD	87	288	7	96
HLD	88	0	0	96
HLD	88	96	1	96
TAP	88	192	2
TAP	88	288	2
TAP	88	336	2
TAP	89	0	1
TAP	89	48	1
TAP	89	96	0
TAP	89	144	0
TAP	89	192	7
TAP	89	240	7
TAP	89	288	6
TAP	89	336	6
TAP	90	0	5
TAP	90	96	5
TAP	90	144	6
TAP	90	192	7
TAP	90	240	0
TAP	90	288	1
TAP	90	336	2
TAP	91	0	2
TAP	91	48	1
TAP	91	96	0
TAP	91	144	7
TAP	91	192	6
TAP	91	240	5
TAP	91	288	3
TAP	91	288	4
TAP	91	336	5
TAP	92	0	6
TAP	92	48	0
TAP	92	48	7
TAP	92	96	1
TAP	92	144	2
TAP	92	192	3
TAP	92	192	4
TAP	92	240	2
TAP	92	288	1
TAP	92	336	0
TAP	92	336	7
TAP	93	0	6
TAP	93	48	5
TAP	93	96	3
TAP	93	96	4
TAP	93	144	3
TAP	93	144	4
TAP	93	192	2
TAP	93	192	5
STR	93	240	1
SLR	93	240	1	96	672	0
STR	93	240	6
SLL	93	240	6	96	672	7
BRK	95	336	0
BRK	95	336	7
BRK	96	0	2
BRK	96	0	5

T_REC_TAP	472
T_REC_BRK	13
T_REC_XTP	0
T_REC_HLD	63
T_REC_XHO	0
T_REC_STR	10
T_REC_BST	0
T_REC_XST	0
T_REC_TTP	0
T_REC_THO	0
T_REC_SLD	10
T_REC_ALL	568
T_NUM_TAP	482
T_NUM_BRK	13
T_NUM_HLD	63
T_NUM_SLD	10
T_NUM_ALL	568
T_JUDGE_TAP	495
T_JUDGE_HLD	190
T_JUDGE_SLD	10
T_JUDGE_ALL	695
TTM_EACHPAIRS	96
TTM_SCR_TAP	241000
TTM_SCR_BRK	33800
TTM_SCR_HLD	63000
TTM_SCR_SLD	15000
TTM_SCR_ALL	352800
TTM_SCR_S	341000
TTM_SCR_SS	351500
TTM_RAT_ACV	10036

