VERSION	0.00.00	1.03.00
FES_MODE	0
BPM_DEF	150.000	150.000	225.000	 75.000
MET_DEF	4	4
RESOLUTION	384
CLK_DEF	384
COMPATIBLE_CODE	MA2

BPM	0	0	150.000
BPM	18	96	200.000
BPM	24	96	150.000
BPM	47	192	 75.000
BPM	51	0	150.000
BPM	71	288	225.000
MET	0	0	4	4
MET	6	0	8	6
MET	13	192	4	3
MET	15	288	4	4
MET	16	288	4	3
MET	18	96	4	3
MET	24	96	8	6
MET	29	192	4	4
MET	30	192	8	6
MET	35	0	16	12
MET	38	0	8	5
MET	39	96	16	12
MET	40	288	8	6
MET	43	288	4	3
MET	44	192	4	4
MET	47	192	4	2
MET	51	0	4	4
MET	52	0	8	15
MET	67	0	8	6
MET	68	192	4	3
MET	70	288	4	4
MET	71	288	4	3
MET	77	288	4	4
MET	79	288	4	6
MET	85	288	8	6

HLD	2	0	0	192
HLD	3	0	1	192
HLD	4	0	2	192
HLD	5	0	3	192
BRK	6	0	4
TAP	6	96	4
TAP	6	288	5
TAP	7	0	5
TAP	7	192	6
TAP	7	288	6
TAP	8	96	7
TAP	8	192	7
TAP	9	0	0
TAP	9	96	0
TAP	9	192	0
TAP	9	288	1
TAP	10	0	1
TAP	10	96	1
TAP	10	192	2
TAP	10	288	2
TAP	11	0	2
TAP	11	96	3
TAP	11	192	3
TAP	11	288	3
STR	12	0	3
SI_	12	0	3	96	192	0
STR	12	0	4
SI_	12	0	4	96	192	7
BRK	13	192	0
STR	15	0	7
SI_	15	0	7	96	192	3
HLD	16	288	0	288
TAP	17	192	7
TAP	18	96	7
TAP	18	192	7
TAP	18	288	7
TAP	19	0	6
TAP	19	96	6
TAP	19	288	5
TAP	20	0	5
TAP	20	96	5
TAP	20	192	4
TAP	20	288	4
TAP	21	96	3
TAP	21	192	3
TAP	21	288	3
TAP	22	0	2
TAP	22	96	2
TAP	22	288	1
TAP	23	0	1
TAP	23	96	1
HLD	23	192	0	192
HLD	23	192	7	192
TAP	24	96	0
TAP	24	96	7
TAP	24	192	1
TAP	24	240	1
TAP	25	0	1
TAP	25	96	2
TAP	25	144	2
TAP	25	288	2
TAP	26	0	3
TAP	26	48	3
TAP	26	192	3
TAP	26	240	4
TAP	26	288	3
TAP	26	336	4
TAP	27	96	4
TAP	27	192	5
TAP	27	240	5
TAP	28	0	5
TAP	28	96	6
TAP	28	144	6
TAP	28	288	6
TAP	29	0	7
TAP	29	48	7
HLD	29	192	0	240
HLD	29	192	7	240
TAP	30	192	7
TAP	30	288	7
TAP	30	336	0
TAP	30	336	7
TAP	31	96	6
TAP	31	192	6
TAP	31	240	6
TAP	31	240	7
TAP	32	0	5
TAP	32	48	4
TAP	32	96	5
TAP	32	144	4
TAP	32	288	2
TAP	32	336	3
TAP	33	0	2
TAP	33	48	3
TAP	33	192	4
TAP	33	240	3
TAP	33	288	4
TAP	33	336	3
TAP	34	96	3
TAP	34	96	4
TAP	34	192	2
TAP	34	192	5
TAP	34	240	2
TAP	34	240	5
HLD	35	0	2	144
HLD	35	0	3	144
HLD	35	288	4	144
HLD	35	288	5	144
TAP	36	192	2
TAP	36	192	3
TAP	36	264	2
TAP	36	264	3
TAP	36	336	4
TAP	36	336	5
TAP	37	24	4
TAP	37	24	5
TAP	37	96	2
TAP	37	96	3
TAP	37	168	3
TAP	37	168	4
TAP	37	240	4
TAP	37	240	5
TAP	38	0	7
TAP	38	48	7
TAP	38	240	0
TAP	38	288	0
STR	39	96	0
SI_	39	96	0	96	192	3
STR	39	96	7
SI_	39	96	7	96	192	4
HLD	40	288	3	96
HLD	41	48	3	96
HLD	41	192	4	96
HLD	41	336	4	96
HLD	42	96	3	96
HLD	42	240	2	96
HLD	43	0	1	96
TAP	43	144	0
TAP	43	144	7
STR	43	288	7
SI_	43	288	7	96	192	3
BRK	45	192	0
STR	47	192	7
SCL	47	192	7	96	96	4
TAP	48	96	3
STR	48	192	3
SCL	48	192	3	96	96	0
TAP	49	96	6
STR	49	192	6
SCR	49	192	6	96	96	1
TAP	50	96	2
STR	50	192	2
SCR	50	192	2	96	96	5
TAP	52	0	0
TAP	52	96	7
TAP	52	144	7
TAP	52	240	0
TAP	52	336	1
TAP	53	96	2
TAP	53	96	3
TAP	53	168	2
TAP	53	168	3
TAP	53	240	2
TAP	53	240	3
TAP	53	336	4
TAP	54	48	3
TAP	54	96	3
TAP	54	192	4
TAP	54	288	5
TAP	55	48	6
TAP	55	48	7
TAP	55	120	6
TAP	55	120	7
TAP	55	192	6
TAP	55	192	7
TAP	55	288	7
TAP	56	0	0
TAP	56	48	0
TAP	56	144	7
TAP	56	240	6
TAP	57	0	4
TAP	57	0	5
TAP	57	72	4
TAP	57	72	5
TAP	57	144	4
TAP	57	144	5
TAP	57	240	3
TAP	57	336	4
TAP	58	0	4
TAP	58	96	3
TAP	58	192	2
TAP	58	336	0
TAP	58	336	1
TAP	59	24	0
TAP	59	24	1
TAP	59	96	0
TAP	59	96	1
STR	59	192	0
SI_	59	192	0	96	288	5
STR	59	192	1
SI_	59	192	1	96	288	4
STR	61	144	6
SI_	61	144	6	96	288	3
STR	61	144	7
SI_	61	144	7	96	288	2
HLD	63	96	3	240
HLD	63	96	4	240
TAP	64	72	2
TAP	64	72	4
TAP	64	144	2
TAP	64	144	4
TAP	64	216	3
TAP	64	216	5
TAP	64	288	3
TAP	64	288	5
HLD	65	48	4	144
HLD	65	48	5	144
HLD	66	0	2	144
HLD	66	0	3	144
TAP	67	0	4
TAP	67	0	5
TAP	67	144	2
TAP	67	144	3
TAP	67	288	0
TAP	67	288	1
TAP	68	48	6
TAP	68	48	7
BRK	68	192	0
STR	70	0	7
SI_	70	0	7	96	192	3
TAP	71	288	4
TAP	71	288	5
TAP	72	192	4
TAP	72	192	5
TAP	73	96	6
TAP	73	96	7
TAP	74	0	6
TAP	74	0	7
TAP	74	288	0
TAP	74	288	1
TAP	75	192	0
TAP	75	192	1
TAP	76	96	2
TAP	76	96	3
TAP	77	0	2
TAP	77	0	3
HLD	77	288	4	192
HLD	78	288	5	192
TAP	79	288	6
TAP	80	0	6
TAP	80	96	6
TAP	80	192	7
TAP	80	288	7
TAP	81	0	7
TAP	81	96	0
TAP	81	192	0
TAP	81	288	0
TAP	82	0	1
TAP	82	96	1
TAP	82	192	1
TAP	82	288	2
TAP	83	0	2
TAP	83	96	3
TAP	83	192	3
TAP	83	288	4
TAP	84	0	4
TAP	84	96	5
TAP	84	192	5
TAP	84	288	6
TAP	85	0	6
TAP	85	96	7
TAP	85	192	7
TAP	85	288	0
TAP	86	0	1
TAP	86	96	2
TAP	86	192	3
TAP	86	288	4
TAP	87	0	5
TAP	87	96	6
TAP	87	192	7
TAP	87	288	0
TAP	88	0	1
TAP	88	96	2
TAP	88	192	3
TAP	88	288	4
TAP	89	0	5
TAP	89	96	6
TAP	89	192	7
TAP	89	288	0
TAP	90	0	2
TAP	90	96	4
TAP	90	192	6
TAP	90	288	0
TAP	91	0	2
TAP	91	96	4
TAP	91	192	6
TAP	91	288	0
TAP	92	0	3
TAP	92	96	6
TAP	92	192	1
TAP	92	288	4
TAP	93	0	7
TAP	93	96	2
TAP	93	192	5
HLD	93	288	0	816
BRK	95	336	7
BRK	96	0	0

T_REC_TAP	242
T_REC_BRK	6
T_REC_XTP	0
T_REC_HLD	29
T_REC_XHO	0
T_REC_STR	15
T_REC_BST	0
T_REC_XST	0
T_REC_TTP	0
T_REC_THO	0
T_REC_SLD	15
T_REC_ALL	307
T_NUM_TAP	257
T_NUM_BRK	6
T_NUM_HLD	29
T_NUM_SLD	15
T_NUM_ALL	307
T_JUDGE_TAP	263
T_JUDGE_HLD	113
T_JUDGE_SLD	15
T_JUDGE_ALL	391
TTM_EACHPAIRS	53
TTM_SCR_TAP	128500
TTM_SCR_BRK	15600
TTM_SCR_HLD	29000
TTM_SCR_SLD	22500
TTM_SCR_ALL	195600
TTM_SCR_S	189150
TTM_SCR_SS	195000
TTM_RAT_ACV	10030

