VERSION	0.00.00	1.03.00
FES_MODE	0
BPM_DEF	240.000	240.000	240.000	240.000
MET_DEF	4	4
RESOLUTION	384
CLK_DEF	384
COMPATIBLE_CODE	MA2

BPM	0	0	240.000
MET	0	0	4	4
MET	43	0	4	3
MET	46	0	4	2
MET	46	192	4	3
MET	49	192	4	2
MET	50	0	4	3
MET	53	0	4	2
MET	53	192	4	3
MET	56	192	4	2
MET	57	0	4	3
MET	60	0	4	2
MET	60	192	4	3
MET	63	192	4	2
MET	64	0	4	4

HLD	2	0	2	96
HLD	2	96	4	96
HLD	2	192	3	96
TAP	2	240	4
HLD	2	288	5	144
HLD	2	336	4	144
TAP	3	96	5
TAP	3	192	4
TAP	3	192	5
TAP	3	288	3
TAP	3	288	6
TAP	4	0	4
STR	4	0	6
SI_	4	0	6	96	48	4
TAP	4	96	2
TAP	4	192	1
TAP	4	240	1
TAP	4	288	3
TAP	4	336	3
STR	5	0	1
SI_	5	0	1	96	48	3
TAP	5	0	3
TAP	5	96	5
TAP	5	192	5
TAP	5	288	4
TAP	5	288	5
HLD	6	0	5	96
HLD	6	96	3	96
HLD	6	192	4	96
TAP	6	240	3
HLD	6	288	2	144
HLD	6	336	3	144
TAP	7	96	2
TAP	7	192	2
TAP	7	192	3
TAP	7	288	1
TAP	7	288	4
TAP	8	0	5
HLD	8	48	5	96
TAP	8	96	2
HLD	8	144	2	96
TAP	8	192	4
HLD	8	240	4	48
BRK	8	288	1
TAP	9	0	0
TAP	9	48	0
TAP	9	96	7
TAP	9	144	7
TAP	9	192	2
TAP	9	192	6
TAP	9	240	2
TAP	9	240	6
TAP	9	288	1
TAP	9	288	5
TAP	9	336	1
TAP	9	336	5
STR	10	0	1
SI_	10	0	1	96	48	3
TAP	10	0	5
TAP	10	96	0
TAP	10	96	1
STR	10	192	0
SI_	10	192	0	96	48	4
TAP	10	288	0
TAP	10	288	7
STR	11	0	7
SI_	11	0	7	96	48	5
TAP	11	96	5
TAP	11	96	7
TAP	11	192	4
TAP	11	288	3
TAP	11	288	5
HLD	12	0	4	96
TAP	12	0	6
TAP	12	48	6
TAP	12	96	5
HLD	12	144	5	96
TAP	12	192	3
TAP	12	240	3
HLD	12	288	4	96
TAP	12	288	6
TAP	12	336	6
TAP	13	0	5
TAP	13	48	3
TAP	13	96	3
TAP	13	96	4
TAP	13	192	3
TAP	13	192	4
TAP	13	288	2
TAP	13	288	5
TAP	14	0	1
STR	14	0	7
SLL	14	0	7	96	144	1
TAP	14	96	3
TAP	14	192	2
TAP	14	240	2
TAP	14	288	0
TAP	14	288	2
STR	15	0	0
SLR	15	0	0	96	144	6
TAP	15	0	6
TAP	15	96	4
TAP	15	192	5
TAP	15	240	5
TAP	15	288	5
TAP	15	288	7
STR	16	0	6
SI_	16	0	6	96	48	3
STR	16	48	1
SI_	16	48	1	96	48	4
TAP	16	192	7
TAP	16	288	0
TAP	16	288	7
TAP	17	0	4
TAP	17	0	6
TAP	17	48	6
TAP	17	96	3
TAP	17	96	5
TAP	17	144	3
TAP	17	192	2
TAP	17	192	4
TAP	17	240	4
TAP	17	288	1
TAP	17	288	5
STR	18	0	6
SI_	18	0	6	96	48	4
TAP	18	96	6
TAP	18	96	7
STR	18	192	7
SI_	18	192	7	96	48	3
TAP	18	288	0
TAP	18	288	7
STR	19	0	0
SI_	19	0	0	96	48	2
TAP	19	96	0
TAP	19	96	2
TAP	19	192	3
TAP	19	288	2
TAP	19	288	4
TAP	20	0	1
HLD	20	0	3	96
TAP	20	48	1
TAP	20	96	2
HLD	20	144	2	96
TAP	20	192	4
TAP	20	240	4
TAP	20	288	1
HLD	20	288	3	96
TAP	20	336	1
TAP	21	0	2
TAP	21	48	2
TAP	21	48	3
TAP	21	96	1
TAP	21	96	4
TAP	21	192	0
TAP	21	192	7
TAP	21	288	3
TAP	21	288	4
STR	22	0	0
SLR	22	0	0	96	144	6
TAP	22	0	6
TAP	22	96	4
TAP	22	192	5
TAP	22	240	5
TAP	22	288	0
TAP	22	288	5
TAP	23	0	1
STR	23	0	7
SLL	23	0	7	96	144	1
TAP	23	96	3
TAP	23	192	2
TAP	23	240	2
TAP	23	288	2
TAP	23	288	7
STR	24	0	1
SI_	24	0	1	96	48	5
TAP	24	0	5
TAP	24	48	1
STR	24	48	5
SI_	24	48	5	96	48	1
TAP	24	144	7
STR	24	192	7
SI_	24	192	7	96	48	3
TAP	24	288	0
TAP	25	0	1
TAP	25	48	1
TAP	25	96	1
TAP	25	96	5
TAP	25	144	1
TAP	25	144	5
TAP	25	192	1
TAP	25	240	1
TAP	25	288	2
TAP	25	288	6
HLD	26	0	4	96
HLD	26	0	5	96
HLD	26	144	3	96
HLD	26	144	4	96
HLD	26	288	2	144
HLD	26	336	3	96
HLD	27	96	4	144
HLD	27	144	2	96
HLD	27	288	2	144
HLD	27	288	4	96
HLD	28	96	4	144
HLD	28	144	3	144
STR	28	288	4
SSL	28	288	4	96	288	0
STR	28	336	3
SSR	28	336	3	96	240	7
STR	30	0	6
SI_	30	0	6	96	96	4
STR	30	96	4
SI_	30	96	4	96	96	2
TAP	30	192	2
TAP	30	288	1
STR	31	0	1
SLR	31	0	1	96	192	5
TAP	31	96	3
TAP	31	192	5
TAP	31	288	6
HLD	32	0	0	96
HLD	32	0	7	96
TAP	32	144	0
STR	32	144	7
SLL	32	144	7	96	192	2
TAP	32	240	1
STR	32	336	2
SLR	32	336	2	96	192	7
TAP	33	48	1
TAP	33	144	0
TAP	33	192	0
TAP	33	288	1
TAP	33	288	6
HLD	34	0	2	96
HLD	34	48	4	96
HLD	34	192	3	96
HLD	34	240	5	96
HLD	35	0	3	96
TAP	35	0	4
HLD	35	96	5	144
HLD	35	144	2	96
TAP	35	288	2
TAP	35	288	5
TAP	36	0	3
TAP	36	0	4
STR	36	48	3
SV_	36	48	3	96	96	2
TAP	36	48	4
STR	36	144	4
SV_	36	144	4	96	96	5
TAP	37	0	0
TAP	37	24	7
TAP	37	48	0
TAP	37	72	7
TAP	37	96	0
TAP	37	192	4
TAP	37	240	4
TAP	37	288	3
TAP	37	288	4
STR	38	0	1
SLR	38	0	1	96	192	5
TAP	38	96	3
TAP	38	192	5
TAP	38	288	7
STR	39	0	6
SLL	39	0	6	96	192	2
TAP	39	96	4
TAP	39	192	2
TAP	39	288	0
HLD	40	0	0	96
HLD	40	0	7	96
STR	40	144	0
SLR	40	144	0	96	192	5
TAP	40	144	7
TAP	40	240	6
STR	40	336	5
SLL	40	336	5	96	192	0
TAP	41	48	6
TAP	41	144	7
TAP	41	192	7
TAP	41	288	1
TAP	41	288	6
TAP	42	0	2
TAP	42	48	3
TAP	42	96	4
TAP	42	144	5
TAP	42	192	3
TAP	42	216	4
TAP	42	240	3
TAP	42	288	1
TAP	42	288	6
TAP	43	0	1
TAP	43	48	1
TAP	43	96	1
TAP	43	96	7
TAP	43	144	7
TAP	43	192	3
TAP	43	192	7
TAP	43	240	3
TAP	43	288	3
TAP	43	288	5
TAP	43	336	5
STR	44	0	1
SI_	44	0	1	96	96	4
TAP	44	0	5
TAP	44	96	7
HLD	44	144	7	96
TAP	44	288	3
STR	44	288	6
SI_	44	288	6	96	96	3
TAP	45	0	1
HLD	45	48	1	96
STR	45	192	2
SI_	45	192	2	96	96	7
TAP	45	192	7
TAP	45	288	5
HLD	45	336	5	96
TAP	46	96	1
TAP	46	96	5
TAP	46	144	2
TAP	46	192	3
TAP	46	240	3
TAP	46	240	6
TAP	46	288	5
TAP	46	336	4
TAP	47	0	1
TAP	47	0	4
TAP	47	96	3
TAP	47	96	5
TAP	47	192	2
STR	47	192	6
SI_	47	192	6	96	96	3
TAP	47	240	2
TAP	47	288	1
HLD	47	336	0	96
STR	48	96	1
SI_	48	96	1	96	96	4
TAP	48	96	4
TAP	48	144	4
TAP	48	192	5
HLD	48	240	6	96
TAP	49	0	0
STR	49	0	6
SI_	49	0	6	96	96	3
TAP	49	48	0
TAP	49	96	1
HLD	49	144	2	96
TAP	49	288	2
TAP	49	312	3
TAP	49	336	2
TAP	49	360	3
TAP	50	0	2
TAP	50	24	4
TAP	50	48	3
TAP	50	72	4
TAP	50	96	3
TAP	50	120	5
TAP	50	144	4
TAP	50	168	5
TAP	50	192	4
TAP	50	216	3
TAP	50	240	2
TAP	50	264	1
TAP	50	288	0
TAP	50	312	7
TAP	50	336	6
TAP	50	360	5
TAP	51	0	3
TAP	51	0	4
TAP	51	96	4
HLD	51	144	3	96
TAP	51	240	4
HLD	51	288	2	96
TAP	51	288	5
TAP	52	0	3
HLD	52	48	1	96
TAP	52	48	4
TAP	52	144	0
TAP	52	192	2
HLD	52	192	7	96
TAP	52	288	0
TAP	52	336	1
HLD	52	336	6	96
TAP	53	48	7
TAP	53	96	0
HLD	53	96	5	96
TAP	53	192	4
TAP	53	240	3
TAP	53	240	6
TAP	53	336	2
TAP	53	336	3
TAP	54	0	1
TAP	54	0	4
TAP	54	96	2
HLD	54	192	3	24
HLD	54	192	6	96
TAP	54	288	7
HLD	54	336	0	96
HLD	54	336	5	24
TAP	55	48	7
HLD	55	96	1	96
HLD	55	96	6	24
TAP	55	192	0
HLD	55	240	2	96
HLD	55	240	7	24
TAP	55	336	3
HLD	56	0	1	24
HLD	56	0	4	96
TAP	56	96	3
HLD	56	144	2	24
HLD	56	144	5	96
TAP	56	240	4
HLD	56	288	3	24
HLD	56	288	6	96
TAP	57	0	7
HLD	57	48	0	96
HLD	57	48	5	24
TAP	57	192	1
TAP	57	192	4
TAP	57	240	1
TAP	57	288	3
TAP	57	288	7
TAP	57	336	7
TAP	58	0	1
STR	58	0	7
SLL	58	0	7	96	192	1
HLD	58	96	0	24
STR	58	192	1
SLR	58	192	1	96	192	7
HLD	58	288	0	24
STR	59	0	7
SLL	59	0	7	96	192	1
HLD	59	96	0	24
STR	59	192	1
SLR	59	192	1	96	192	7
HLD	59	288	0	24
TAP	60	0	7
HLD	60	96	0	24
TAP	60	192	0
TAP	60	192	7
HLD	60	240	1	24
HLD	60	240	6	96
TAP	60	336	7
HLD	61	0	0	24
HLD	61	0	5	96
BRK	61	96	4
STR	61	192	3
SCR	61	192	3	96	96	7
STR	61	288	7
SCR	61	288	7	96	96	3
STR	62	0	3
SCR	62	0	3	96	96	7
STR	62	96	7
SCR	62	96	7	96	96	3
STR	62	192	3
SCR	62	192	3	96	96	7
STR	62	288	7
SCR	62	288	7	96	96	3
STR	63	0	3
SLR	63	0	3	96	96	7
TAP	63	48	3
STR	63	96	7
SLR	63	96	7	96	96	3
TAP	63	144	7
STR	63	192	3
SLR	63	192	3	96	96	7
TAP	63	240	3
STR	63	288	7
SLR	63	288	7	96	96	3
TAP	63	336	7
TAP	64	0	3
TAP	64	48	3
TAP	64	96	4
TAP	64	144	5
TAP	64	192	1
BRK	64	192	6
BRK	64	240	1
TAP	64	240	6
TAP	64	288	1
BRK	64	288	6
BRK	64	336	1
TAP	64	336	6
HLD	65	0	1	96
HLD	65	0	6	144
HLD	65	144	2	96
HLD	65	240	5	96
HLD	65	336	3	192
HLD	66	48	4	96
HLD	66	240	3	48
HLD	66	240	4	48
STR	67	0	5
SLL	67	0	5	96	384	7
TAP	67	192	1
STR	68	0	7
SLL	68	0	7	96	384	3
TAP	68	192	1
STR	69	0	3
SLR	69	0	3	96	384	1
TAP	69	192	2
STR	70	0	1
SLL	70	0	1	96	384	3
TAP	70	192	2
STR	71	0	3
SLR	71	0	3	96	384	7
TAP	71	192	1
STR	72	0	7
SSR	72	0	7	96	384	3
TAP	72	192	1
STR	73	0	3
SSL	73	0	3	96	384	7
TAP	73	192	1
TAP	74	0	0
TAP	74	192	3
TAP	74	192	4
STR	75	0	2
SLR	75	0	2	96	384	0
TAP	75	96	5
HLD	75	192	6	24
TAP	75	288	7
STR	76	0	0
SLR	76	0	0	96	384	4
TAP	76	96	7
HLD	76	192	6	24
TAP	76	288	5
STR	77	0	4
SLL	77	0	4	96	384	6
TAP	77	96	5
HLD	77	192	6	24
TAP	77	288	7
STR	78	0	6
SLR	78	0	6	96	384	4
TAP	78	96	5
HLD	78	192	5	24
TAP	78	288	5
STR	79	0	4
SLL	79	0	4	96	384	0
TAP	79	96	5
HLD	79	192	6	24
TAP	79	288	7
STR	80	0	0
SSL	80	0	0	96	384	4
TAP	80	96	7
HLD	80	192	6	24
TAP	80	288	5
HLD	81	0	5	384
STR	82	0	4
SSL	82	0	4	96	192	0
STR	83	0	6
SCL	83	0	6	96	48	3
TAP	83	0	7
TAP	83	96	2
TAP	83	192	0
STR	83	192	1
SCR	83	192	1	96	48	4
TAP	83	288	6
TAP	84	0	0
STR	84	0	7
SI_	84	0	7	96	48	3
TAP	84	96	2
TAP	84	192	2
TAP	84	192	4
TAP	84	216	1
TAP	84	216	5
TAP	84	240	0
TAP	84	240	6
TAP	84	288	0
TAP	84	288	6
TAP	85	0	0
TAP	85	0	7
TAP	85	24	6
TAP	85	48	5
TAP	85	72	4
TAP	85	96	2
TAP	85	96	3
TAP	85	120	4
TAP	85	144	5
TAP	85	168	6
TAP	85	192	0
TAP	85	192	7
TAP	85	216	1
TAP	85	240	2
TAP	85	264	3
TAP	85	288	4
TAP	85	288	5
TAP	85	312	3
TAP	85	336	2
TAP	85	360	1
TAP	86	0	0
TAP	86	0	7
TAP	86	24	6
TAP	86	48	5
TAP	86	72	4
TAP	86	96	2
TAP	86	96	3
TAP	86	120	4
TAP	86	144	5
TAP	86	168	6
TAP	86	192	0
TAP	86	192	7
TAP	86	216	1
TAP	86	240	2
TAP	86	264	3
TAP	86	288	4
TAP	86	288	6
STR	87	0	2
SI_	87	0	2	96	48	5
TAP	87	0	3
TAP	87	96	7
TAP	87	192	4
STR	87	192	6
SI_	87	192	6	96	48	1
TAP	87	288	3
TAP	88	0	0
STR	88	0	2
SCR	88	0	2	96	48	5
TAP	88	96	7
TAP	88	192	7
TAP	88	216	0
TAP	88	216	6
TAP	88	240	1
TAP	88	240	5
TAP	88	288	1
TAP	88	288	5
TAP	89	0	2
STR	89	48	3
SCR	89	48	3	96	48	6
TAP	89	96	2
STR	89	144	3
SCL	89	144	3	96	48	0
TAP	89	240	3
TAP	89	336	6
TAP	89	336	7
TAP	90	0	5
TAP	90	24	4
TAP	90	48	5
TAP	90	72	4
TAP	90	96	6
TAP	90	144	6
TAP	90	192	1
TAP	90	216	0
TAP	90	240	1
TAP	90	264	0
TAP	90	288	2
TAP	90	288	7
STR	91	0	2
SCL	91	0	2	96	48	7
TAP	91	0	3
TAP	91	96	6
TAP	91	144	6
TAP	91	192	4
STR	91	192	5
SCR	91	192	5	96	48	0
TAP	91	288	2
TAP	91	336	2
STR	92	0	3
SI_	92	0	3	96	48	7
TAP	92	0	4
TAP	92	96	6
TAP	92	144	6
TAP	92	192	0
TAP	92	192	6
TAP	92	216	1
TAP	92	216	5
TAP	92	240	2
TAP	92	240	4
TAP	92	288	2
TAP	92	288	4
TAP	93	0	3
TAP	93	0	4
TAP	93	24	2
TAP	93	48	1
TAP	93	72	0
TAP	93	96	6
TAP	93	96	7
TAP	93	120	0
TAP	93	144	1
TAP	93	168	2
TAP	93	192	3
TAP	93	192	4
TAP	93	216	5
TAP	93	240	6
TAP	93	264	7
TAP	93	288	0
TAP	93	288	1
TAP	93	312	7
TAP	93	336	6
TAP	93	360	5
TAP	94	0	3
TAP	94	0	4
TAP	94	24	2
TAP	94	48	1
TAP	94	72	0
TAP	94	96	6
TAP	94	96	7
TAP	94	120	0
TAP	94	144	1
TAP	94	168	2
TAP	94	192	3
TAP	94	192	4
TAP	94	216	5
TAP	94	240	6
TAP	94	264	7
TAP	94	288	0
TAP	94	288	2
STR	95	0	1
SI_	95	0	1	96	48	6
TAP	95	0	3
TAP	95	96	4
TAP	95	144	4
STR	95	192	5
SI_	95	192	5	96	48	2
TAP	95	192	7
TAP	95	288	0
TAP	95	336	0
STR	96	0	1
SCL	96	0	1	96	48	6
TAP	96	0	3
TAP	96	96	4
TAP	96	144	4
TAP	96	192	4
TAP	96	216	3
TAP	96	216	5
TAP	96	240	2
TAP	96	240	6
TAP	96	288	2
TAP	96	288	6
TAP	97	0	0
TAP	97	0	5
HLD	97	48	2	96
TAP	97	48	3
TAP	97	144	7
TAP	97	192	4
TAP	97	192	5
TAP	97	288	2
TAP	97	288	3
TAP	98	0	1
TAP	98	0	6
TAP	98	48	1
TAP	98	48	6
TAP	98	96	2
TAP	98	96	5
TAP	98	144	2
TAP	98	144	5
TAP	98	192	3
HLD	98	192	4	96
TAP	98	288	3
TAP	98	300	2
TAP	98	312	1
TAP	98	324	0
TAP	98	336	7
TAP	98	348	6
TAP	98	360	5
TAP	98	372	4
BRK	99	0	3
BRK	99	0	7
TAP	99	96	0
TAP	99	96	5
TAP	99	144	0
STR	99	144	5
SI_	99	144	5	96	48	0
STR	99	240	1
SI_	99	240	1	96	48	5
STR	99	336	6
SI_	99	336	6	96	48	1
STR	100	48	2
SI_	100	48	2	96	48	6
STR	100	144	7
SI_	100	144	7	96	48	2
STR	100	240	3
SI_	100	240	3	96	48	7
TAP	100	336	7
TAP	101	0	6
STR	101	48	0
SI_	101	48	0	96	48	4
TAP	101	48	5
TAP	101	144	0
STR	101	144	4
SCL	101	144	4	96	408	0
HLD	101	256	5	0
TAP	101	320	5
HLD	102	0	5	0
HLD	102	64	4	0
TAP	102	128	4
HLD	102	192	4	0
HLD	102	256	3	0
HLD	102	320	3	0
TAP	103	0	0
TAP	103	0	3
TAP	103	96	3
TAP	103	96	6
STR	103	144	3
SI_	103	144	3	96	48	7
STR	103	144	6
SCL	103	144	6	96	48	3
TAP	103	240	3
TAP	103	240	6
STR	103	336	1
SI_	103	336	1	96	48	3
STR	103	336	5
SI_	103	336	5	96	48	3
STR	104	48	1
SI_	104	48	1	96	48	7
STR	104	48	5
SI_	104	48	5	96	48	7
TAP	104	144	1
TAP	104	144	5
TAP	104	240	1
TAP	104	240	5
TAP	104	288	1
TAP	104	288	5
TAP	105	0	3
TAP	105	0	7
STR	105	48	3
SI_	105	48	3	96	48	7
STR	105	48	7
SI_	105	48	7	96	48	3
TAP	105	144	3
TAP	105	144	7
TAP	105	240	1
TAP	105	240	5
TAP	105	288	1
TAP	105	288	5
TAP	106	0	0
TAP	106	0	4
TAP	106	48	1
TAP	106	48	5
TAP	106	96	2
TAP	106	96	6
TAP	106	144	3
TAP	106	144	7
TAP	106	192	2
TAP	106	192	6
TAP	106	240	1
TAP	106	240	5
TAP	106	288	0
TAP	106	288	4
TAP	106	312	5
TAP	106	336	2
TAP	106	336	6
TAP	106	360	7
TAP	107	0	0
BRK	107	0	4
TAP	107	96	1
TAP	107	96	6
TAP	107	144	5
TAP	107	168	4
TAP	107	192	5
TAP	107	240	3
TAP	107	264	4
TAP	107	288	3
TAP	107	312	4
TAP	107	336	3
TAP	108	0	2
TAP	108	0	5
TAP	108	48	1
TAP	108	72	0
TAP	108	96	1
TAP	108	144	2
TAP	108	144	5
TAP	108	192	6
TAP	108	216	7
TAP	108	240	6
TAP	108	288	0
TAP	108	312	7
TAP	108	336	0
TAP	108	360	7
TAP	109	0	1
TAP	109	0	6
TAP	109	48	2
TAP	109	72	3
TAP	109	96	2
TAP	109	120	3
TAP	109	144	1
TAP	109	192	5
TAP	109	216	4
TAP	109	240	5
TAP	109	264	4
TAP	109	288	6
TAP	109	336	0
TAP	109	336	7
TAP	110	0	1
TAP	110	24	3
TAP	110	48	2
TAP	110	72	6
TAP	110	96	4
TAP	110	120	5
TAP	110	144	2
TAP	110	168	3
TAP	110	192	0
TAP	110	216	7
TAP	110	240	0
TAP	110	264	7
BRK	110	288	1
BRK	110	288	6
TAP	111	0	0
TAP	111	0	4
TAP	111	48	0
TAP	111	48	4
TAP	111	96	2
TAP	111	96	5
TAP	111	144	2
TAP	111	144	5
TAP	111	192	3
TAP	111	192	7
TAP	111	240	3
TAP	111	240	7
TAP	111	288	1
TAP	111	336	1
TAP	112	0	0
TAP	112	0	1
TAP	112	48	1
TAP	112	48	2
TAP	112	96	2
TAP	112	96	3
TAP	112	144	3
TAP	112	144	4
TAP	112	192	3
TAP	112	192	4
TAP	112	240	2
TAP	112	240	5
TAP	112	288	1
TAP	112	288	6
TAP	112	336	1
TAP	112	336	6
TAP	113	0	1
TAP	113	0	6
TAP	113	24	2
TAP	113	48	3
TAP	113	72	4
TAP	113	96	5
TAP	113	120	6
TAP	113	144	7
TAP	113	168	0
TAP	113	192	1
TAP	113	192	4
TAP	113	216	3
TAP	113	240	2
TAP	113	264	1
TAP	113	288	0
TAP	113	312	7
TAP	113	336	6
TAP	113	360	5
BRK	114	0	0
TAP	114	0	4
TAP	114	12	1
TAP	114	24	2
TAP	114	36	3
TAP	114	48	4
TAP	114	60	5
TAP	114	72	6
TAP	114	84	7
TAP	114	96	0
TAP	114	108	1
TAP	114	120	2
TAP	114	132	3
TAP	114	144	4
TAP	114	156	5
TAP	114	168	6
TAP	114	180	7
TAP	114	192	0
BRK	114	192	5
TAP	114	204	4
TAP	114	216	3
TAP	114	228	2
TAP	114	240	1
TAP	114	252	0
TAP	114	264	7
TAP	114	276	6
BRK	114	288	5
TAP	114	300	4
TAP	114	312	3
TAP	114	324	2
TAP	114	336	1
TAP	114	348	0
TAP	114	360	7
TAP	114	372	6
BST	115	0	1
SSR	115	0	1	96	528	5
TAP	115	0	5
HLD	117	0	2	96
STR	117	0	6
SSR	117	0	6	96	528	2
STR	119	0	0
SSR	119	0	0	96	480	4
SSR	119	0	0	96	480	4
HLD	119	0	4	92
TAP	120	288	2
STR	120	288	3
SI_	120	288	3	96	240	7
SI_	120	288	3	96	240	7
TAP	122	0	0
TAP	122	24	7
TAP	122	48	0
TAP	122	72	7
TAP	122	96	0
TAP	122	120	7
TAP	122	144	0
TAP	122	168	7
TAP	122	192	0
TAP	122	216	7
TAP	122	240	0
TAP	122	264	7
TAP	122	288	0
TAP	122	312	7
TAP	122	336	0
TAP	122	360	7
TAP	123	0	1
TAP	123	24	7
TAP	123	48	0
TAP	123	72	7
TAP	123	96	0
TAP	123	120	7
TAP	123	144	0
TAP	123	168	7
TAP	123	192	1
TAP	123	216	7
TAP	123	240	0
TAP	123	264	7
TAP	123	288	0
TAP	123	312	7
TAP	123	336	0
TAP	123	360	7
TAP	124	0	1
TAP	124	24	6
TAP	124	48	0
TAP	124	72	7
TAP	124	96	1
TAP	124	120	6
TAP	124	144	0
TAP	124	168	7
TAP	124	192	0
TAP	124	216	7
TAP	124	240	0
TAP	124	264	7
TAP	124	288	1
TAP	124	312	7
TAP	124	336	0
TAP	124	360	7
TAP	125	0	0
TAP	125	24	6
TAP	125	48	0
TAP	125	72	7
TAP	125	96	1
TAP	125	120	7
TAP	125	144	0
TAP	125	168	6
TAP	125	192	0
TAP	125	216	7
TAP	125	240	1
TAP	125	264	7
STR	125	288	0
SSL	125	288	0	96	144	4
SV_	125	288	0	96	144	2
TAP	125	312	6
TAP	125	336	0
TAP	125	360	7

T_REC_TAP	738
T_REC_BRK	14
T_REC_XTP	0
T_REC_HLD	104
T_REC_XHO	0
T_REC_STR	98
T_REC_BST	1
T_REC_XST	0
T_REC_TTP	0
T_REC_THO	0
T_REC_SLD	102
T_REC_ALL	1057
T_NUM_TAP	836
T_NUM_BRK	15
T_NUM_HLD	104
T_NUM_SLD	102
T_NUM_ALL	1057
T_JUDGE_TAP	851
T_JUDGE_HLD	119
T_JUDGE_SLD	102
T_JUDGE_ALL	1072
TTM_EACHPAIRS	216
TTM_SCR_TAP	418000
TTM_SCR_BRK	39000
TTM_SCR_HLD	104000
TTM_SCR_SLD	153000
TTM_SCR_ALL	714000
TTM_SCR_S	691150
TTM_SCR_SS	712500
TTM_RAT_ACV	10021

