VERSION	0.00.00	1.03.00
FES_MODE	0
BPM_DEF	240.000	240.000	240.000	240.000
MET_DEF	4	4
RESOLUTION	384
CLK_DEF	384
COMPATIBLE_CODE	MA2

BPM	0	0	240.000
MET	0	0	4	4
MET	43	0	4	3
MET	46	0	4	2
MET	46	192	4	3
MET	49	192	4	2
MET	50	0	4	3
MET	53	0	4	2
MET	53	192	4	3
MET	56	192	4	2
MET	57	0	4	3
MET	60	0	4	2
MET	60	192	4	3
MET	63	192	4	2
MET	64	0	4	4

TAP	2	0	3
TAP	2	0	4
TAP	2	96	2
TAP	2	144	2
TAP	2	240	5
TAP	2	288	5
TAP	3	0	3
TAP	3	48	4
TAP	3	96	3
TAP	3	192	1
TAP	3	192	4
TAP	3	288	3
TAP	3	288	6
STR	4	0	0
SV_	4	0	0	96	96	1
TAP	4	96	7
STR	4	144	7
SV_	4	144	7	96	96	6
TAP	5	0	1
TAP	5	0	4
TAP	5	96	2
TAP	5	96	5
TAP	5	192	4
TAP	5	240	3
TAP	5	288	3
TAP	5	288	4
TAP	6	0	0
TAP	6	0	7
TAP	6	96	6
TAP	6	144	6
TAP	6	240	1
TAP	6	288	1
TAP	7	0	7
TAP	7	48	0
TAP	7	96	7
TAP	7	192	1
TAP	7	240	2
TAP	7	288	3
TAP	7	288	4
STR	8	0	4
SSL	8	0	4	96	192	0
TAP	8	48	4
BRK	8	288	4
TAP	9	0	3
TAP	9	48	3
TAP	9	96	4
TAP	9	144	4
TAP	9	192	1
TAP	9	192	5
TAP	9	240	1
TAP	9	240	5
TAP	9	288	2
TAP	9	288	6
TAP	9	336	2
TAP	9	336	6
BRK	10	0	3
BRK	10	0	7
TAP	10	96	2
TAP	10	144	2
TAP	10	192	4
TAP	10	240	3
TAP	10	288	5
TAP	10	336	4
TAP	11	0	3
TAP	11	0	6
TAP	11	96	1
TAP	11	144	0
TAP	11	144	1
TAP	11	240	6
TAP	11	288	6
TAP	11	288	7
TAP	12	0	1
STR	12	48	0
SCL	12	48	0	96	48	5
TAP	12	96	1
STR	12	144	0
SCR	12	144	0	96	48	3
STR	12	240	0
SI_	12	240	0	96	48	5
STR	12	336	0
SI_	12	336	0	96	48	3
TAP	13	48	0
TAP	13	144	0
TAP	13	192	0
TAP	13	216	7
TAP	13	240	6
TAP	13	264	5
TAP	13	288	0
TAP	13	288	4
TAP	14	0	3
TAP	14	0	4
TAP	14	96	4
TAP	14	144	4
TAP	14	192	2
TAP	14	240	3
TAP	14	288	1
TAP	14	288	4
TAP	15	0	0
TAP	15	0	7
TAP	15	96	6
TAP	15	144	6
TAP	15	144	7
TAP	15	240	1
TAP	15	288	0
TAP	15	288	1
HLD	16	0	2	96
HLD	16	0	7	96
HLD	16	144	0	96
HLD	16	144	3	96
TAP	16	288	0
TAP	16	288	3
TAP	17	0	2
HLD	17	0	6	288
TAP	17	48	2
TAP	17	96	2
TAP	17	144	2
TAP	17	192	2
TAP	17	240	2
TAP	17	288	2
BRK	18	0	0
BRK	18	0	4
TAP	18	96	5
TAP	18	144	5
TAP	18	192	3
TAP	18	240	4
TAP	18	288	2
TAP	18	336	3
TAP	19	0	1
TAP	19	0	4
TAP	19	96	6
TAP	19	144	6
TAP	19	144	7
TAP	19	240	1
TAP	19	288	0
TAP	19	288	1
TAP	20	0	6
STR	20	48	7
SCR	20	48	7	96	48	2
TAP	20	96	6
STR	20	144	7
SCL	20	144	7	96	48	4
STR	20	240	7
SI_	20	240	7	96	48	2
STR	20	336	7
SI_	20	336	7	96	48	4
TAP	21	48	7
TAP	21	144	7
TAP	21	192	7
TAP	21	216	0
TAP	21	240	1
TAP	21	264	2
TAP	21	288	3
TAP	21	288	7
TAP	22	0	3
TAP	22	0	4
TAP	22	48	4
TAP	22	96	3
TAP	22	144	3
TAP	22	192	5
TAP	22	240	4
TAP	22	288	3
BRK	22	288	6
TAP	23	0	0
TAP	23	0	7
TAP	23	96	1
TAP	23	144	0
TAP	23	144	1
TAP	23	240	6
TAP	23	288	6
TAP	23	288	7
TAP	24	0	2
TAP	24	48	2
TAP	24	96	4
TAP	24	144	4
TAP	24	192	3
TAP	24	240	3
TAP	24	288	5
TAP	24	336	5
TAP	25	0	3
TAP	25	0	4
TAP	25	48	3
TAP	25	48	4
TAP	25	96	3
TAP	25	96	4
TAP	25	144	3
TAP	25	144	4
TAP	25	192	2
TAP	25	192	5
TAP	25	240	1
TAP	25	240	6
BRK	25	288	0
BRK	25	288	7
TAP	26	0	0
TAP	26	48	1
TAP	26	96	2
TAP	26	144	3
TAP	26	240	5
TAP	26	288	4
TAP	26	336	3
TAP	27	48	2
TAP	27	96	3
TAP	27	144	4
TAP	27	240	3
TAP	27	288	3
TAP	28	0	5
TAP	28	48	4
TAP	28	96	3
TAP	28	144	4
TAP	28	240	3
TAP	28	288	4
TAP	28	336	5
HLD	29	0	6	288
TAP	29	48	4
TAP	29	96	3
TAP	29	144	2
TAP	29	240	4
TAP	29	288	4
TAP	30	0	4
TAP	30	0	5
TAP	30	96	3
TAP	30	192	5
TAP	30	240	3
TAP	30	336	2
TAP	31	0	2
TAP	31	0	5
TAP	31	96	3
TAP	31	192	5
TAP	31	288	4
HLD	32	0	4	96
HLD	32	0	5	96
TAP	32	144	4
TAP	32	144	5
TAP	32	240	5
TAP	32	244	4
TAP	32	336	4
TAP	32	336	5
TAP	33	48	4
TAP	33	52	5
TAP	33	144	4
TAP	33	144	5
TAP	33	192	3
TAP	33	240	3
TAP	33	336	2
TAP	34	0	5
TAP	34	48	4
TAP	34	96	3
TAP	34	144	2
TAP	34	192	4
TAP	34	240	3
TAP	34	288	2
TAP	34	336	2
HLD	35	0	4	144
TAP	35	96	2
HLD	35	144	3	144
TAP	35	240	5
TAP	35	288	4
TAP	36	0	3
TAP	36	0	4
TAP	36	48	3
STR	36	48	4
SV_	36	48	4	96	96	5
STR	36	144	3
SV_	36	144	3	96	96	2
TAP	37	0	7
TAP	37	24	0
TAP	37	48	7
TAP	37	72	0
TAP	37	96	7
TAP	37	192	3
TAP	37	240	3
TAP	37	288	3
TAP	37	288	4
TAP	38	0	2
TAP	38	0	3
TAP	38	96	4
TAP	38	192	2
TAP	38	240	4
TAP	38	336	5
TAP	39	0	2
TAP	39	0	5
TAP	39	96	4
TAP	39	192	2
TAP	39	288	3
HLD	40	0	2	96
HLD	40	0	3	96
TAP	40	144	2
TAP	40	144	3
TAP	40	240	2
TAP	40	244	3
TAP	40	336	2
TAP	40	336	3
TAP	41	48	3
TAP	41	52	2
TAP	41	144	2
TAP	41	144	3
TAP	41	192	4
TAP	41	240	4
TAP	41	336	5
TAP	42	0	2
TAP	42	48	3
TAP	42	96	4
TAP	42	144	5
TAP	42	192	3
TAP	42	240	4
BRK	42	288	5
TAP	42	336	5
TAP	43	0	0
TAP	43	48	0
TAP	43	96	0
TAP	43	144	0
TAP	43	192	0
TAP	43	192	7
TAP	43	240	0
TAP	43	240	7
TAP	43	288	0
TAP	43	336	0
TAP	44	0	6
STR	44	48	6
SI_	44	48	6	96	72	2
TAP	44	96	6
HLD	44	144	6	96
TAP	44	288	1
STR	44	336	1
SI_	44	336	1	96	72	5
TAP	45	0	1
HLD	45	48	1	96
TAP	45	192	4
STR	45	240	4
SI_	45	240	4	96	72	0
TAP	45	288	4
HLD	45	336	4	96
TAP	46	96	3
STR	46	144	3
SI_	46	144	3	96	72	7
TAP	46	192	3
HLD	46	240	3	96
TAP	47	0	3
TAP	47	0	7
TAP	47	96	1
TAP	47	96	5
TAP	47	192	7
STR	47	240	7
SI_	47	240	7	96	72	3
TAP	47	288	7
HLD	47	336	7	96
TAP	48	96	0
STR	48	144	0
SI_	48	144	0	96	72	4
TAP	48	192	0
HLD	48	240	0	96
TAP	49	0	5
STR	49	48	5
SI_	49	48	5	96	72	1
TAP	49	96	5
HLD	49	144	5	96
TAP	49	288	2
STR	49	336	2
SI_	49	336	2	96	72	6
TAP	50	0	2
HLD	50	48	2	96
TAP	50	192	7
TAP	50	240	7
TAP	50	288	0
TAP	50	336	0
STR	51	0	6
SI_	51	0	6	96	48	4
TAP	51	96	6
STR	51	144	0
SI_	51	144	0	96	48	2
TAP	51	240	0
STR	51	288	5
SI_	51	288	5	96	48	7
TAP	52	0	5
STR	52	48	3
SI_	52	48	3	96	48	1
TAP	52	144	3
STR	52	192	5
SI_	52	192	5	96	48	3
TAP	52	288	5
STR	52	336	7
SI_	52	336	7	96	48	1
TAP	53	48	7
STR	53	96	3
SI_	53	96	3	96	48	7
TAP	53	192	3
TAP	53	240	0
TAP	53	336	0
TAP	54	0	1
TAP	54	0	5
TAP	54	96	3
TAP	54	96	7
STR	54	192	1
SI_	54	192	1	96	48	3
TAP	54	288	1
STR	54	336	7
SI_	54	336	7	96	48	5
TAP	55	48	7
STR	55	96	2
SI_	55	96	2	96	48	0
TAP	55	192	2
STR	55	240	4
SI_	55	240	4	96	48	6
TAP	55	336	4
STR	56	0	2
SI_	56	0	2	96	48	4
TAP	56	96	2
STR	56	144	0
SI_	56	144	0	96	48	6
TAP	56	240	0
STR	56	288	4
SI_	56	288	4	96	48	0
TAP	57	0	4
TAP	57	48	7
TAP	57	144	7
TAP	57	192	0
TAP	57	240	0
TAP	57	288	7
TAP	57	336	7
STR	58	0	2
SI_	58	0	2	96	48	0
TAP	58	96	2
STR	58	144	4
SI_	58	144	4	96	48	6
TAP	58	240	4
STR	58	288	3
SI_	58	288	3	96	48	0
TAP	59	0	3
STR	59	48	4
SI_	59	48	4	96	48	7
TAP	59	144	4
STR	59	192	0
SCR	59	192	0	96	48	3
TAP	59	288	0
STR	59	336	7
SUR	59	336	7	96	48	4
TAP	60	48	7
STR	60	96	0
SUL	60	96	0	96	48	3
TAP	60	192	0
STR	60	240	7
SCL	60	240	7	96	48	4
TAP	60	336	7
TAP	61	0	0
TAP	61	96	2
TAP	61	96	6
STR	61	192	1
SI_	61	192	1	96	48	3
TAP	61	288	1
TAP	61	288	5
STR	61	336	6
SI_	61	336	6	96	48	4
TAP	62	48	3
TAP	62	48	6
STR	62	96	2
SI_	62	96	2	96	48	4
TAP	62	192	2
TAP	62	192	4
STR	62	240	5
SI_	62	240	5	96	48	3
TAP	62	336	2
TAP	62	336	5
STR	63	0	1
SI_	63	0	1	96	48	4
TAP	63	96	1
TAP	63	96	5
STR	63	144	6
SI_	63	144	6	96	48	3
TAP	63	240	1
TAP	63	240	6
STR	63	288	0
SI_	63	288	0	96	48	4
TAP	64	0	0
TAP	64	0	6
STR	64	48	7
SI_	64	48	7	96	48	3
TAP	64	144	1
TAP	64	144	7
BRK	64	192	0
BRK	64	240	0
BRK	64	288	0
BRK	64	336	0
TAP	65	0	5
TAP	65	48	4
TAP	65	96	2
TAP	65	144	3
TAP	65	240	5
TAP	65	336	3
TAP	66	48	2
TAP	66	144	4
TAP	66	240	3
TAP	66	288	2
HLD	67	0	0	384
TAP	67	0	7
TAP	67	96	6
TAP	67	144	6
TAP	67	240	5
TAP	67	336	5
TAP	68	48	5
TAP	68	144	4
TAP	68	240	4
TAP	68	336	4
HLD	69	0	2	384
TAP	69	48	5
TAP	69	144	5
TAP	69	256	6
TAP	69	320	6
TAP	70	0	6
TAP	70	64	6
TAP	70	128	6
TAP	70	192	6
TAP	70	256	6
TAP	70	320	6
HLD	71	0	3	384
TAP	71	0	5
TAP	71	96	4
TAP	71	144	4
TAP	71	240	5
TAP	71	336	5
TAP	72	48	5
TAP	72	144	6
TAP	72	240	6
TAP	72	336	7
HLD	73	0	4	384
TAP	73	0	7
TAP	73	48	7
TAP	73	144	6
TAP	73	240	5
TAP	73	288	5
TAP	75	0	0
HLD	75	0	7	384
TAP	75	96	1
TAP	75	144	1
TAP	75	240	2
TAP	75	336	2
TAP	76	48	2
TAP	76	144	3
TAP	76	240	3
TAP	76	336	3
HLD	77	0	5	384
TAP	77	48	2
TAP	77	144	2
TAP	77	256	1
TAP	77	320	1
TAP	78	0	1
TAP	78	64	1
TAP	78	128	1
TAP	78	192	1
TAP	78	256	1
TAP	78	320	1
TAP	79	0	2
HLD	79	0	4	384
TAP	79	96	3
TAP	79	144	3
TAP	79	240	2
TAP	79	336	2
TAP	80	48	2
TAP	80	144	1
TAP	80	240	1
TAP	80	336	0
TAP	81	0	0
HLD	81	0	3	384
TAP	81	48	0
TAP	81	144	1
TAP	81	240	2
STR	81	288	2
SSL	81	288	2	96	288	6
TAP	83	0	3
TAP	83	0	4
TAP	83	96	2
TAP	83	144	3
TAP	83	192	4
TAP	83	240	3
TAP	83	288	2
TAP	83	336	1
TAP	84	0	0
TAP	84	0	7
TAP	84	48	6
TAP	84	96	0
TAP	84	96	7
TAP	84	144	1
TAP	84	192	0
TAP	84	192	7
TAP	84	216	6
TAP	84	240	5
TAP	84	288	1
TAP	84	336	1
TAP	85	0	7
TAP	85	24	6
TAP	85	48	5
TAP	85	72	4
TAP	85	96	0
TAP	85	120	1
TAP	85	144	2
TAP	85	168	3
TAP	85	192	4
TAP	85	216	5
TAP	85	240	6
TAP	85	264	7
TAP	85	288	0
TAP	85	288	6
TAP	85	312	1
TAP	85	312	5
TAP	85	336	2
TAP	85	336	4
TAP	86	0	0
TAP	86	24	1
TAP	86	48	2
TAP	86	72	3
TAP	86	96	7
TAP	86	120	6
TAP	86	144	5
TAP	86	168	4
TAP	86	192	3
TAP	86	216	2
TAP	86	240	1
TAP	86	264	0
TAP	86	288	1
TAP	86	288	7
TAP	86	312	2
TAP	86	312	6
TAP	86	336	3
TAP	86	336	5
TAP	87	0	1
TAP	87	0	6
TAP	87	96	5
TAP	87	144	4
TAP	87	192	3
TAP	87	240	4
TAP	87	288	5
TAP	87	336	6
TAP	88	0	0
TAP	88	0	7
TAP	88	48	1
TAP	88	96	0
TAP	88	96	7
TAP	88	144	6
TAP	88	192	0
TAP	88	192	7
TAP	88	216	1
TAP	88	240	2
TAP	88	288	6
TAP	88	336	6
TAP	89	0	1
STR	89	48	0
SI_	89	48	0	96	48	5
TAP	89	96	1
STR	89	144	0
SI_	89	144	0	96	48	3
TAP	89	240	0
TAP	89	336	0
TAP	90	0	2
TAP	90	24	3
TAP	90	48	2
TAP	90	72	3
TAP	90	96	2
TAP	90	144	1
TAP	90	144	4
TAP	90	192	0
TAP	90	216	7
TAP	90	240	0
TAP	90	264	7
BRK	90	288	1
BRK	90	288	6
TAP	91	0	3
TAP	91	0	4
TAP	91	96	2
TAP	91	144	3
TAP	91	192	2
TAP	91	192	4
TAP	91	240	3
TAP	91	288	2
TAP	91	336	1
TAP	92	0	0
TAP	92	0	7
TAP	92	48	6
TAP	92	96	0
TAP	92	96	7
TAP	92	144	1
TAP	92	192	0
TAP	92	192	7
TAP	92	216	6
TAP	92	240	1
TAP	92	240	5
TAP	92	288	2
TAP	92	336	2
TAP	93	0	4
TAP	93	24	5
TAP	93	48	6
TAP	93	72	7
TAP	93	96	3
TAP	93	120	2
TAP	93	144	1
TAP	93	168	0
TAP	93	192	7
TAP	93	216	6
TAP	93	240	5
TAP	93	264	4
TAP	93	288	3
TAP	93	288	5
TAP	93	312	2
TAP	93	312	6
TAP	93	336	1
TAP	93	336	7
TAP	94	0	3
TAP	94	24	2
TAP	94	48	1
TAP	94	72	0
TAP	94	96	4
TAP	94	120	5
TAP	94	144	6
TAP	94	168	7
TAP	94	192	0
TAP	94	216	1
TAP	94	240	2
TAP	94	264	3
TAP	94	288	2
TAP	94	288	4
TAP	94	312	1
TAP	94	312	5
TAP	94	336	0
TAP	94	336	6
TAP	95	0	2
TAP	95	0	5
TAP	95	96	5
TAP	95	144	4
TAP	95	192	3
TAP	95	192	5
TAP	95	240	4
TAP	95	288	5
TAP	95	336	6
TAP	96	0	0
TAP	96	0	7
TAP	96	48	1
TAP	96	96	0
TAP	96	96	7
TAP	96	144	6
TAP	96	192	0
TAP	96	192	7
TAP	96	216	1
TAP	96	240	2
TAP	96	240	6
TAP	96	288	5
TAP	96	336	5
TAP	97	0	3
HLD	97	48	3	96
TAP	97	144	5
TAP	97	192	4
TAP	97	240	3
TAP	97	288	2
TAP	97	336	1
TAP	98	0	0
TAP	98	0	4
TAP	98	48	1
TAP	98	48	5
TAP	98	96	2
TAP	98	96	6
TAP	98	144	3
TAP	98	144	7
TAP	98	192	2
TAP	98	192	6
TAP	98	240	1
TAP	98	240	5
TAP	98	288	0
TAP	98	288	4
TAP	98	312	1
TAP	98	336	2
TAP	98	336	6
TAP	98	360	3
BRK	99	0	0
BRK	99	0	4
TAP	99	96	2
TAP	99	96	5
TAP	99	192	4
TAP	99	192	5
TAP	99	288	3
TAP	99	288	5
TAP	99	336	5
TAP	100	0	4
TAP	100	0	5
TAP	100	96	1
TAP	100	96	5
TAP	100	192	4
TAP	100	192	5
TAP	100	288	3
TAP	100	288	5
TAP	100	336	5
TAP	101	0	5
TAP	101	0	7
TAP	101	96	0
TAP	101	96	5
TAP	101	192	4
TAP	101	192	5
TAP	101	288	2
TAP	101	288	5
TAP	101	336	5
TAP	102	0	4
TAP	102	0	5
TAP	102	96	3
TAP	102	96	5
TAP	102	192	2
TAP	102	192	5
TAP	102	224	4
TAP	102	256	3
TAP	102	288	2
TAP	102	320	3
TAP	102	352	4
TAP	103	0	2
TAP	103	0	5
TAP	103	96	2
TAP	103	96	5
TAP	103	192	2
TAP	103	192	3
TAP	103	288	2
TAP	103	288	4
TAP	103	336	2
TAP	104	0	0
TAP	104	0	2
TAP	104	96	2
TAP	104	96	6
TAP	104	192	2
TAP	104	192	3
TAP	104	288	2
TAP	104	288	5
TAP	104	336	2
TAP	105	0	2
TAP	105	0	3
TAP	105	96	1
TAP	105	96	2
TAP	105	192	2
TAP	105	192	3
TAP	105	240	2
TAP	105	288	2
TAP	105	288	5
TAP	106	0	2
TAP	106	0	5
TAP	106	48	2
TAP	106	48	5
TAP	106	96	1
TAP	106	96	6
TAP	106	144	1
TAP	106	144	6
TAP	106	192	0
TAP	106	192	7
TAP	106	240	0
TAP	106	240	7
BRK	106	288	1
BRK	106	288	6
TAP	107	0	2
TAP	107	0	7
TAP	107	48	1
TAP	107	72	0
TAP	107	96	1
TAP	107	144	7
TAP	107	168	0
TAP	107	192	7
TAP	107	240	2
TAP	107	240	6
TAP	107	336	0
TAP	107	336	4
TAP	108	0	1
TAP	108	24	3
TAP	108	48	1
TAP	108	72	3
TAP	108	96	1
TAP	108	144	7
TAP	108	192	6
TAP	108	216	4
TAP	108	240	6
TAP	108	264	4
STR	108	288	6
SI_	108	288	6	96	48	3
TAP	109	0	6
TAP	109	0	7
STR	109	48	0
SI_	109	48	0	96	48	4
TAP	109	96	1
STR	109	144	0
SCL	109	144	0	96	48	5
TAP	109	240	0
TAP	109	336	3
TAP	110	0	4
TAP	110	0	6
TAP	110	48	5
TAP	110	96	2
TAP	110	96	4
TAP	110	144	3
TAP	110	192	2
TAP	110	192	4
TAP	110	240	1
TAP	110	288	0
TAP	110	288	7
TAP	111	0	3
TAP	111	0	7
TAP	111	48	3
TAP	111	48	7
TAP	111	96	2
TAP	111	96	5
TAP	111	144	2
TAP	111	144	5
TAP	111	192	0
TAP	111	192	3
TAP	111	240	0
TAP	111	240	3
TAP	111	288	1
TAP	111	288	6
TAP	111	336	1
TAP	111	336	6
TAP	112	0	0
TAP	112	0	7
TAP	112	48	1
TAP	112	48	7
TAP	112	96	2
TAP	112	96	7
TAP	112	144	3
TAP	112	144	7
TAP	112	192	4
TAP	112	192	7
TAP	112	240	5
TAP	112	240	7
TAP	112	288	6
TAP	112	288	7
TAP	112	336	0
TAP	112	336	7
TAP	113	0	0
TAP	113	0	7
TAP	113	24	1
TAP	113	48	2
TAP	113	72	3
TAP	113	96	4
TAP	113	120	5
TAP	113	144	6
TAP	113	168	7
TAP	113	192	0
TAP	113	192	4
TAP	113	216	3
TAP	113	240	2
TAP	113	264	1
TAP	113	288	0
TAP	113	312	7
TAP	113	336	6
TAP	113	360	5
TAP	114	0	0
TAP	114	0	4
TAP	114	24	1
TAP	114	48	2
TAP	114	72	3
TAP	114	96	4
TAP	114	96	7
TAP	114	120	6
TAP	114	144	5
TAP	114	168	4
TAP	114	192	1
TAP	114	192	3
TAP	114	204	2
TAP	114	216	3
TAP	114	228	4
TAP	114	240	5
TAP	114	252	6
TAP	114	264	7
TAP	114	276	0
TAP	114	288	1
TAP	114	300	2
TAP	114	312	3
TAP	114	324	4
TAP	114	336	5
TAP	114	348	6
TAP	114	360	7
TAP	114	372	0
BST	115	0	1
SSR	115	0	1	96	576	5
BRK	115	0	5
HLD	117	0	2	0
HLD	117	0	4	0
HLD	117	96	3	0
STR	117	96	5
SSR	117	96	5	96	480	1
HLD	119	0	3	0
HLD	119	0	5	0
STR	119	96	2
SSR	119	96	2	96	480	6
HLD	119	96	4	0
STR	121	0	4
SI_	121	0	4	96	48	0
TAP	122	0	0
TAP	122	24	7
TAP	122	48	0
TAP	122	72	7
TAP	122	96	0
TAP	122	120	7
TAP	122	144	0
TAP	122	168	7
TAP	122	192	0
TAP	122	216	7
TAP	122	240	0
TAP	122	264	7
TAP	122	288	0
TAP	122	312	7
TAP	122	336	0
TAP	122	360	7
TAP	123	0	0
TAP	123	24	7
TAP	123	48	1
TAP	123	72	6
TAP	123	96	0
TAP	123	120	7
TAP	123	144	1
TAP	123	168	6
TAP	123	192	0
TAP	123	216	7
TAP	123	240	1
TAP	123	264	6
TAP	123	288	0
TAP	123	312	7
TAP	123	336	1
TAP	123	360	6
TAP	124	0	0
TAP	124	24	7
TAP	124	48	0
TAP	124	72	7
TAP	124	96	0
TAP	124	120	7
TAP	124	144	0
TAP	124	168	7
TAP	124	192	0
TAP	124	216	7
TAP	124	240	0
TAP	124	264	7
TAP	124	288	0
TAP	124	312	7
TAP	124	336	0
TAP	124	360	7
TAP	125	0	1
TAP	125	24	2
TAP	125	48	3
TAP	125	48	7
TAP	125	72	6
TAP	125	96	0
TAP	125	96	5
TAP	125	120	1
TAP	125	144	2
TAP	125	144	6
TAP	125	168	5
TAP	125	192	1
TAP	125	192	4
TAP	125	216	2
TAP	125	240	3
TAP	125	240	7
TAP	125	264	6
STR	125	288	0
SI_	125	288	0	96	48	4
TAP	125	288	5
TAP	125	312	1
TAP	125	336	2
TAP	125	336	6
TAP	125	360	5
BRK	126	0	0
TAP	126	0	4

T_REC_TAP	877
T_REC_BRK	21
T_REC_XTP	0
T_REC_HLD	35
T_REC_XHO	0
T_REC_STR	61
T_REC_BST	1
T_REC_XST	0
T_REC_TTP	0
T_REC_THO	0
T_REC_SLD	62
T_REC_ALL	1057
T_NUM_TAP	938
T_NUM_BRK	22
T_NUM_HLD	35
T_NUM_SLD	62
T_NUM_ALL	1057
T_JUDGE_TAP	960
T_JUDGE_HLD	65
T_JUDGE_SLD	62
T_JUDGE_ALL	1087
TTM_EACHPAIRS	197
TTM_SCR_TAP	469000
TTM_SCR_BRK	57200
TTM_SCR_HLD	35000
TTM_SCR_SLD	93000
TTM_SCR_ALL	654200
TTM_SCR_S	632450
TTM_SCR_SS	652000
TTM_RAT_ACV	10033

