VERSION	0.00.00	1.03.00
FES_MODE	0
BPM_DEF	240.000	240.000	240.000	240.000
MET_DEF	4	4
RESOLUTION	384
CLK_DEF	384
COMPATIBLE_CODE	MA2

BPM	0	0	240.000
MET	0	0	4	4
MET	43	0	4	3
MET	46	0	4	2
MET	46	192	4	3
MET	49	192	4	2
MET	50	0	4	3
MET	53	0	4	2
MET	53	192	4	3
MET	56	192	4	2
MET	57	0	4	3
MET	60	0	4	2
MET	60	192	4	3
MET	63	192	4	2
MET	64	0	4	4

HLD	2	0	5	144
TAP	2	96	4
HLD	2	144	4	96
TAP	2	240	5
HLD	2	336	2	144
TAP	3	48	3
HLD	3	96	3	96
TAP	3	192	2
TAP	3	288	1
TAP	3	288	4
HLD	4	0	2	96
HLD	4	96	3	96
HLD	4	192	4	96
HLD	4	288	5	96
HLD	5	0	2	96
HLD	5	96	3	96
HLD	5	192	4	96
TAP	5	288	5
HLD	6	0	2	144
TAP	6	96	3
HLD	6	144	3	96
TAP	6	240	2
HLD	6	336	5	144
TAP	7	48	4
HLD	7	96	4	96
TAP	7	192	5
TAP	7	288	1
TAP	7	288	6
TAP	8	0	0
TAP	8	0	7
STR	8	48	0
SCR	8	48	0	96	96	3
STR	8	48	7
SCL	8	48	7	96	96	4
TAP	9	0	0
TAP	9	0	7
TAP	9	48	0
TAP	9	48	7
TAP	9	96	0
TAP	9	96	7
TAP	9	144	0
TAP	9	144	7
TAP	9	192	0
TAP	9	192	7
TAP	9	240	0
TAP	9	240	7
BRK	9	288	1
BRK	9	288	6
TAP	10	0	2
TAP	10	96	1
TAP	10	96	3
TAP	10	192	4
TAP	10	240	4
TAP	10	288	3
HLD	10	336	4	96
TAP	11	48	2
TAP	11	96	2
TAP	11	144	3
TAP	11	192	2
TAP	11	192	3
TAP	11	288	1
TAP	11	288	4
TAP	12	0	5
TAP	12	96	4
TAP	12	96	6
TAP	12	192	3
TAP	12	240	3
TAP	12	288	4
HLD	12	336	3	96
TAP	13	48	5
TAP	13	96	5
TAP	13	144	4
TAP	13	192	4
TAP	13	192	5
TAP	13	288	3
TAP	13	288	6
TAP	14	0	2
TAP	14	96	1
TAP	14	96	4
TAP	14	192	5
TAP	14	240	5
TAP	14	288	4
HLD	14	336	5	96
TAP	15	48	2
TAP	15	96	2
TAP	15	144	3
TAP	15	192	2
TAP	15	192	3
TAP	15	288	1
TAP	15	288	6
STR	16	0	0
SLL	16	0	0	96	192	3
STR	16	0	7
SLR	16	0	7	96	192	4
TAP	17	0	1
TAP	17	48	3
TAP	17	96	2
TAP	17	144	4
TAP	17	192	3
TAP	17	240	5
TAP	17	288	4
TAP	18	0	6
TAP	18	96	5
TAP	18	96	7
TAP	18	192	0
TAP	18	240	0
TAP	18	288	7
HLD	18	336	0	96
TAP	19	48	6
TAP	19	96	6
TAP	19	144	7
TAP	19	192	6
TAP	19	192	7
TAP	19	288	0
TAP	19	288	5
TAP	20	0	1
TAP	20	96	0
TAP	20	96	2
TAP	20	192	7
TAP	20	240	7
TAP	20	288	0
HLD	20	336	7	96
TAP	21	48	1
TAP	21	96	1
TAP	21	144	0
TAP	21	192	0
TAP	21	192	1
TAP	21	288	2
TAP	21	288	7
TAP	22	0	6
TAP	22	96	0
TAP	22	96	5
TAP	22	192	1
TAP	22	240	1
TAP	22	288	0
HLD	22	336	1	96
TAP	23	48	6
TAP	23	96	6
TAP	23	144	7
TAP	23	192	6
TAP	23	192	7
TAP	23	288	2
TAP	23	288	5
STR	24	0	1
SI_	24	0	1	96	48	4
TAP	24	96	0
STR	24	192	6
SI_	24	192	6	96	48	3
TAP	24	288	7
STR	25	0	0
SI_	25	0	0	96	48	4
TAP	25	96	7
BRK	25	192	1
BRK	25	192	6
HLD	26	0	5	144
TAP	26	96	4
HLD	26	144	4	192
HLD	26	336	3	336
HLD	27	144	2	144
HLD	28	0	2	144
TAP	28	96	3
HLD	28	144	3	528
STR	28	336	4
SCR	28	336	4	96	240	1
TAP	30	0	2
TAP	30	0	3
TAP	30	96	2
TAP	30	96	3
TAP	30	192	3
HLD	30	240	2	96
TAP	30	336	3
HLD	31	0	2	96
TAP	31	96	3
HLD	31	144	2	96
TAP	31	240	3
TAP	31	288	2
TAP	32	0	6
TAP	32	96	4
TAP	32	144	4
TAP	32	240	4
TAP	32	240	5
TAP	32	336	4
TAP	32	336	5
TAP	33	48	4
TAP	33	48	6
TAP	33	144	4
TAP	33	144	6
TAP	33	240	4
TAP	33	240	5
TAP	34	0	1
TAP	34	0	3
TAP	34	96	1
TAP	34	96	3
TAP	34	192	3
HLD	34	240	1	96
TAP	34	336	3
HLD	35	0	1	96
TAP	35	96	3
HLD	35	144	1	96
TAP	35	240	3
TAP	35	288	1
TAP	36	0	6
TAP	36	96	4
TAP	36	144	4
TAP	36	240	4
TAP	36	240	6
TAP	36	336	4
TAP	36	336	6
TAP	37	48	5
TAP	37	48	6
TAP	37	144	5
TAP	37	144	6
TAP	37	240	4
TAP	37	240	6
TAP	38	0	0
TAP	38	0	3
TAP	38	96	0
TAP	38	96	3
TAP	38	192	3
HLD	38	240	0	96
TAP	38	336	3
HLD	39	0	0	96
TAP	39	96	3
HLD	39	144	0	96
TAP	39	240	3
TAP	39	288	0
TAP	40	0	6
TAP	40	96	4
TAP	40	144	4
TAP	40	240	4
TAP	40	240	6
TAP	40	336	4
TAP	40	336	6
TAP	41	48	4
TAP	41	48	7
TAP	41	144	4
TAP	41	144	7
TAP	41	240	4
TAP	41	240	6
TAP	42	0	3
TAP	42	96	3
TAP	42	96	4
TAP	42	192	2
TAP	42	192	5
HLD	42	240	2	96
HLD	42	240	5	96
TAP	43	0	0
TAP	43	0	7
TAP	43	48	0
TAP	43	48	7
TAP	43	96	0
TAP	43	96	7
TAP	43	144	0
TAP	43	144	7
TAP	43	192	0
TAP	43	192	7
TAP	43	240	0
TAP	43	240	7
BRK	43	288	1
BRK	43	288	6
TAP	44	0	2
TAP	44	0	3
TAP	44	48	2
TAP	44	48	3
TAP	44	144	1
TAP	44	144	4
TAP	44	288	0
TAP	44	288	1
TAP	44	336	0
TAP	44	336	1
TAP	45	48	2
TAP	45	48	7
TAP	45	192	4
TAP	45	192	5
TAP	45	240	4
TAP	45	240	5
TAP	45	336	3
TAP	45	336	6
TAP	46	96	6
TAP	46	144	6
TAP	46	192	7
TAP	46	240	7
TAP	46	288	5
TAP	46	336	5
TAP	47	0	0
TAP	47	96	1
TAP	47	96	6
TAP	47	192	4
TAP	47	192	5
TAP	47	240	4
TAP	47	240	5
TAP	47	336	3
TAP	47	336	6
TAP	48	96	6
TAP	48	96	7
TAP	48	144	6
TAP	48	144	7
TAP	48	240	0
TAP	48	240	5
TAP	49	0	2
TAP	49	0	3
TAP	49	48	2
TAP	49	48	3
TAP	49	144	1
TAP	49	144	4
TAP	49	288	1
TAP	49	336	1
TAP	50	0	0
TAP	50	48	0
TAP	50	96	2
TAP	50	144	2
TAP	50	192	7
BRK	50	288	1
BRK	50	288	6
TAP	51	0	3
TAP	51	0	4
TAP	51	96	2
TAP	51	144	2
TAP	51	144	3
TAP	51	240	2
TAP	51	288	2
TAP	51	288	4
TAP	52	0	2
TAP	52	48	2
TAP	52	48	5
TAP	52	144	2
TAP	52	192	2
TAP	52	192	6
TAP	52	288	2
TAP	52	336	2
TAP	52	336	7
TAP	53	48	2
TAP	53	96	0
TAP	53	96	2
TAP	53	192	2
TAP	53	240	1
TAP	53	240	2
TAP	53	336	2
TAP	54	0	2
TAP	54	0	3
TAP	54	96	1
TAP	54	96	6
TAP	54	192	3
TAP	54	192	4
TAP	54	288	5
TAP	54	336	4
TAP	54	336	5
TAP	55	48	5
TAP	55	96	3
TAP	55	96	5
TAP	55	192	5
TAP	55	240	2
TAP	55	240	5
TAP	55	336	5
TAP	56	0	1
TAP	56	0	5
TAP	56	96	5
TAP	56	144	0
TAP	56	144	5
TAP	56	240	5
TAP	56	288	5
TAP	56	288	7
TAP	57	0	5
TAP	57	48	5
TAP	57	48	6
TAP	57	144	5
TAP	57	192	4
TAP	57	192	5
BRK	57	288	1
BRK	57	288	6
TAP	58	0	0
TAP	58	96	0
TAP	58	96	1
TAP	58	192	1
TAP	58	288	1
TAP	58	288	2
TAP	59	0	2
TAP	59	96	2
TAP	59	96	3
TAP	59	192	3
TAP	59	288	3
TAP	59	288	4
TAP	60	0	4
TAP	60	96	4
TAP	60	96	5
TAP	60	192	5
TAP	60	288	5
TAP	60	288	6
TAP	61	0	6
BRK	61	96	6
BRK	61	96	7
TAP	61	192	0
TAP	61	240	0
TAP	61	288	6
TAP	61	336	6
TAP	62	0	4
TAP	62	48	4
TAP	62	96	7
TAP	62	144	7
TAP	62	192	1
TAP	62	240	1
TAP	62	288	3
TAP	62	336	3
TAP	63	0	7
TAP	63	48	7
TAP	63	96	5
TAP	63	144	5
TAP	63	192	3
TAP	63	240	3
TAP	63	288	1
TAP	63	336	1
TAP	64	0	0
TAP	64	48	0
TAP	64	96	6
TAP	64	144	6
TAP	64	192	4
TAP	64	240	4
TAP	64	288	2
TAP	64	336	2
BST	65	0	1
SCL	65	0	1	96	480	4
SUL	65	0	1	96	480	3
HLD	67	0	5	768
TAP	68	0	4
HLD	69	0	2	768
TAP	70	0	3
STR	71	0	5
SCL	71	0	5	96	288	2
HLD	72	0	1	384
STR	73	0	2
SCR	73	0	2	96	288	5
TAP	74	0	6
STR	75	0	1
SCR	75	0	1	96	288	4
HLD	75	0	6	96
HLD	75	192	5	96
HLD	76	0	6	96
HLD	76	192	3	96
HLD	76	192	5	96
HLD	77	0	2	96
STR	77	0	6
SCL	77	0	6	96	288	3
HLD	77	192	1	96
HLD	78	0	2	96
HLD	78	192	3	96
HLD	78	192	4	96
STR	79	0	2
SCL	79	0	2	96	288	7
HLD	79	0	5	96
HLD	79	192	4	96
HLD	80	0	5	96
HLD	80	192	1	96
HLD	80	192	6	96
STR	81	0	0
SXL	81	0	0	96	432	3
STR	81	0	7
SXR	81	0	7	96	432	4
TAP	83	0	2
TAP	83	0	3
TAP	83	96	5
TAP	83	144	4
TAP	83	192	6
TAP	83	240	7
TAP	83	288	6
TAP	83	336	0
TAP	83	336	5
TAP	84	48	6
TAP	84	96	6
TAP	84	144	0
TAP	84	192	0
TAP	84	216	1
TAP	84	240	2
TAP	84	288	7
TAP	85	0	1
TAP	85	48	1
TAP	85	96	3
TAP	85	144	3
TAP	85	192	4
TAP	85	240	4
TAP	85	288	6
TAP	85	336	6
TAP	86	0	7
TAP	86	48	6
TAP	86	96	7
TAP	86	144	6
TAP	86	240	0
TAP	86	240	5
TAP	86	288	0
TAP	86	288	5
TAP	87	0	4
TAP	87	0	5
TAP	87	96	2
TAP	87	144	3
TAP	87	192	1
TAP	87	240	0
TAP	87	288	1
TAP	87	336	2
TAP	87	336	7
TAP	88	48	1
TAP	88	96	1
TAP	88	144	7
TAP	88	192	7
TAP	88	216	6
TAP	88	240	5
TAP	88	288	0
TAP	89	0	3
TAP	89	0	6
TAP	89	48	3
TAP	89	48	6
TAP	89	144	1
TAP	89	144	4
TAP	89	240	2
TAP	89	240	5
TAP	89	336	1
TAP	89	336	6
TAP	90	0	0
TAP	90	24	7
TAP	90	48	0
TAP	90	72	7
TAP	90	96	0
TAP	90	192	3
TAP	90	192	4
TAP	90	288	2
TAP	90	288	5
TAP	91	0	0
TAP	91	0	1
TAP	91	96	6
TAP	91	144	7
TAP	91	192	5
TAP	91	240	4
TAP	91	288	5
TAP	91	336	3
HLD	91	336	6	240
TAP	92	48	7
TAP	92	96	7
TAP	92	144	0
TAP	92	192	0
TAP	92	216	1
TAP	92	240	2
TAP	92	288	7
TAP	93	0	6
TAP	93	48	6
TAP	93	96	4
TAP	93	144	4
TAP	93	192	3
TAP	93	240	3
TAP	93	288	1
TAP	93	336	1
TAP	94	0	0
TAP	94	48	1
TAP	94	96	0
TAP	94	144	1
TAP	94	240	2
TAP	94	240	7
TAP	94	288	2
TAP	94	288	7
TAP	95	0	6
TAP	95	0	7
TAP	95	96	1
TAP	95	144	0
TAP	95	192	2
TAP	95	240	3
TAP	95	288	2
HLD	95	336	1	240
TAP	95	336	4
TAP	96	48	0
TAP	96	96	0
TAP	96	144	7
TAP	96	192	7
TAP	96	216	6
TAP	96	240	5
TAP	96	288	0
TAP	97	0	1
TAP	97	0	3
STR	97	48	1
SI_	97	48	1	96	96	4
TAP	97	48	3
TAP	97	144	5
TAP	97	192	5
TAP	97	240	5
TAP	97	288	5
TAP	98	0	0
TAP	98	0	7
TAP	98	48	0
TAP	98	48	7
TAP	98	96	0
TAP	98	96	7
TAP	98	144	0
TAP	98	144	7
TAP	98	192	0
TAP	98	192	7
TAP	98	240	0
TAP	98	240	7
BRK	98	288	1
BRK	98	288	6
TAP	99	0	3
TAP	99	0	6
TAP	99	96	1
TAP	99	96	4
STR	99	144	1
SI_	99	144	1	96	48	4
TAP	99	144	4
STR	99	240	5
SI_	99	240	5	96	48	0
STR	99	336	1
SI_	99	336	1	96	48	4
STR	100	48	5
SI_	100	48	5	96	48	0
STR	100	144	1
SCR	100	144	1	96	48	4
STR	100	240	5
SCR	100	240	5	96	48	0
STR	100	336	1
SCR	100	336	1	96	48	4
STR	101	48	5
SCR	101	48	5	96	48	0
TAP	101	144	1
HLD	101	256	2	64
HLD	101	320	3	64
HLD	102	0	4	64
HLD	102	64	5	64
HLD	102	128	6	64
HLD	102	192	7	64
HLD	102	256	0	64
HLD	102	320	1	64
TAP	103	0	2
TAP	103	96	4
TAP	103	96	5
TAP	103	144	4
STR	103	144	5
SI_	103	144	5	96	48	7
STR	103	240	4
SI_	103	240	4	96	48	2
STR	103	336	5
SI_	103	336	5	96	48	0
STR	104	48	4
SI_	104	48	4	96	48	1
TAP	104	144	5
TAP	104	240	3
TAP	104	240	7
TAP	104	336	6
TAP	105	0	6
HLD	105	48	4	96
HLD	105	144	2	144
TAP	105	240	0
STR	105	288	0
SCL	105	288	0	96	96	4
SCR	105	288	0	96	96	3
BRK	106	192	1
BRK	106	192	6
TAP	107	0	1
TAP	107	0	4
TAP	107	96	3
TAP	107	96	6
TAP	107	144	3
STR	107	144	6
SI_	107	144	6	96	48	3
STR	107	240	2
SI_	107	240	2	96	48	7
STR	107	336	6
SI_	107	336	6	96	48	3
STR	108	48	2
SI_	108	48	2	96	48	7
STR	108	144	6
SCL	108	144	6	96	48	3
STR	108	240	2
SCL	108	240	2	96	48	7
STR	108	336	6
SCL	108	336	6	96	48	3
STR	109	48	2
SCL	109	48	2	96	48	7
TAP	109	144	6
HLD	109	256	5	64
HLD	109	320	4	64
HLD	110	0	3	64
HLD	110	64	2	64
HLD	110	128	1	64
HLD	110	192	0	64
HLD	110	256	7	64
HLD	110	320	6	64
TAP	111	0	5
TAP	111	96	2
TAP	111	96	3
STR	111	144	2
SI_	111	144	2	96	48	0
TAP	111	144	3
STR	111	240	3
SI_	111	240	3	96	48	5
STR	111	336	2
SI_	111	336	2	96	48	7
STR	112	48	3
SI_	112	48	3	96	48	6
TAP	112	144	2
TAP	112	240	1
TAP	112	240	5
TAP	112	288	1
TAP	112	288	5
TAP	113	0	2
TAP	113	0	3
TAP	113	48	2
TAP	113	48	3
TAP	113	96	1
TAP	113	96	4
TAP	113	192	4
TAP	113	192	5
TAP	113	240	4
TAP	113	240	5
TAP	113	288	3
TAP	113	288	6
TAP	114	0	0
TAP	114	0	7
TAP	114	48	0
TAP	114	48	7
TAP	114	96	0
TAP	114	96	7
TAP	114	144	0
TAP	114	144	7
TAP	114	192	0
TAP	114	192	7
TAP	114	240	0
TAP	114	240	7
BRK	114	288	1
BRK	114	288	6
TAP	115	0	6
TAP	115	48	7
TAP	115	96	6
TAP	115	144	0
HLD	115	144	5	96
HLD	115	240	4	96
HLD	115	336	3	96
HLD	116	48	2	96
TAP	116	144	1
TAP	116	240	0
TAP	116	240	1
TAP	116	288	0
TAP	116	288	1
TAP	117	0	1
TAP	117	48	0
TAP	117	96	1
HLD	117	144	2	96
TAP	117	144	7
HLD	117	240	3	96
HLD	117	336	4	96
HLD	118	48	5	96
TAP	118	144	6
TAP	118	240	6
TAP	118	240	7
TAP	118	288	6
TAP	118	288	7
TAP	119	0	5
TAP	119	48	4
TAP	119	96	5
HLD	119	144	3	96
TAP	119	144	6
HLD	119	240	1	96
HLD	119	336	7	96
HLD	120	48	5	96
TAP	120	144	3
TAP	120	240	1
TAP	120	240	6
TAP	120	288	1
TAP	120	288	6
STR	121	0	3
SI_	121	0	3	96	96	0
STR	121	0	4
SI_	121	0	4	96	96	7
TAP	122	0	0
TAP	122	96	7
TAP	122	192	1
TAP	122	288	6
TAP	123	0	0
TAP	123	48	0
TAP	123	96	7
TAP	123	144	7
TAP	123	192	1
TAP	123	240	1
TAP	123	288	6
TAP	123	336	6
TAP	124	0	0
TAP	124	24	7
TAP	124	48	0
TAP	124	72	7
TAP	124	96	0
TAP	124	120	7
TAP	124	144	0
TAP	124	168	7
TAP	124	192	0
TAP	124	216	7
TAP	124	240	0
TAP	124	264	7
TAP	124	288	0
TAP	124	312	7
TAP	124	336	0
TAP	124	360	7
TAP	125	0	0
TAP	125	24	7
TAP	125	48	0
TAP	125	72	7
TAP	125	96	0
TAP	125	120	7
TAP	125	144	0
TAP	125	168	7
TAP	125	192	0
TAP	125	216	7
TAP	125	240	0
TAP	125	264	7
STR	125	288	0
SI_	125	288	0	96	96	4
SSL	125	288	0	96	96	4
TAP	125	312	7
TAP	125	336	0
TAP	125	360	7

T_REC_TAP	613
T_REC_BRK	18
T_REC_XTP	0
T_REC_HLD	88
T_REC_XHO	0
T_REC_STR	44
T_REC_BST	1
T_REC_XST	0
T_REC_TTP	0
T_REC_THO	0
T_REC_SLD	48
T_REC_ALL	812
T_NUM_TAP	657
T_NUM_BRK	19
T_NUM_HLD	88
T_NUM_SLD	48
T_NUM_ALL	812
T_JUDGE_TAP	676
T_JUDGE_HLD	126
T_JUDGE_SLD	48
T_JUDGE_ALL	850
TTM_EACHPAIRS	181
TTM_SCR_TAP	328500
TTM_SCR_BRK	49400
TTM_SCR_HLD	88000
TTM_SCR_SLD	72000
TTM_SCR_ALL	537900
TTM_SCR_S	519950
TTM_SCR_SS	536000
TTM_RAT_ACV	10035

