VERSION	0.00.00	1.03.00
FES_MODE	0
BPM_DEF	240.000	240.000	240.000	240.000
MET_DEF	4	4
RESOLUTION	384
CLK_DEF	384
COMPATIBLE_CODE	MA2

BPM	0	0	240.000
MET	0	0	4	4
MET	43	0	4	3
MET	46	0	4	2
MET	46	192	4	3
MET	49	192	4	2
MET	50	0	4	3
MET	53	0	4	2
MET	53	192	4	3
MET	56	192	4	2
MET	57	0	4	3
MET	60	0	4	2
MET	60	192	4	3
MET	63	192	4	2
MET	64	0	4	4

HLD	2	0	4	576
TAP	2	192	3
TAP	3	0	3
TAP	3	192	3
HLD	4	0	3	576
TAP	4	192	4
TAP	5	0	4
TAP	5	192	4
HLD	6	0	4	576
TAP	6	192	3
TAP	7	0	3
STR	7	192	3
SI_	7	192	3	96	192	0
TAP	8	288	1
TAP	8	288	6
TAP	9	0	0
TAP	9	48	0
TAP	9	96	7
TAP	9	144	7
TAP	9	192	0
TAP	9	288	1
TAP	9	288	6
TAP	10	0	2
TAP	10	96	2
TAP	10	192	2
TAP	10	192	3
TAP	10	288	2
TAP	10	288	3
TAP	11	0	2
TAP	11	96	2
TAP	11	192	2
TAP	11	192	3
TAP	11	288	3
TAP	11	288	4
TAP	12	0	5
TAP	12	96	5
TAP	12	192	4
TAP	12	192	5
TAP	12	288	4
TAP	12	288	5
TAP	13	0	5
TAP	13	96	5
TAP	13	192	4
TAP	13	192	5
TAP	13	288	3
TAP	13	288	4
TAP	14	0	2
TAP	14	96	2
TAP	14	192	2
TAP	14	192	3
TAP	14	288	2
TAP	14	288	3
TAP	15	0	2
TAP	15	96	2
TAP	15	192	2
TAP	15	192	3
STR	15	288	3
SI_	15	288	3	96	192	0
STR	15	288	4
SI_	15	288	4	96	192	7
TAP	17	0	7
TAP	17	48	7
TAP	17	96	0
TAP	17	144	0
TAP	17	192	7
TAP	17	288	1
TAP	17	288	6
TAP	18	0	5
TAP	18	96	5
TAP	18	192	4
TAP	18	192	5
TAP	18	288	4
TAP	18	288	5
TAP	19	0	5
TAP	19	96	5
TAP	19	192	3
TAP	19	192	5
TAP	19	288	2
TAP	19	288	4
TAP	20	0	2
TAP	20	96	2
TAP	20	192	2
TAP	20	192	3
TAP	20	288	2
TAP	20	288	3
TAP	21	0	2
TAP	21	96	2
TAP	21	192	2
TAP	21	192	4
TAP	21	288	3
TAP	21	288	5
TAP	22	0	5
TAP	22	96	5
TAP	22	192	4
TAP	22	192	5
TAP	22	288	4
TAP	22	288	5
TAP	23	0	5
TAP	23	96	5
TAP	23	192	4
TAP	23	192	5
STR	23	288	3
SI_	23	288	3	96	192	0
STR	23	288	4
SI_	23	288	4	96	192	7
TAP	25	0	0
TAP	25	0	7
TAP	25	96	1
TAP	25	96	6
TAP	25	192	2
TAP	25	192	5
BRK	25	288	3
BRK	25	288	4
HLD	26	0	5	576
TAP	26	192	4
TAP	27	192	4
HLD	28	0	2	576
TAP	28	192	3
TAP	29	192	3
HLD	30	0	3	192
HLD	30	192	2	192
HLD	31	0	1	192
TAP	31	192	0
STR	32	0	7
SI_	32	0	7	96	192	4
STR	33	0	3
SI_	33	0	3	96	192	0
HLD	34	0	7	192
HLD	34	192	6	192
HLD	35	0	5	192
TAP	35	192	4
STR	36	0	3
SI_	36	0	3	96	192	0
STR	37	0	7
SI_	37	0	7	96	192	4
HLD	38	0	3	192
HLD	38	192	2	192
HLD	39	0	1	192
TAP	39	192	0
STR	40	0	7
SI_	40	0	7	96	192	3
STR	41	0	1
SI_	41	0	1	96	192	5
HLD	42	0	6	192
HLD	42	192	5	192
TAP	43	0	4
TAP	43	96	4
TAP	43	192	3
TAP	43	192	4
TAP	44	0	3
TAP	44	96	3
TAP	44	192	3
TAP	44	288	2
TAP	45	0	2
TAP	45	96	2
TAP	45	192	1
TAP	45	288	1
TAP	46	0	1
TAP	46	96	0
TAP	46	192	0
TAP	46	288	0
TAP	47	0	0
TAP	47	0	7
TAP	47	96	0
TAP	47	96	7
TAP	47	192	7
TAP	47	288	7
TAP	48	0	7
TAP	48	96	6
TAP	48	192	6
TAP	48	288	6
TAP	49	0	5
TAP	49	96	5
TAP	49	192	5
TAP	49	288	4
TAP	50	0	4
TAP	50	96	4
TAP	50	192	3
TAP	50	192	4
TAP	50	288	3
TAP	50	288	4
TAP	51	0	3
TAP	51	0	4
TAP	51	96	4
TAP	51	192	4
TAP	51	288	3
TAP	51	288	4
TAP	52	0	3
TAP	52	96	3
TAP	52	192	3
TAP	52	192	5
TAP	52	288	5
TAP	53	0	5
TAP	53	96	2
TAP	53	96	5
TAP	53	192	2
TAP	53	288	2
TAP	54	0	2
TAP	54	0	5
TAP	54	96	2
TAP	54	96	5
TAP	54	192	1
TAP	54	192	6
TAP	54	288	1
TAP	55	0	1
TAP	55	96	1
TAP	55	96	6
TAP	55	192	6
TAP	55	288	6
TAP	56	0	0
TAP	56	0	6
TAP	56	96	0
TAP	56	192	0
TAP	56	288	0
TAP	56	288	7
TAP	57	0	7
TAP	57	96	7
TAP	57	192	0
TAP	57	192	7
TAP	57	288	0
TAP	57	288	7
TAP	58	0	0
TAP	58	0	7
TAP	58	96	0
TAP	58	192	0
TAP	58	288	0
TAP	58	288	7
TAP	59	0	7
TAP	59	96	7
TAP	59	192	1
TAP	59	192	7
TAP	59	288	1
TAP	60	0	1
TAP	60	96	1
TAP	60	96	6
TAP	60	192	6
TAP	60	288	6
TAP	61	0	1
TAP	61	0	6
TAP	61	96	1
TAP	61	96	6
TAP	61	192	2
TAP	61	192	5
TAP	61	288	2
TAP	62	0	2
TAP	62	96	2
TAP	62	96	5
TAP	62	192	5
TAP	62	288	5
TAP	63	0	3
TAP	63	0	5
TAP	63	96	3
TAP	63	192	3
TAP	63	288	3
TAP	63	288	4
TAP	64	0	4
TAP	64	96	4
TAP	64	192	3
TAP	64	192	4
STR	64	288	3
SUR	64	288	3	96	576	4
TAP	64	288	4
TAP	67	0	4
HLD	67	0	5	576
TAP	68	0	4
TAP	68	192	4
HLD	69	0	2	576
TAP	69	0	3
TAP	70	0	3
TAP	70	192	3
HLD	71	0	4	576
TAP	71	0	5
TAP	72	0	5
TAP	72	192	5
TAP	73	0	2
HLD	73	0	3	576
TAP	74	0	2
TAP	74	192	2
TAP	75	0	3
HLD	75	0	5	576
TAP	75	192	4
TAP	76	0	3
TAP	76	192	4
HLD	77	0	2	576
TAP	77	0	4
TAP	77	192	3
TAP	78	0	4
TAP	78	192	3
HLD	79	0	3	576
TAP	79	0	5
TAP	79	192	4
TAP	80	0	5
TAP	80	192	4
HLD	81	0	2	384
HLD	81	0	5	384
TAP	83	0	5
TAP	83	96	4
TAP	83	96	5
TAP	83	192	6
TAP	83	240	6
TAP	83	288	6
TAP	84	0	6
TAP	84	0	7
TAP	84	96	0
TAP	84	96	5
TAP	84	192	1
TAP	84	192	4
TAP	84	288	2
TAP	84	288	3
TAP	85	0	4
TAP	85	96	5
TAP	85	192	6
TAP	85	288	0
TAP	85	288	7
TAP	86	0	1
TAP	86	96	2
TAP	86	192	3
TAP	86	192	4
TAP	86	288	3
TAP	86	288	4
TAP	87	0	2
TAP	87	96	2
TAP	87	96	3
TAP	87	192	1
TAP	87	240	1
TAP	87	288	1
TAP	88	0	0
TAP	88	0	1
TAP	88	96	2
TAP	88	96	7
TAP	88	192	3
TAP	88	192	6
TAP	88	288	4
TAP	88	288	5
TAP	89	0	3
TAP	89	96	2
TAP	89	192	1
TAP	89	288	0
TAP	89	288	7
TAP	90	0	1
TAP	90	0	6
TAP	90	96	1
TAP	90	96	6
TAP	90	192	3
TAP	90	192	4
TAP	90	288	3
TAP	90	288	4
TAP	91	0	5
TAP	91	96	4
TAP	91	96	5
TAP	91	192	6
TAP	91	240	6
TAP	91	288	6
TAP	92	0	0
TAP	92	0	7
TAP	92	96	1
TAP	92	192	2
TAP	92	240	2
TAP	92	288	2
TAP	92	288	3
TAP	93	0	4
TAP	93	96	5
TAP	93	192	6
TAP	93	240	6
TAP	93	288	6
TAP	94	0	0
TAP	94	0	7
TAP	94	96	1
TAP	94	96	6
TAP	94	192	3
TAP	94	192	4
TAP	94	288	3
TAP	94	288	4
TAP	95	0	2
TAP	95	96	2
TAP	95	96	3
TAP	95	192	1
TAP	95	240	1
TAP	95	288	1
TAP	96	0	0
TAP	96	0	7
TAP	96	96	6
TAP	96	192	5
TAP	96	240	5
TAP	96	288	4
TAP	96	288	5
TAP	97	0	3
TAP	97	96	2
TAP	97	192	1
TAP	97	240	1
TAP	97	288	1
TAP	98	0	0
TAP	98	0	7
TAP	98	48	0
TAP	98	48	7
TAP	98	96	0
TAP	98	96	7
TAP	98	192	1
TAP	98	192	6
TAP	98	240	1
TAP	98	240	6
BRK	98	288	1
BRK	98	288	6
TAP	99	0	5
TAP	99	96	4
TAP	99	96	5
TAP	99	192	2
TAP	99	288	2
TAP	99	288	3
TAP	100	0	1
TAP	100	96	0
TAP	100	96	1
TAP	100	192	7
TAP	100	288	6
TAP	101	0	5
TAP	101	96	5
HLD	101	192	6	96
HLD	101	288	5	96
HLD	102	0	4	96
HLD	102	96	3	96
HLD	102	192	2	96
TAP	102	288	1
TAP	103	0	2
TAP	103	0	3
TAP	103	96	2
TAP	103	96	3
TAP	103	192	3
TAP	103	288	4
TAP	104	0	4
TAP	104	0	5
TAP	104	96	4
TAP	104	96	5
TAP	104	192	4
TAP	104	288	3
STR	105	0	2
SI_	105	0	2	96	192	7
STR	106	0	6
SI_	106	0	6	96	192	3
TAP	107	0	2
TAP	107	48	2
TAP	107	96	2
TAP	107	96	3
TAP	107	192	5
TAP	107	240	5
TAP	107	288	4
TAP	107	288	5
TAP	108	0	6
TAP	108	48	6
TAP	108	96	6
TAP	108	96	7
TAP	108	192	1
TAP	108	240	1
TAP	108	288	0
TAP	108	288	1
TAP	109	0	2
TAP	109	48	2
TAP	109	96	2
HLD	109	192	1	96
HLD	109	288	2	96
HLD	110	0	3	96
HLD	110	96	4	96
HLD	110	192	5	96
TAP	110	288	6
TAP	111	0	7
TAP	111	48	7
TAP	111	96	6
TAP	111	144	6
TAP	111	192	5
TAP	111	240	5
TAP	111	288	4
TAP	112	0	3
TAP	112	48	3
TAP	112	96	2
TAP	112	144	2
TAP	112	192	1
TAP	112	240	1
TAP	112	288	0
TAP	113	0	0
TAP	113	48	0
TAP	113	96	1
TAP	113	144	1
TAP	113	192	2
TAP	113	240	2
TAP	113	288	3
TAP	113	336	3
TAP	114	0	4
TAP	114	48	4
TAP	114	96	5
TAP	114	144	5
TAP	114	192	6
TAP	114	240	6
TAP	114	288	7
TAP	114	336	7
STR	115	0	0
SI_	115	0	0	96	288	4
STR	117	0	4
SI_	117	0	4	96	288	0
STR	119	0	7
SI_	119	0	7	96	288	3
TAP	121	0	3
TAP	121	0	4
TAP	122	0	3
TAP	122	48	3
TAP	122	96	3
TAP	122	144	3
TAP	122	192	4
TAP	122	240	4
TAP	122	288	4
TAP	122	336	4
TAP	123	0	3
TAP	123	48	3
TAP	123	96	3
TAP	123	144	3
TAP	123	192	4
TAP	123	240	4
TAP	123	288	4
TAP	123	336	4
TAP	124	0	3
TAP	124	48	3
TAP	124	96	4
TAP	124	144	4
TAP	124	192	3
TAP	124	240	3
TAP	124	288	4
TAP	124	336	4
TAP	125	0	3
TAP	125	48	2
TAP	125	96	1
TAP	125	144	0
TAP	125	192	7
TAP	125	240	6
STR	125	288	5
SI_	125	288	5	96	192	2

T_REC_TAP	458
T_REC_BRK	4
T_REC_XTP	0
T_REC_HLD	35
T_REC_XHO	0
T_REC_STR	18
T_REC_BST	0
T_REC_XST	0
T_REC_TTP	0
T_REC_THO	0
T_REC_SLD	18
T_REC_ALL	533
T_NUM_TAP	476
T_NUM_BRK	4
T_NUM_HLD	35
T_NUM_SLD	18
T_NUM_ALL	533
T_JUDGE_TAP	480
T_JUDGE_HLD	112
T_JUDGE_SLD	18
T_JUDGE_ALL	610
TTM_EACHPAIRS	114
TTM_SCR_TAP	238000
TTM_SCR_BRK	10400
TTM_SCR_HLD	35000
TTM_SCR_SLD	27000
TTM_SCR_ALL	310400
TTM_SCR_S	300700
TTM_SCR_SS	310000
TTM_RAT_ACV	10012

