VERSION	0.00.00	1.03.00
FES_MODE	0
BPM_DEF	240.000	240.000	240.000	240.000
MET_DEF	4	4
RESOLUTION	384
CLK_DEF	384
COMPATIBLE_CODE	MA2

BPM	0	0	240.000
MET	0	0	4	4
MET	43	0	4	3
MET	46	0	4	2
MET	46	192	4	3
MET	49	192	4	2
MET	50	0	4	3
MET	53	0	4	2
MET	53	192	4	3
MET	56	192	4	2
MET	57	0	4	3
MET	60	0	4	2
MET	60	192	4	3
MET	63	192	4	2
MET	64	0	4	4

TAP	10	0	0
TAP	10	192	0
TAP	11	0	0
TAP	12	0	1
TAP	12	192	1
TAP	13	0	1
TAP	14	0	2
TAP	14	192	2
TAP	15	0	2
TAP	16	0	3
TAP	16	192	4
TAP	17	0	3
TAP	18	0	4
TAP	18	192	4
TAP	19	0	4
TAP	20	0	5
TAP	20	192	5
TAP	21	0	5
TAP	22	0	6
TAP	22	192	6
TAP	23	0	6
TAP	24	0	7
TAP	24	192	0
BRK	25	0	7
STR	26	0	0
SI_	26	0	0	96	288	3
STR	28	0	7
SI_	28	0	7	96	288	4
TAP	30	0	0
TAP	30	192	0
TAP	31	0	0
TAP	31	0	1
TAP	32	0	1
TAP	32	192	1
TAP	33	0	0
TAP	33	0	2
TAP	34	0	7
TAP	34	192	7
TAP	35	0	6
TAP	35	0	7
TAP	36	0	6
TAP	36	192	6
TAP	37	0	5
TAP	37	0	7
TAP	38	0	0
TAP	38	192	0
TAP	39	0	1
TAP	39	192	1
TAP	40	0	2
TAP	40	192	2
TAP	41	0	3
TAP	41	192	3
TAP	42	0	4
TAP	42	192	4
HLD	43	0	5	192
TAP	44	0	4
TAP	44	0	5
TAP	44	288	2
TAP	44	288	3
TAP	45	192	4
TAP	45	192	5
HLD	46	96	2	288
HLD	46	96	3	288
TAP	47	192	2
TAP	47	192	4
TAP	48	96	3
TAP	48	96	5
TAP	49	0	2
TAP	49	0	4
HLD	49	288	3	288
HLD	49	288	5	288
TAP	51	0	5
TAP	51	192	5
TAP	52	0	4
TAP	52	192	4
TAP	53	0	3
TAP	53	192	3
TAP	54	0	2
TAP	54	0	3
TAP	54	192	2
TAP	55	0	2
TAP	55	192	3
TAP	56	0	3
TAP	56	192	4
TAP	57	0	4
TAP	57	192	4
TAP	57	192	5
HLD	58	0	5	144
HLD	58	288	4	144
HLD	59	192	3	144
HLD	60	96	2	144
TAP	61	0	2
TAP	61	0	3
HLD	61	192	2	144
HLD	62	96	3	144
HLD	63	0	4	144
HLD	63	288	5	144
TAP	64	192	4
TAP	64	192	5
BRK	65	0	4
BRK	65	0	5
TAP	67	0	5
TAP	67	192	5
TAP	68	0	5
TAP	69	0	6
TAP	69	192	6
TAP	70	0	6
TAP	71	0	7
TAP	71	192	7
TAP	72	0	0
TAP	72	192	0
TAP	73	0	7
TAP	73	192	7
TAP	74	0	0
TAP	74	0	7
TAP	75	0	1
TAP	75	192	1
TAP	76	0	1
TAP	77	0	2
TAP	77	192	2
TAP	78	0	2
TAP	79	0	3
TAP	79	192	3
TAP	80	0	4
TAP	80	192	4
TAP	81	0	3
TAP	81	192	3
TAP	82	0	3
TAP	82	0	4
TAP	83	0	5
TAP	83	96	5
TAP	83	192	5
TAP	84	0	5
TAP	84	96	5
TAP	84	192	5
TAP	85	0	4
TAP	85	96	4
TAP	85	192	4
TAP	86	0	4
TAP	86	96	4
TAP	86	192	4
TAP	87	0	3
TAP	87	96	3
TAP	87	192	3
TAP	88	0	3
TAP	88	96	3
TAP	88	192	3
TAP	89	0	2
TAP	89	96	2
TAP	89	192	2
TAP	90	0	2
TAP	90	0	3
TAP	91	0	2
TAP	91	96	2
TAP	91	192	2
TAP	92	0	2
TAP	92	96	2
TAP	92	192	2
TAP	93	0	3
TAP	93	96	3
TAP	93	192	3
TAP	94	0	3
TAP	94	96	3
TAP	94	192	3
TAP	95	0	4
TAP	95	96	4
TAP	95	192	4
TAP	96	0	4
TAP	96	96	4
TAP	96	192	4
TAP	97	0	5
TAP	97	96	5
TAP	97	192	5
TAP	98	0	4
TAP	98	0	5
STR	99	0	6
SI_	99	0	6	96	288	2
STR	101	0	1
SI_	101	0	1	96	288	5
STR	103	0	7
SI_	103	0	7	96	288	3
STR	105	0	0
SI_	105	0	0	96	288	4
TAP	107	0	7
TAP	107	96	7
TAP	107	192	7
TAP	108	0	6
TAP	108	96	6
TAP	108	192	6
TAP	109	0	5
TAP	109	96	5
TAP	109	192	5
HLD	110	0	4	192
TAP	111	0	3
TAP	111	96	3
TAP	111	192	3
TAP	112	0	2
TAP	112	96	2
TAP	112	192	2
TAP	113	0	1
TAP	113	96	1
TAP	113	192	1
HLD	114	0	0	192
STR	115	0	0
SI_	115	0	0	96	288	3
STR	117	0	7
SI_	117	0	7	96	288	4
TAP	119	0	0
TAP	119	192	0
TAP	120	0	7
TAP	120	192	7
HLD	122	0	0	1536
HLD	122	0	7	1536

T_REC_TAP	177
T_REC_BRK	3
T_REC_XTP	0
T_REC_HLD	17
T_REC_XHO	0
T_REC_STR	8
T_REC_BST	0
T_REC_XST	0
T_REC_TTP	0
T_REC_THO	0
T_REC_SLD	8
T_REC_ALL	213
T_NUM_TAP	185
T_NUM_BRK	3
T_NUM_HLD	17
T_NUM_SLD	8
T_NUM_ALL	213
T_JUDGE_TAP	188
T_JUDGE_HLD	66
T_JUDGE_SLD	8
T_JUDGE_ALL	262
TTM_EACHPAIRS	22
TTM_SCR_TAP	92500
TTM_SCR_BRK	7800
TTM_SCR_HLD	17000
TTM_SCR_SLD	12000
TTM_SCR_ALL	129300
TTM_SCR_S	125150
TTM_SCR_SS	129000
TTM_RAT_ACV	10023

