VERSION	0.00.00	1.03.00
FES_MODE	0
BPM_DEF	128.000	128.000	128.000	128.000
MET_DEF	4	4
RESOLUTION	384
CLK_DEF	384
COMPATIBLE_CODE	MA2

BPM	0	0	128.000

HLD	1	0	1	48
TAP	1	0	4
TAP	1	48	3
TAP	1	72	2
TAP	1	96	4
TAP	1	120	3
TAP	1	168	3
HLD	1	168	6	48
TAP	1	216	4
TAP	1	240	5
TAP	1	264	3
TAP	1	288	4
TAP	1	336	4
HLD	2	0	1	48
TAP	2	0	4
TAP	2	48	3
TAP	2	72	2
TAP	2	96	4
TAP	2	120	3
TAP	2	168	3
HLD	2	168	6	48
TAP	2	216	4
TAP	2	240	5
TAP	2	264	3
TAP	2	288	4
TAP	2	336	4
HLD	3	0	1	48
TAP	3	0	4
TAP	3	48	3
TAP	3	72	2
TAP	3	96	4
TAP	3	120	3
TAP	3	168	3
HLD	3	168	6	48
TAP	3	216	4
TAP	3	240	5
TAP	3	264	3
TAP	3	288	4
TAP	3	336	4
HLD	4	0	1	48
TAP	4	0	4
TAP	4	48	3
TAP	4	72	2
TAP	4	96	4
TAP	4	120	3
TAP	4	168	3
HLD	4	168	6	48
TAP	4	216	4
TAP	4	240	5
TAP	4	288	2
TAP	4	288	4
TAP	5	0	3
TAP	5	0	6
TAP	5	48	4
TAP	5	72	5
TAP	5	96	3
TAP	5	120	4
TAP	5	168	1
TAP	5	168	4
TAP	5	216	3
TAP	5	240	2
TAP	5	264	4
TAP	5	288	3
TAP	5	336	3
TAP	6	0	1
TAP	6	0	4
TAP	6	48	3
TAP	6	72	2
TAP	6	96	4
TAP	6	120	3
TAP	6	168	3
TAP	6	168	6
TAP	6	216	4
TAP	6	240	5
TAP	6	264	3
TAP	6	288	4
TAP	6	336	4
TAP	7	0	3
TAP	7	0	6
TAP	7	48	4
TAP	7	72	5
TAP	7	96	3
TAP	7	120	4
TAP	7	168	1
TAP	7	168	4
TAP	7	216	3
TAP	7	240	2
TAP	7	264	4
TAP	7	288	3
TAP	7	336	3
TAP	8	0	1
TAP	8	0	4
TAP	8	48	3
TAP	8	72	2
TAP	8	96	4
TAP	8	120	3
TAP	8	168	3
TAP	8	168	6
TAP	8	216	4
TAP	8	240	5
TAP	8	264	3
BRK	8	288	4
STR	9	0	3
SI_	9	0	3	96	48	1
TAP	9	48	4
HLD	9	96	5	144
TAP	9	240	4
TAP	9	288	4
TAP	9	312	5
TAP	9	336	3
STR	10	0	4
SI_	10	0	4	96	48	6
TAP	10	48	3
HLD	10	96	2	144
TAP	10	240	3
TAP	10	288	3
TAP	10	312	2
TAP	10	336	4
STR	11	0	3
SI_	11	0	3	96	48	1
TAP	11	48	4
HLD	11	96	5	144
TAP	11	240	4
TAP	11	288	4
TAP	11	312	5
TAP	11	336	3
TAP	12	0	2
TAP	12	0	4
TAP	12	48	1
TAP	12	96	3
TAP	12	96	5
TAP	12	144	6
TAP	12	192	2
TAP	12	192	4
TAP	12	240	1
TAP	12	288	3
TAP	12	288	4
STR	13	0	4
SI_	13	0	4	96	48	0
TAP	13	48	3
HLD	13	96	2	144
TAP	13	240	3
TAP	13	288	3
TAP	13	312	2
TAP	13	336	4
STR	14	0	3
SI_	14	0	3	96	48	7
TAP	14	48	4
HLD	14	96	5	144
TAP	14	240	4
TAP	14	288	4
TAP	14	312	5
TAP	14	336	3
STR	15	0	4
SI_	15	0	4	96	48	0
TAP	15	48	3
HLD	15	96	2	144
TAP	15	240	3
TAP	15	288	3
TAP	15	312	2
TAP	15	336	4
HLD	16	0	3	48
HLD	16	0	5	48
HLD	16	96	2	48
HLD	16	96	4	48
TAP	16	192	3
TAP	16	192	5
TAP	16	240	2
TAP	16	288	3
TAP	16	336	4
STR	17	0	6
SI_	17	0	6	96	48	2
STR	17	48	2
SI_	17	48	2	96	48	6
HLD	17	96	1	144
TAP	17	240	3
TAP	17	288	3
TAP	17	312	2
TAP	17	336	4
STR	18	0	1
SI_	18	0	1	96	48	5
STR	18	48	5
SI_	18	48	5	96	48	1
HLD	18	96	6	144
TAP	18	240	4
TAP	18	288	4
TAP	18	312	5
TAP	18	336	3
STR	19	0	6
SI_	19	0	6	96	48	2
STR	19	48	2
SI_	19	48	2	96	48	6
HLD	19	96	1	144
TAP	19	240	3
TAP	19	288	3
TAP	19	312	2
TAP	19	336	4
TAP	20	0	1
TAP	20	0	5
TAP	20	48	3
TAP	20	96	2
TAP	20	96	6
TAP	20	144	4
TAP	20	192	1
TAP	20	192	5
TAP	20	240	0
TAP	20	288	2
TAP	20	288	6
TAP	20	336	7
STR	21	0	1
SI_	21	0	1	96	48	5
STR	21	48	5
SI_	21	48	5	96	48	1
TAP	21	96	6
HLD	21	144	7	96
TAP	21	240	4
TAP	21	288	4
TAP	21	312	5
TAP	21	336	3
STR	22	0	6
SI_	22	0	6	96	48	2
STR	22	48	2
SI_	22	48	2	96	48	6
TAP	22	96	1
HLD	22	144	0	96
TAP	22	240	3
TAP	22	288	3
TAP	22	312	2
TAP	22	336	4
STR	23	0	1
SI_	23	0	1	96	48	5
STR	23	48	5
SI_	23	48	5	96	48	1
TAP	23	96	6
HLD	23	144	7	96
TAP	23	240	4
TAP	23	288	4
TAP	23	312	5
TAP	23	336	3
TAP	24	0	2
TAP	24	0	6
TAP	24	48	1
TAP	24	96	0
TAP	24	96	4
TAP	24	144	7
BRK	24	192	2
BRK	24	192	6
TAP	24	288	2
STR	24	288	3
SCR	24	288	3	96	96	7
TAP	25	0	2
STR	25	96	4
SCL	25	96	4	96	96	0
TAP	25	192	5
STR	25	288	7
SI_	25	288	7	96	48	4
STR	26	0	2
SCL	26	0	2	96	48	7
STR	26	96	5
SCL	26	96	5	96	48	2
TAP	26	192	2
TAP	26	288	1
TAP	26	336	1
STR	27	0	0
SCL	27	0	0	96	96	4
TAP	27	0	1
TAP	27	96	1
STR	27	192	7
SCR	27	192	7	96	96	3
STR	27	288	4
SI_	27	288	4	96	48	7
STR	28	0	1
SCR	28	0	1	96	48	4
STR	28	96	6
SCR	28	96	6	96	48	1
TAP	28	192	2
TAP	28	240	2
TAP	28	288	2
STR	28	288	3
SCR	28	288	3	96	96	7
TAP	29	0	2
STR	29	96	4
SCL	29	96	4	96	96	0
TAP	29	192	5
TAP	29	288	5
TAP	30	0	6
TAP	30	48	5
STR	30	96	4
SCR	30	96	4	96	48	7
TAP	30	144	3
TAP	30	192	2
TAP	30	240	1
STR	30	288	0
SCR	30	288	0	96	48	3
TAP	30	336	7
HLD	31	0	7	96
STR	31	96	3
SCL	31	96	3	96	96	4
TAP	31	144	3
TAP	31	192	4
TAP	32	0	1
TAP	32	0	6
TAP	32	48	2
TAP	32	48	5
TAP	32	96	3
TAP	32	96	4
BRK	32	288	7
STR	33	0	0
SCR	33	0	0	96	48	3
TAP	33	48	1
STR	33	96	4
SCR	33	96	4	96	48	7
TAP	33	144	5
STR	33	192	0
SCR	33	192	0	96	48	3
TAP	33	240	1
STR	33	288	4
SCR	33	288	4	96	96	3
TAP	33	336	5
TAP	34	0	0
TAP	34	144	3
TAP	34	192	3
TAP	34	240	2
TAP	34	288	1
TAP	34	336	0
STR	35	0	7
SCL	35	0	7	96	48	4
TAP	35	48	6
STR	35	96	3
SCL	35	96	3	96	48	0
TAP	35	144	2
STR	35	192	7
SCL	35	192	7	96	48	4
TAP	35	240	6
STR	35	288	3
SCL	35	288	3	96	96	4
TAP	35	336	2
TAP	36	0	7
TAP	36	144	4
TAP	36	192	4
TAP	36	240	5
TAP	36	288	6
STR	36	336	7
SXR	36	336	7	96	96	7
TAP	37	48	2
TAP	37	96	1
STR	37	144	0
SXL	37	144	0	96	96	0
TAP	37	240	5
TAP	37	288	6
STR	37	336	7
SI_	37	336	7	96	48	3
STR	38	48	0
SI_	38	48	0	96	48	4
HLD	38	144	7	96
TAP	38	240	3
TAP	38	288	2
STR	38	336	1
SXL	38	336	1	96	96	1
TAP	39	48	7
TAP	39	96	6
STR	39	144	5
SXL	39	144	5	96	96	5
TAP	39	240	3
TAP	39	288	2
TAP	39	336	1
TAP	40	0	0
TAP	40	0	7
TAP	40	48	0
TAP	40	48	7
STR	40	96	1
SCR	40	96	1	96	48	3
STR	40	96	6
SCL	40	96	6	96	48	4
TAP	40	288	0
TAP	40	288	7
STR	41	0	6
SCL	41	0	6	96	48	3
TAP	41	48	5
STR	41	96	2
SCL	41	96	2	96	48	7
TAP	41	144	1
STR	41	192	6
SCL	41	192	6	96	48	3
TAP	41	240	5
STR	41	288	2
SCL	41	288	2	96	96	3
TAP	41	336	1
TAP	42	0	6
TAP	42	144	4
TAP	42	192	5
TAP	42	240	6
TAP	42	288	7
TAP	42	336	0
STR	43	0	1
SCR	43	0	1	96	48	4
TAP	43	48	2
STR	43	96	5
SCR	43	96	5	96	48	0
TAP	43	144	6
STR	43	192	1
SCR	43	192	1	96	48	4
TAP	43	240	2
STR	43	288	5
SCR	43	288	5	96	96	4
TAP	43	336	6
TAP	44	0	1
TAP	44	144	3
TAP	44	192	3
TAP	44	240	2
TAP	44	288	1
STR	44	336	0
SXL	44	336	0	96	96	0
TAP	45	48	6
TAP	45	96	5
STR	45	144	4
SXL	45	144	4	96	96	4
TAP	45	240	2
TAP	45	288	1
STR	45	336	0
SI_	45	336	0	96	48	3
STR	46	48	7
SI_	46	48	7	96	48	4
HLD	46	144	2	96
TAP	46	240	3
TAP	46	288	2
TAP	46	336	7
STR	47	0	0
SLL	47	0	0	96	96	1
TAP	47	48	5
HLD	47	96	5	144
TAP	47	240	4
TAP	47	288	5
TAP	47	336	0
TAP	48	0	7
TAP	48	48	2
HLD	48	96	4	144
HLD	48	144	3	192
TAP	49	0	1
TAP	49	0	4
TAP	49	48	3
TAP	49	72	2
TAP	49	96	3
TAP	49	120	1
TAP	49	144	4
HLD	49	168	1	48
TAP	49	216	0
TAP	49	240	1
TAP	49	264	7
TAP	49	288	0
TAP	49	336	2
TAP	50	0	3
TAP	50	0	6
TAP	50	48	4
TAP	50	72	5
TAP	50	96	4
TAP	50	120	6
TAP	50	144	3
HLD	50	168	6	48
TAP	50	216	7
TAP	50	240	6
TAP	50	264	0
TAP	50	288	7
TAP	50	336	5
TAP	51	0	1
TAP	51	0	4
TAP	51	48	3
TAP	51	72	2
TAP	51	96	3
TAP	51	120	1
TAP	51	144	4
HLD	51	168	1	48
TAP	51	216	0
TAP	51	240	1
TAP	51	264	7
TAP	51	288	0
TAP	51	336	2
TAP	52	0	3
TAP	52	0	6
TAP	52	48	4
TAP	52	72	5
TAP	52	96	4
TAP	52	120	6
TAP	52	144	3
HLD	52	168	6	48
TAP	52	216	7
TAP	52	240	6
TAP	52	264	0
TAP	52	288	7
TAP	52	336	5
TAP	53	0	0
TAP	53	0	4
TAP	53	48	3
TAP	53	72	2
TAP	53	96	4
TAP	53	120	1
TAP	53	144	3
HLD	53	168	1	48
TAP	53	216	3
TAP	53	240	0
TAP	53	264	7
TAP	53	288	0
TAP	53	336	2
TAP	54	0	3
TAP	54	0	7
TAP	54	48	4
TAP	54	72	5
TAP	54	96	3
TAP	54	120	6
TAP	54	144	4
HLD	54	168	6	48
TAP	54	216	4
TAP	54	240	7
TAP	54	264	0
TAP	54	288	7
TAP	54	336	5
TAP	55	0	0
TAP	55	0	4
TAP	55	48	3
TAP	55	72	2
TAP	55	96	4
TAP	55	120	1
TAP	55	144	3
HLD	55	168	1	48
TAP	55	216	3
TAP	55	240	0
TAP	55	264	7
TAP	55	288	0
TAP	55	336	2
TAP	56	0	3
TAP	56	0	7
TAP	56	48	4
TAP	56	72	5
TAP	56	96	3
TAP	56	120	6
TAP	56	144	4
HLD	56	168	6	48
TAP	56	216	4
TAP	56	240	7
TAP	56	264	3
TAP	56	288	5
TAP	56	312	4
TAP	56	336	6
TAP	56	360	4
TAP	57	0	7
TAP	57	48	3
HLD	57	72	4	72
TAP	57	144	3
HLD	57	192	2	72
HLD	57	264	4	48
TAP	57	312	3
TAP	57	336	5
TAP	57	360	2
HLD	58	0	3	48
TAP	58	48	2
TAP	58	72	3
TAP	58	120	3
TAP	58	120	4
HLD	58	168	6	48
TAP	58	216	7
TAP	58	240	6
TAP	58	264	0
TAP	58	288	7
TAP	58	312	3
TAP	58	336	4
TAP	58	360	2
TAP	59	0	4
TAP	59	24	3
TAP	59	48	5
HLD	59	72	4	48
TAP	59	120	5
TAP	59	144	3
TAP	59	168	6
HLD	59	192	2	48
TAP	59	240	3
TAP	59	264	1
TAP	59	288	7
TAP	59	312	0
TAP	59	336	5
TAP	59	360	1
TAP	60	0	4
TAP	60	96	6
HLD	60	120	6	48
TAP	60	168	4
TAP	60	216	3
TAP	60	216	4
TAP	60	264	1
TAP	60	264	3
TAP	60	312	0
TAP	60	312	7
TAP	60	360	1
TAP	60	360	6
TAP	61	0	1
TAP	61	0	6
HLD	61	48	5	48
TAP	61	96	4
TAP	61	120	6
STR	61	144	4
SCR	61	144	4	96	96	1
HLD	61	168	4	168
TAP	62	0	7
TAP	62	24	7
TAP	62	48	0
HLD	62	72	6	48
HLD	62	120	4	48
HLD	62	168	3	48
HLD	62	216	1	48
TAP	62	264	7
TAP	62	312	2
TAP	62	336	2
TAP	62	360	3
HLD	63	0	1	48
TAP	63	48	3
TAP	63	72	2
STR	63	96	4
SCR	63	96	4	96	96	3
TAP	63	120	3
TAP	63	144	5
STR	64	0	1
SI_	64	0	1	96	48	6
TAP	64	48	1
STR	64	96	5
SI_	64	96	5	96	48	2
TAP	64	144	5
STR	64	192	0
SI_	64	192	0	96	48	3
TAP	64	240	0
STR	64	288	5
SCR	64	288	5	96	768	4
TAP	64	336	5
HLD	65	0	2	768

T_REC_TAP	437
T_REC_BRK	4
T_REC_XTP	0
T_REC_HLD	54
T_REC_XHO	0
T_REC_STR	68
T_REC_BST	0
T_REC_XST	0
T_REC_TTP	0
T_REC_THO	0
T_REC_SLD	68
T_REC_ALL	631
T_NUM_TAP	505
T_NUM_BRK	4
T_NUM_HLD	54
T_NUM_SLD	68
T_NUM_ALL	631
T_JUDGE_TAP	509
T_JUDGE_HLD	105
T_JUDGE_SLD	68
T_JUDGE_ALL	682
TTM_EACHPAIRS	55
TTM_SCR_TAP	252500
TTM_SCR_BRK	10400
TTM_SCR_HLD	54000
TTM_SCR_SLD	102000
TTM_SCR_ALL	418900
TTM_SCR_S	405950
TTM_SCR_SS	418500
TTM_RAT_ACV	10009

