VERSION	0.00.00	1.03.00
FES_MODE	0
BPM_DEF	128.000	128.000	128.000	128.000
MET_DEF	4	4
RESOLUTION	384
CLK_DEF	384
COMPATIBLE_CODE	MA2

BPM	0	0	128.000

TAP	1	0	3
TAP	1	96	2
TAP	1	96	4
TAP	1	192	3
TAP	1	240	4
TAP	1	288	3
TAP	1	288	5
TAP	2	0	4
TAP	2	96	3
TAP	2	96	5
TAP	2	192	4
TAP	2	240	3
TAP	2	288	2
TAP	2	288	4
TAP	3	0	2
TAP	3	96	2
TAP	3	96	3
TAP	3	192	5
TAP	3	288	4
TAP	3	288	5
HLD	4	0	3	96
HLD	4	96	4	96
HLD	4	192	2	96
TAP	4	288	5
TAP	5	0	5
TAP	5	96	4
TAP	5	96	6
TAP	5	192	5
TAP	5	240	4
TAP	5	288	3
TAP	5	288	5
TAP	6	0	2
TAP	6	96	1
TAP	6	96	3
TAP	6	192	2
TAP	6	240	3
TAP	6	288	2
TAP	6	288	4
TAP	7	0	4
TAP	7	96	4
TAP	7	96	5
TAP	7	192	3
TAP	7	288	2
TAP	7	288	3
STR	8	0	4
SUL	8	0	4	96	192	3
HLD	9	0	2	288
TAP	9	96	3
TAP	9	288	3
HLD	10	0	5	288
TAP	10	96	4
TAP	10	288	4
HLD	11	0	2	96
TAP	11	96	3
HLD	11	192	5	96
TAP	11	288	4
TAP	12	0	5
TAP	12	96	4
TAP	12	192	3
TAP	12	288	2
TAP	12	288	3
HLD	13	0	1	288
TAP	13	96	3
TAP	13	288	3
HLD	14	0	6	288
TAP	14	96	4
TAP	14	288	4
HLD	15	0	1	96
TAP	15	96	3
HLD	15	192	6	96
TAP	15	288	4
TAP	16	0	3
TAP	16	48	3
TAP	16	96	4
TAP	16	144	4
TAP	16	192	2
TAP	16	240	5
BRK	16	288	2
HLD	17	0	4	288
TAP	17	96	3
TAP	17	192	5
TAP	17	288	3
HLD	18	0	3	288
TAP	18	96	4
TAP	18	192	2
TAP	18	288	4
TAP	19	0	4
TAP	19	0	5
TAP	19	96	3
TAP	19	96	6
TAP	19	192	2
TAP	19	192	3
TAP	19	288	1
TAP	19	288	4
STR	20	0	6
SSL	20	0	6	96	192	2
HLD	21	0	2	288
TAP	21	96	3
TAP	21	192	1
TAP	21	288	3
HLD	22	0	5	288
TAP	22	96	4
TAP	22	192	6
TAP	22	288	4
TAP	23	0	2
TAP	23	48	3
TAP	23	96	2
TAP	23	192	5
TAP	23	240	4
TAP	23	288	5
TAP	24	0	4
TAP	24	0	5
TAP	24	96	3
TAP	24	96	4
HLD	24	192	2	96
HLD	24	192	3	96
STR	25	0	2
SI_	25	0	2	96	48	7
TAP	25	0	3
TAP	25	192	2
STR	25	192	3
SI_	25	192	3	96	48	6
TAP	26	0	2
TAP	26	96	3
TAP	26	192	4
TAP	26	240	4
TAP	26	288	3
TAP	26	288	5
TAP	27	0	4
STR	27	0	5
SI_	27	0	5	96	48	0
STR	27	192	4
SI_	27	192	4	96	48	1
TAP	27	192	5
TAP	28	0	5
TAP	28	96	4
TAP	28	192	3
TAP	28	240	3
TAP	28	288	2
TAP	28	288	4
STR	29	0	2
SI_	29	0	2	96	48	5
TAP	29	0	7
TAP	29	192	3
STR	29	192	6
SI_	29	192	6	96	48	1
TAP	30	0	3
TAP	30	96	4
TAP	30	192	3
TAP	30	192	4
TAP	30	288	2
TAP	30	288	5
BRK	31	0	3
BRK	31	0	6
BRK	31	96	1
BRK	31	96	4
BRK	31	192	2
BRK	31	192	6
BRK	31	288	1
BRK	31	288	5
TAP	32	0	3
TAP	32	48	4
TAP	32	96	3
BRK	32	288	0
BRK	32	288	7
TAP	33	0	2
TAP	33	0	3
TAP	33	96	2
HLD	33	144	1	96
TAP	33	144	4
TAP	33	240	7
TAP	33	288	0
HLD	33	336	6	96
TAP	34	48	7
TAP	34	96	6
TAP	34	96	7
STR	34	192	6
SI_	34	192	6	96	48	3
STR	34	192	7
SI_	34	192	7	96	48	3
TAP	35	0	4
TAP	35	0	5
TAP	35	96	5
TAP	35	144	3
HLD	35	144	6	96
TAP	35	240	0
TAP	35	288	7
HLD	35	336	1	96
TAP	36	48	0
TAP	36	96	0
TAP	36	96	1
STR	36	192	0
SI_	36	192	0	96	48	4
STR	36	192	1
SI_	36	192	1	96	48	4
TAP	37	0	2
TAP	37	48	3
TAP	37	96	2
TAP	37	96	4
TAP	37	192	5
TAP	37	240	4
TAP	37	288	3
STR	37	288	5
SUL	37	288	5	96	192	3
TAP	38	288	1
TAP	38	288	6
TAP	39	0	2
TAP	39	0	3
TAP	39	48	4
TAP	39	96	3
TAP	39	96	5
TAP	39	192	4
TAP	39	192	5
TAP	39	240	3
TAP	39	288	2
STR	39	288	4
SXL	39	288	4	96	192	3
SXR	39	288	4	96	192	3
BRK	40	288	2
BRK	40	288	5
TAP	41	0	2
TAP	41	48	5
TAP	41	96	3
STR	41	144	4
SXL	41	144	4	96	144	4
SXR	41	144	4	96	144	4
BRK	42	96	0
BRK	42	96	7
STR	42	192	3
SI_	42	192	3	96	48	0
STR	42	192	5
SI_	42	192	5	96	48	0
TAP	43	0	6
TAP	43	48	1
TAP	43	96	7
STR	43	144	0
SI_	43	144	0	96	48	4
STR	43	240	6
SI_	43	240	6	96	48	2
TAP	43	336	3
BRK	44	96	0
BRK	44	96	7
STR	44	192	2
SI_	44	192	2	96	48	7
STR	44	192	4
SI_	44	192	4	96	48	7
TAP	45	0	1
TAP	45	48	0
TAP	45	96	1
TAP	45	96	7
TAP	45	192	6
TAP	45	240	7
STR	45	288	0
SSL	45	288	0	96	168	4
TAP	45	288	6
TAP	46	288	1
TAP	46	288	6
STR	47	0	0
SUR	47	0	0	96	96	4
STR	47	0	4
SCR	47	0	4	96	96	7
TAP	47	288	1
TAP	47	288	6
STR	48	0	3
SCL	48	0	3	96	96	0
STR	48	0	7
SUL	48	0	7	96	96	3
BRK	48	288	1
BRK	48	288	6
STR	49	0	1
SCR	49	0	1	96	96	5
TAP	49	288	0
TAP	49	288	7
STR	50	0	6
SCL	50	0	6	96	96	2
TAP	50	288	0
TAP	50	288	7
STR	51	0	1
SLR	51	0	1	96	120	6
TAP	51	288	0
TAP	51	288	7
HLD	52	0	5	96
HLD	52	96	4	96
TAP	52	192	3
TAP	52	288	2
TAP	52	288	5
STR	53	0	2
SCR	53	0	2	96	96	5
HLD	53	0	6	192
TAP	53	288	0
TAP	53	288	7
HLD	54	0	1	192
STR	54	0	5
SCL	54	0	5	96	96	2
TAP	54	288	0
TAP	54	288	7
STR	55	0	1
SI_	55	0	1	96	48	4
STR	55	192	7
SI_	55	192	7	96	48	3
STR	56	0	0
SXL	56	0	0	96	192	4
SXR	56	0	0	96	192	4
HLD	57	0	2	96
TAP	57	96	3
HLD	57	192	3	48
HLD	57	192	4	48
TAP	57	288	3
TAP	57	312	4
HLD	58	0	5	96
TAP	58	96	3
HLD	58	192	3	48
HLD	58	192	4	48
TAP	58	288	4
TAP	58	312	3
HLD	59	0	2	96
TAP	59	96	3
HLD	59	192	3	48
HLD	59	192	4	48
TAP	59	288	3
TAP	59	312	4
TAP	60	0	6
TAP	60	0	7
TAP	60	96	0
TAP	60	96	1
TAP	60	192	4
TAP	60	192	5
TAP	60	288	2
TAP	60	288	3
TAP	61	0	0
TAP	61	0	1
TAP	61	96	2
TAP	61	96	7
HLD	61	192	4	48
TAP	61	240	3
TAP	61	288	3
TAP	61	312	4
TAP	62	0	6
TAP	62	0	7
TAP	62	96	0
TAP	62	96	5
HLD	62	192	3	48
TAP	62	240	4
TAP	62	288	4
TAP	62	312	3
TAP	63	0	0
TAP	63	0	1
TAP	63	96	2
TAP	63	96	7
HLD	63	192	4	48
TAP	63	240	3
TAP	63	288	3
TAP	63	312	4
TAP	64	0	0
TAP	64	0	6
TAP	64	96	2
TAP	64	96	7
TAP	64	192	1
TAP	64	192	4
TAP	64	288	2
TAP	64	288	6
BST	65	0	0
SCL	65	0	0	96	672	1
HLD	65	0	5	768

T_REC_TAP	234
T_REC_BRK	19
T_REC_XTP	0
T_REC_HLD	38
T_REC_XHO	0
T_REC_STR	34
T_REC_BST	1
T_REC_XST	0
T_REC_TTP	0
T_REC_THO	0
T_REC_SLD	38
T_REC_ALL	364
T_NUM_TAP	268
T_NUM_BRK	20
T_NUM_HLD	38
T_NUM_SLD	38
T_NUM_ALL	364
T_JUDGE_TAP	288
T_JUDGE_HLD	117
T_JUDGE_SLD	38
T_JUDGE_ALL	443
TTM_EACHPAIRS	88
TTM_SCR_TAP	134000
TTM_SCR_BRK	52000
TTM_SCR_HLD	38000
TTM_SCR_SLD	57000
TTM_SCR_ALL	281000
TTM_SCR_S	270650
TTM_SCR_SS	279000
TTM_RAT_ACV	10071

