VERSION	0.00.00	1.03.00
FES_MODE	0
BPM_DEF	128.000	128.000	128.000	128.000
MET_DEF	4	4
RESOLUTION	384
CLK_DEF	384
COMPATIBLE_CODE	MA2

BPM	0	0	128.000
MET	0	0	4	4

TAP	1	0	2
TAP	1	96	2
TAP	1	192	2
TAP	1	192	3
TAP	2	0	5
TAP	2	96	5
TAP	2	192	4
TAP	2	192	5
TAP	3	0	2
TAP	3	96	2
TAP	3	192	3
TAP	3	288	3
TAP	4	0	4
TAP	4	96	4
TAP	4	192	4
TAP	4	192	5
TAP	5	0	5
TAP	5	96	5
TAP	5	192	4
TAP	5	192	5
TAP	6	0	2
TAP	6	96	2
TAP	6	192	2
TAP	6	192	3
TAP	7	0	5
TAP	7	96	5
TAP	7	192	4
TAP	7	288	4
TAP	8	0	3
TAP	8	96	3
TAP	8	192	2
TAP	8	192	3
HLD	9	0	5	288
TAP	9	192	4
TAP	9	288	4
HLD	10	0	2	288
TAP	10	192	3
TAP	10	288	3
HLD	11	0	5	96
TAP	11	96	4
HLD	11	192	2	96
TAP	11	288	3
HLD	12	0	4	96
TAP	12	96	3
TAP	12	192	2
TAP	12	192	5
HLD	13	0	2	288
TAP	13	192	3
TAP	13	288	3
HLD	14	0	5	288
TAP	14	192	4
TAP	14	288	4
HLD	15	0	2	96
TAP	15	96	3
HLD	15	192	5	96
TAP	15	288	4
TAP	16	0	3
TAP	16	96	3
TAP	16	192	3
TAP	16	192	4
TAP	16	288	2
TAP	16	288	5
TAP	17	0	5
TAP	17	96	5
TAP	17	192	4
TAP	17	192	5
TAP	17	288	4
TAP	17	288	6
TAP	18	0	2
TAP	18	96	2
TAP	18	192	2
TAP	18	192	3
TAP	18	288	1
TAP	18	288	3
TAP	19	0	5
TAP	19	96	4
TAP	19	96	5
TAP	19	192	2
TAP	19	288	2
TAP	19	288	3
TAP	20	0	4
TAP	20	96	3
TAP	20	96	4
TAP	20	192	2
TAP	20	192	5
TAP	21	0	2
TAP	21	96	2
TAP	21	192	2
TAP	21	192	3
TAP	21	288	1
TAP	21	288	3
TAP	22	0	5
TAP	22	96	5
TAP	22	192	4
TAP	22	192	5
TAP	22	288	4
TAP	22	288	6
TAP	23	0	2
TAP	23	96	2
TAP	23	96	3
TAP	23	192	5
TAP	23	288	4
TAP	23	288	5
TAP	24	0	3
TAP	24	96	3
TAP	24	96	4
TAP	24	192	2
TAP	24	192	5
STR	25	0	0
SCR	25	0	0	96	192	3
TAP	26	0	4
TAP	26	96	5
TAP	26	192	6
TAP	26	192	7
TAP	26	288	0
TAP	26	288	5
STR	27	0	7
SCL	27	0	7	96	192	4
TAP	28	0	3
TAP	28	96	2
TAP	28	192	0
TAP	28	192	1
TAP	28	288	2
TAP	28	288	7
STR	29	0	0
SI_	29	0	0	96	192	3
TAP	30	0	4
TAP	30	96	5
TAP	30	192	6
TAP	30	288	7
TAP	31	0	0
TAP	31	0	1
TAP	31	96	1
TAP	31	192	6
TAP	31	192	7
TAP	31	288	6
TAP	32	0	0
TAP	32	0	7
HLD	32	96	1	192
HLD	32	96	6	192
TAP	33	0	6
TAP	33	0	7
TAP	33	96	0
TAP	33	192	6
TAP	33	192	7
TAP	33	288	0
TAP	34	0	0
TAP	34	0	1
TAP	34	96	6
TAP	34	96	7
TAP	34	192	0
TAP	34	192	5
TAP	35	0	0
TAP	35	0	1
TAP	35	96	7
TAP	35	192	0
TAP	35	192	1
TAP	35	288	7
TAP	36	0	6
TAP	36	0	7
TAP	36	96	0
TAP	36	96	1
TAP	36	192	2
TAP	36	192	7
TAP	37	0	0
TAP	37	96	1
TAP	37	192	2
TAP	37	288	3
STR	38	0	3
SI_	38	0	3	96	192	0
TAP	39	0	6
TAP	39	0	7
TAP	39	96	6
TAP	39	96	7
TAP	39	192	0
TAP	39	192	1
TAP	39	288	0
TAP	39	288	1
TAP	40	0	6
TAP	40	0	7
TAP	40	96	0
TAP	40	96	1
TAP	40	192	2
TAP	40	192	7
TAP	41	0	0
TAP	41	0	1
TAP	41	96	6
TAP	41	192	0
TAP	41	192	1
TAP	41	288	6
TAP	42	0	6
TAP	42	0	7
TAP	42	96	0
TAP	42	96	1
TAP	42	192	2
TAP	42	192	7
TAP	43	0	6
TAP	43	0	7
TAP	43	96	1
TAP	43	192	6
TAP	43	192	7
TAP	43	288	1
TAP	44	0	0
TAP	44	0	1
TAP	44	96	6
TAP	44	96	7
TAP	44	192	0
TAP	44	192	5
TAP	45	0	7
TAP	45	96	6
TAP	45	192	5
TAP	45	288	4
TAP	46	0	3
TAP	46	96	2
TAP	46	192	1
TAP	46	288	0
TAP	47	0	6
TAP	47	0	7
TAP	47	96	6
TAP	47	96	7
TAP	47	192	0
TAP	47	192	1
TAP	47	288	2
TAP	47	288	3
TAP	48	0	4
TAP	48	0	5
TAP	48	96	6
TAP	48	96	7
TAP	48	192	0
TAP	48	192	5
TAP	49	0	5
TAP	49	96	5
TAP	49	192	4
TAP	49	192	5
TAP	50	0	2
TAP	50	96	2
TAP	50	192	2
TAP	50	192	3
TAP	51	0	5
TAP	51	96	5
TAP	51	192	4
TAP	51	192	6
TAP	52	0	2
TAP	52	96	2
TAP	52	192	1
TAP	52	192	3
TAP	53	0	4
TAP	53	96	4
TAP	53	192	5
TAP	53	288	4
TAP	53	288	5
TAP	54	0	3
TAP	54	96	3
TAP	54	192	2
TAP	54	288	2
TAP	54	288	3
TAP	55	0	4
TAP	55	96	4
TAP	55	192	5
TAP	55	288	4
TAP	55	288	6
TAP	56	0	3
TAP	56	96	3
TAP	56	192	2
TAP	56	288	1
TAP	56	288	3
TAP	57	0	2
TAP	57	96	1
TAP	57	192	0
TAP	57	288	6
TAP	57	288	7
TAP	58	0	5
TAP	58	96	6
TAP	58	192	7
TAP	58	288	0
TAP	58	288	1
TAP	59	0	1
TAP	59	96	1
TAP	59	192	0
TAP	59	288	0
TAP	60	0	6
TAP	60	0	7
TAP	60	96	0
TAP	60	96	1
TAP	60	192	6
TAP	60	192	7
TAP	60	288	0
TAP	60	288	1
TAP	61	0	1
TAP	61	96	2
TAP	61	192	3
TAP	61	288	4
TAP	61	288	5
TAP	62	0	6
TAP	62	96	5
TAP	62	192	4
TAP	62	288	2
TAP	62	288	3
TAP	63	0	1
TAP	63	96	0
TAP	63	192	7
TAP	63	288	6
TAP	64	0	4
TAP	64	0	5
TAP	64	96	2
TAP	64	96	3
TAP	64	192	0
TAP	64	192	1
TAP	64	288	6
TAP	64	288	7
BST	65	0	0
SCR	65	0	0	96	672	7
BRK	65	0	5

T_REC_TAP	291
T_REC_BRK	1
T_REC_XTP	0
T_REC_HLD	11
T_REC_XHO	0
T_REC_STR	4
T_REC_BST	1
T_REC_XST	0
T_REC_TTP	0
T_REC_THO	0
T_REC_SLD	5
T_REC_ALL	313
T_NUM_TAP	295
T_NUM_BRK	2
T_NUM_HLD	11
T_NUM_SLD	5
T_NUM_ALL	313
T_JUDGE_TAP	297
T_JUDGE_HLD	42
T_JUDGE_SLD	5
T_JUDGE_ALL	344
TTM_EACHPAIRS	88
TTM_SCR_TAP	147500
TTM_SCR_BRK	5200
TTM_SCR_HLD	11000
TTM_SCR_SLD	7500
TTM_SCR_ALL	171200
TTM_SCR_S	165900
TTM_SCR_SS	171000
TTM_RAT_ACV	10011

