VERSION	0.00.00	1.03.00
FES_MODE	0
BPM_DEF	128.000	128.000	128.000	128.000
MET_DEF	4	4
RESOLUTION	384
CLK_DEF	384
COMPATIBLE_CODE	MA2

BPM	0	0	128.000

TAP	1	0	0
TAP	1	192	0
TAP	2	0	1
TAP	2	192	1
TAP	3	0	2
TAP	3	192	2
TAP	4	0	3
TAP	4	192	3
TAP	5	0	4
TAP	5	192	4
TAP	6	0	5
TAP	6	192	5
TAP	7	0	6
TAP	7	192	6
TAP	8	0	7
TAP	8	192	7
HLD	9	0	0	192
HLD	10	0	7	192
HLD	11	0	0	192
TAP	12	0	7
TAP	12	96	7
TAP	12	192	7
HLD	13	0	6	192
HLD	14	0	5	192
HLD	15	0	4	192
TAP	16	0	3
TAP	16	96	3
TAP	16	192	4
TAP	16	288	4
TAP	17	0	3
TAP	17	96	3
TAP	17	192	3
TAP	18	0	2
TAP	18	96	2
TAP	18	192	2
TAP	19	0	1
TAP	19	96	1
TAP	19	192	1
TAP	20	0	0
TAP	20	96	0
TAP	20	192	7
TAP	20	288	7
TAP	21	0	0
TAP	21	96	0
TAP	21	192	0
TAP	21	192	7
TAP	22	0	7
TAP	22	96	7
TAP	22	192	0
TAP	22	192	7
TAP	23	0	0
TAP	23	96	0
TAP	23	192	7
TAP	23	288	7
TAP	24	0	0
TAP	24	96	7
BRK	24	192	0
STR	25	0	7
SI_	25	0	7	96	288	4
STR	27	0	0
SI_	27	0	0	96	288	3
STR	29	0	6
SI_	29	0	6	96	288	3
TAP	31	0	2
TAP	31	192	2
TAP	32	0	3
TAP	32	0	4
TAP	32	96	3
TAP	32	96	4
BRK	32	192	3
BRK	32	192	4
TAP	33	0	4
TAP	33	96	4
TAP	33	192	4
TAP	34	0	5
TAP	34	96	5
TAP	34	192	5
TAP	35	0	6
TAP	35	96	6
TAP	35	192	7
TAP	35	288	7
TAP	36	0	0
TAP	36	96	0
TAP	36	192	0
TAP	36	192	7
TAP	37	0	1
TAP	37	96	1
TAP	37	192	1
TAP	38	0	2
TAP	38	96	2
TAP	38	192	2
TAP	39	0	3
TAP	39	96	3
TAP	39	192	4
TAP	39	288	4
HLD	40	0	3	192
HLD	40	0	4	192
TAP	41	0	3
TAP	41	96	3
TAP	41	192	3
TAP	42	0	2
TAP	42	96	2
TAP	42	192	2
TAP	43	0	1
TAP	43	96	1
TAP	43	192	0
TAP	43	288	0
TAP	44	0	7
TAP	44	96	7
TAP	44	192	0
TAP	44	192	7
TAP	45	0	6
TAP	45	96	6
TAP	45	192	6
TAP	46	0	5
TAP	46	96	5
TAP	46	192	5
HLD	47	0	4	192
HLD	47	0	5	192
HLD	48	0	2	192
HLD	48	0	3	192
TAP	49	0	4
TAP	49	192	4
TAP	50	0	5
TAP	50	192	5
TAP	51	0	6
TAP	51	192	6
TAP	52	0	7
TAP	52	192	0
TAP	52	192	7
TAP	53	0	0
TAP	53	192	0
TAP	54	0	1
TAP	54	192	1
TAP	55	0	2
TAP	55	192	2
HLD	56	0	3	192
HLD	56	0	4	192
TAP	57	0	3
TAP	57	96	3
TAP	57	192	3
TAP	58	0	2
TAP	58	96	2
TAP	58	192	2
TAP	59	0	1
TAP	59	96	1
TAP	59	192	1
TAP	60	0	0
TAP	60	96	7
TAP	60	192	0
TAP	61	0	7
TAP	61	96	7
TAP	61	192	7
TAP	62	0	6
TAP	62	96	6
TAP	62	192	6
TAP	63	0	5
TAP	63	96	5
TAP	63	192	5
TAP	64	0	4
TAP	64	96	4
TAP	64	192	3
TAP	64	288	3
STR	65	0	3
SI_	65	0	3	96	288	0
STR	65	0	4
SI_	65	0	4	96	288	7

T_REC_TAP	140
T_REC_BRK	3
T_REC_XTP	0
T_REC_HLD	14
T_REC_XHO	0
T_REC_STR	5
T_REC_BST	0
T_REC_XST	0
T_REC_TTP	0
T_REC_THO	0
T_REC_SLD	5
T_REC_ALL	167
T_NUM_TAP	145
T_NUM_BRK	3
T_NUM_HLD	14
T_NUM_SLD	5
T_NUM_ALL	167
T_JUDGE_TAP	148
T_JUDGE_HLD	56
T_JUDGE_SLD	5
T_JUDGE_ALL	209
TTM_EACHPAIRS	13
TTM_SCR_TAP	72500
TTM_SCR_BRK	7800
TTM_SCR_HLD	14000
TTM_SCR_SLD	7500
TTM_SCR_ALL	101800
TTM_SCR_S	98500
TTM_SCR_SS	101500
TTM_RAT_ACV	10029

