VERSION	0.00.00	1.03.00
FES_MODE	0
BPM_DEF	160.000	160.000	160.000	160.000
MET_DEF	4	4
RESOLUTION	384
CLK_DEF	384
COMPATIBLE_CODE	MA2

BPM	0	0	160.000
MET	0	0	4	4
MET	4	0	4	3
MET	4	288	4	4

TAP	1	0	5
TAP	1	24	4
TAP	1	48	5
TAP	1	72	3
TAP	1	96	4
TAP	1	120	3
TAP	1	144	5
TAP	1	168	4
TAP	1	192	5
TAP	1	216	3
TAP	1	240	4
TAP	1	264	3
TAP	1	288	5
TAP	2	0	2
TAP	2	24	3
TAP	2	48	2
TAP	2	72	4
TAP	2	96	3
TAP	2	120	4
TAP	2	144	2
TAP	2	168	3
TAP	2	192	2
TAP	2	216	4
TAP	2	240	3
TAP	2	264	4
TAP	2	288	2
TAP	3	0	5
TAP	3	24	4
TAP	3	48	5
TAP	3	72	2
TAP	3	96	3
TAP	3	120	2
TAP	3	144	5
TAP	3	168	4
TAP	3	192	5
TAP	3	216	2
TAP	3	240	3
TAP	3	264	2
TAP	3	288	5
HLD	4	0	0	192
TAP	4	192	1
BRK	4	288	2
BRK	4	288	6
TAP	4	336	5
TAP	4	360	5
TAP	5	0	4
TAP	5	48	3
TAP	5	48	6
TAP	5	96	2
TAP	5	120	3
TAP	5	168	5
TAP	5	192	4
TAP	5	240	3
TAP	5	240	6
TAP	5	288	7
TAP	5	336	1
TAP	5	360	1
TAP	6	0	0
TAP	6	48	2
TAP	6	48	7
TAP	6	96	2
TAP	6	96	3
TAP	6	144	4
TAP	6	144	6
TAP	6	192	2
TAP	6	192	7
TAP	6	288	1
TAP	6	288	5
TAP	6	336	2
TAP	6	360	2
TAP	7	0	3
TAP	7	48	1
TAP	7	48	4
TAP	7	96	2
TAP	7	144	3
TAP	7	144	6
TAP	7	192	5
TAP	7	216	4
TAP	7	264	2
TAP	7	288	3
TAP	7	336	0
TAP	7	360	0
TAP	8	0	7
TAP	8	48	1
TAP	8	48	6
BRK	8	144	0
BRK	8	144	4
BRK	8	288	1
BRK	8	288	5
TAP	8	336	2
TAP	8	360	2
TAP	9	0	3
TAP	9	48	1
TAP	9	48	4
TAP	9	96	5
TAP	9	120	4
TAP	9	168	2
TAP	9	192	3
TAP	9	240	1
TAP	9	240	4
TAP	9	288	0
TAP	9	336	6
TAP	9	360	6
TAP	10	0	7
TAP	10	48	0
TAP	10	48	5
TAP	10	96	4
TAP	10	96	5
TAP	10	144	1
TAP	10	144	3
TAP	10	192	0
TAP	10	192	5
TAP	10	288	2
TAP	10	288	6
TAP	10	336	5
TAP	10	360	5
TAP	11	0	4
TAP	11	48	3
TAP	11	48	6
TAP	11	96	5
TAP	11	144	1
TAP	11	144	4
TAP	11	192	0
TAP	11	216	0
BRK	11	240	7
TAP	11	336	6
TAP	11	360	6
TAP	12	0	7
TAP	12	48	0
TAP	12	48	5
BRK	12	144	3
BRK	12	144	7
HLD	12	288	2	144
TAP	12	288	3
TAP	13	0	3
HLD	13	48	4	144
TAP	13	144	3
HLD	13	192	2	96
HLD	13	288	3	96
HLD	14	0	4	96
TAP	14	96	5
TAP	14	144	4
TAP	14	144	5
TAP	14	240	6
TAP	14	288	4
TAP	14	288	6
TAP	14	336	3
TAP	14	360	4
TAP	15	0	3
TAP	15	48	5
TAP	15	72	4
TAP	15	96	5
TAP	15	144	2
TAP	15	168	3
STR	15	192	2
SI_	15	192	2	96	48	4
TAP	15	240	5
STR	15	288	6
SI_	15	288	6	96	48	4
STR	16	0	2
SI_	16	0	2	96	48	0
STR	16	96	6
SI_	16	96	6	96	48	0
TAP	16	192	2
TAP	16	288	4
HLD	16	288	5	144
TAP	17	0	4
HLD	17	48	3	144
TAP	17	144	4
HLD	17	192	5	96
HLD	17	288	3	96
HLD	18	0	4	96
TAP	18	96	2
TAP	18	144	2
TAP	18	144	4
TAP	18	240	2
TAP	18	288	2
TAP	18	288	3
TAP	18	336	6
TAP	18	360	4
TAP	19	0	5
TAP	19	48	1
TAP	19	72	3
TAP	19	96	2
TAP	19	144	7
TAP	19	168	0
TAP	19	192	7
TAP	19	216	0
TAP	19	240	7
STR	19	288	1
SCR	19	288	1	96	48	4
STR	19	288	5
SCR	19	288	5	96	48	0
TAP	20	0	1
TAP	20	0	5
STR	20	96	0
SI_	20	96	0	96	48	4
TAP	20	192	0
TAP	20	192	4
BRK	20	288	2
BRK	20	288	6
TAP	20	336	5
TAP	20	360	4
TAP	21	24	2
TAP	21	48	3
TAP	21	96	1
TAP	21	120	0
TAP	21	144	1
TAP	21	168	0
TAP	21	192	1
TAP	21	240	2
TAP	21	240	7
TAP	21	288	1
TAP	21	288	4
TAP	21	336	2
TAP	21	360	3
TAP	22	24	5
TAP	22	48	4
TAP	22	96	6
TAP	22	120	7
TAP	22	144	6
TAP	22	168	7
TAP	22	192	6
TAP	22	240	0
TAP	22	240	5
TAP	22	288	3
TAP	22	288	7
TAP	22	336	6
TAP	22	360	4
TAP	23	24	1
TAP	23	48	3
TAP	23	96	7
TAP	23	120	0
TAP	23	144	7
TAP	23	168	0
TAP	23	192	7
BRK	23	240	1
BRK	23	240	6
TAP	23	336	6
TAP	23	360	7
TAP	24	0	6
TAP	24	48	0
TAP	24	48	5
BRK	24	144	3
BRK	24	144	7
TAP	24	288	4
HLD	24	288	6	144
TAP	25	0	4
HLD	25	48	3	144
TAP	25	144	5
HLD	25	192	6	96
HLD	25	288	4	96
HLD	26	0	3	96
TAP	26	96	1
TAP	26	144	1
TAP	26	144	3
TAP	26	240	3
TAP	26	288	2
TAP	26	288	4
TAP	26	336	1
TAP	26	360	3
TAP	27	0	2
TAP	27	48	6
TAP	27	72	4
TAP	27	96	5
TAP	27	144	3
TAP	27	168	4
TAP	27	192	3
TAP	27	240	2
TAP	27	240	5
STR	27	288	2
SCL	27	288	2	96	48	7
TAP	27	288	4
TAP	28	0	3
TAP	28	96	3
STR	28	96	6
SCL	28	96	6	96	48	3
TAP	28	192	2
HLD	28	288	1	144
TAP	28	288	3
TAP	29	0	3
HLD	29	48	4	144
TAP	29	144	2
HLD	29	192	1	96
HLD	29	288	3	96
HLD	30	0	4	96
TAP	30	96	6
TAP	30	144	4
TAP	30	144	6
TAP	30	240	5
TAP	30	288	1
TAP	30	288	4
TAP	31	0	1
TAP	31	48	0
TAP	31	48	1
TAP	31	96	6
TAP	31	144	6
TAP	31	144	7
TAP	31	192	5
TAP	31	240	4
TAP	31	240	5
STR	31	288	2
SI_	31	288	2	96	48	7
TAP	31	336	2
STR	32	0	6
SI_	32	0	6	96	48	2
TAP	32	48	6
STR	32	96	1
SI_	32	96	1	96	48	5
TAP	32	144	1
STR	32	192	7
SCL	32	192	7	96	288	0
TAP	32	240	7
TAP	32	288	3
TAP	33	288	2
TAP	34	0	3
TAP	34	24	4
TAP	34	48	3
TAP	34	96	3
TAP	34	96	4
TAP	34	240	3
STR	34	288	3
SCL	34	288	3	96	96	1
TAP	35	48	6
STR	35	96	6
SCL	35	96	6	96	96	4
TAP	35	240	1
STR	35	288	1
SCL	35	288	1	96	96	6
TAP	36	48	4
STR	36	96	4
SCL	36	96	4	96	96	1
TAP	36	240	7
STR	36	288	7
SCL	36	288	7	96	192	0
TAP	37	240	7
TAP	37	288	1
TAP	37	288	5
TAP	38	0	3
TAP	38	0	7
STR	38	48	2
SI_	38	48	2	96	48	7
STR	38	48	6
SI_	38	48	6	96	48	3
TAP	38	240	0
STR	38	288	1
SI_	38	288	1	96	96	3
TAP	39	48	4
STR	39	96	5
SI_	39	96	5	96	96	0
TAP	39	240	1
STR	39	288	2
SI_	39	288	2	96	96	5
TAP	40	48	7
STR	40	96	6
SI_	40	96	6	96	96	2
TAP	40	240	1
TAP	40	288	1
TAP	40	336	7
TAP	41	0	0
TAP	41	48	6
TAP	41	96	4
TAP	41	96	6
TAP	41	144	0
TAP	41	192	7
TAP	41	240	1
TAP	41	288	1
TAP	41	288	3
TAP	41	336	4
TAP	42	0	2
TAP	42	0	5
TAP	42	48	3
TAP	42	48	4
TAP	42	144	0
TAP	42	144	4
STR	42	192	0
SI_	42	192	0	96	48	4
STR	42	192	4
SI_	42	192	4	96	48	0
TAP	42	240	1
TAP	42	240	5
STR	42	288	0
SCL	42	288	0	96	48	5
STR	42	288	4
SCL	42	288	4	96	48	1
TAP	43	96	1
TAP	43	144	2
TAP	43	168	3
TAP	43	192	2
TAP	43	240	1
STR	43	240	4
SI_	43	240	4	96	48	0
TAP	43	336	3
TAP	44	0	2
TAP	44	48	1
TAP	44	48	7
TAP	44	96	0
TAP	44	96	6
STR	44	192	3
SI_	44	192	3	96	48	7
STR	44	192	7
SI_	44	192	7	96	48	3
TAP	44	240	2
TAP	44	240	6
STR	44	288	3
SCR	44	288	3	96	48	6
STR	44	288	7
SCR	44	288	7	96	48	2
TAP	45	96	6
TAP	45	144	5
TAP	45	168	4
TAP	45	192	5
STR	45	240	3
SI_	45	240	3	96	48	7
TAP	45	240	6
TAP	45	336	4
TAP	46	0	5
TAP	46	48	0
TAP	46	48	6
TAP	46	96	1
TAP	46	96	5
STR	46	192	0
SI_	46	192	0	96	48	5
TAP	46	192	5
TAP	46	240	1
TAP	46	240	6
TAP	46	288	0
TAP	46	288	5
STR	47	0	6
SI_	47	0	6	96	48	2
TAP	47	48	3
TAP	47	48	7
TAP	47	96	2
TAP	47	96	6
TAP	47	192	2
TAP	47	240	0
TAP	47	240	4
TAP	47	288	1
TAP	47	288	5
STR	47	336	2
SLL	47	336	2	96	96	3
STR	47	336	6
SLL	47	336	6	96	96	7
TAP	48	0	3
TAP	48	0	7
TAP	48	240	1
TAP	48	288	2
TAP	48	288	3
TAP	48	336	6
TAP	49	0	4
TAP	49	0	5
TAP	49	48	1
TAP	49	96	3
TAP	49	96	4
TAP	49	144	7
TAP	49	168	0
TAP	49	192	7
BRK	49	240	1
BRK	49	240	6
TAP	49	336	7
TAP	50	0	0
TAP	50	0	6
TAP	50	48	1
TAP	50	48	5
BRK	50	96	1
BRK	50	96	3
BRK	50	168	4
BRK	50	168	6
BRK	50	240	0
BRK	50	240	7
BRK	50	288	1
BRK	50	288	6
TAP	51	0	0
TAP	51	48	7
BRK	51	96	0
BRK	51	96	4
TAP	51	108	1
TAP	51	120	2
BRK	51	156	5
TAP	51	168	6
TAP	51	180	7
BRK	51	228	1
TAP	51	240	2
TAP	51	252	3
TAP	51	336	0
TAP	51	336	1
TAP	52	0	3
TAP	52	0	4
TAP	52	48	6
TAP	52	48	7
TAP	52	96	1
TAP	52	96	4
TAP	52	144	2
STR	52	192	3
SXL	52	192	3	96	96	3
SXR	52	192	3	96	96	3
TAP	52	240	2
TAP	52	240	4
TAP	52	288	3
TAP	53	96	2
TAP	53	96	7
TAP	53	144	1
TAP	53	168	0
TAP	53	192	1
STR	53	240	3
SLL	53	240	3	96	96	7
TAP	53	240	7
TAP	53	336	4
TAP	54	0	5
TAP	54	48	6
STR	54	96	5
SI_	54	96	5	96	48	3
SI_	54	96	5	96	48	7
TAP	54	288	1
TAP	54	288	5
TAP	55	0	0
TAP	55	0	2
TAP	55	48	1
TAP	55	96	4
TAP	55	96	6
TAP	55	144	5
TAP	55	192	1
TAP	55	192	3
TAP	55	240	2
TAP	55	288	1
TAP	55	288	3
TAP	55	336	0
TAP	55	336	4
STR	56	0	0
SCR	56	0	0	96	48	3
STR	56	0	4
SCR	56	0	4	96	48	7
TAP	56	48	0
TAP	56	48	4
STR	56	96	0
SI_	56	96	0	96	48	4
STR	56	96	4
SI_	56	96	4	96	48	0
TAP	56	192	0
TAP	56	192	4
BRK	56	288	2
BRK	56	288	6
TAP	57	0	3
TAP	57	48	3
HLD	57	96	5	64
TAP	57	160	4
TAP	57	240	0
TAP	57	240	6
TAP	57	336	4
TAP	57	336	6
TAP	58	0	3
TAP	58	48	2
TAP	58	48	4
TAP	58	144	0
TAP	58	144	6
TAP	58	288	2
TAP	58	312	3
TAP	58	336	2
TAP	58	360	3
TAP	59	0	2
TAP	59	24	4
TAP	59	48	2
TAP	59	72	4
TAP	59	96	2
TAP	59	120	5
TAP	59	144	2
TAP	59	168	5
TAP	59	192	2
TAP	59	216	6
TAP	59	240	2
TAP	59	264	6
TAP	59	288	2
TAP	59	336	3
TAP	59	336	5
TAP	60	0	6
TAP	60	24	7
TAP	60	48	6
TAP	60	72	7
TAP	60	96	6
TAP	60	120	0
TAP	60	144	6
TAP	60	168	0
TAP	60	192	6
TAP	60	216	1
TAP	60	240	6
TAP	60	264	1
STR	60	288	6
SCL	60	288	6	96	48	3
TAP	61	0	0
STR	61	48	7
SI_	61	48	7	96	48	2
TAP	61	144	4
TAP	61	192	3
TAP	61	240	1
TAP	61	240	5
TAP	61	336	5
TAP	62	0	4
TAP	62	48	2
TAP	62	48	6
TAP	62	144	1
TAP	62	144	4
TAP	62	192	2
TAP	62	192	5
TAP	62	240	3
TAP	62	240	6
TAP	62	288	7
TAP	62	312	0
TAP	62	336	7
TAP	63	0	2
TAP	63	24	3
TAP	63	72	1
TAP	63	96	0
TAP	63	144	2
TAP	63	168	3
TAP	63	216	1
TAP	63	240	7
TAP	63	264	0
TAP	63	288	6
TAP	63	336	5
TAP	63	360	4
TAP	64	24	6
TAP	64	48	7
TAP	64	96	5
TAP	64	120	4
TAP	64	168	7
TAP	64	192	0
TAP	64	216	7
TAP	64	240	1
TAP	64	240	6
TAP	64	288	2
TAP	64	312	0
TAP	64	336	2
TAP	64	360	7
TAP	65	0	2
TAP	65	24	6
TAP	65	48	2
TAP	65	72	5
TAP	65	96	2
TAP	65	120	4
TAP	65	144	2
TAP	65	168	3
TAP	65	192	2
TAP	65	240	1
TAP	65	240	4
TAP	65	336	5
TAP	65	336	7
TAP	66	0	5
TAP	66	48	1
TAP	66	48	5
TAP	66	96	1
TAP	66	144	1
TAP	66	144	3
TAP	66	192	3
TAP	66	240	0
TAP	66	240	3
STR	66	288	0
SCR	66	288	0	96	144	4
STR	67	96	0
SCL	67	96	0	96	144	4
STR	67	288	0
SI_	67	288	0	96	144	4
STR	68	288	0
SLR	68	288	0	96	144	4
STR	69	96	0
SLL	69	96	0	96	144	4
STR	69	288	0
SSL	69	288	0	96	144	4
TAP	70	288	0
HLD	71	288	0	384
BST	73	240	0
SI_	73	240	0	96	48	4
BRK	73	336	0
BST	74	48	0
SF_	74	48	0	96	48	4
BRK	74	144	0
TAP	74	240	2
TAP	74	240	6
BRK	74	288	2
BRK	74	288	6
TAP	75	0	1
TAP	75	0	3
TAP	75	48	2
TAP	75	96	3
TAP	75	96	6
TAP	75	144	5
TAP	75	168	4
TAP	75	192	5
STR	75	240	3
SI_	75	240	3	96	48	7
TAP	75	240	6
TAP	75	336	4
TAP	76	0	5
TAP	76	48	1
TAP	76	48	6
TAP	76	96	2
TAP	76	96	7
STR	76	192	1
SCL	76	192	1	96	48	6
STR	76	192	5
SCL	76	192	5	96	48	2
TAP	76	240	2
TAP	76	240	6
STR	76	288	1
SI_	76	288	1	96	48	5
STR	76	288	5
SI_	76	288	5	96	48	1
TAP	77	96	1
TAP	77	144	2
TAP	77	168	3
TAP	77	192	2
TAP	77	240	1
STR	77	240	4
SI_	77	240	4	96	48	0
TAP	77	336	3
TAP	78	0	2
TAP	78	48	1
TAP	78	48	7
TAP	78	96	2
TAP	78	96	6
TAP	78	192	2
STR	78	192	7
SI_	78	192	7	96	48	2
TAP	78	240	0
TAP	78	240	1
TAP	78	288	2
TAP	78	288	7
STR	79	0	1
SI_	79	0	1	96	48	5
TAP	79	48	2
TAP	79	48	4
TAP	79	96	1
TAP	79	96	5
TAP	79	192	5
TAP	79	240	3
TAP	79	240	7
TAP	79	288	2
TAP	79	288	6
STR	79	336	1
SLL	79	336	1	96	96	3
STR	79	336	5
SLL	79	336	5	96	96	7
TAP	80	0	0
TAP	80	0	4
TAP	80	240	7
TAP	80	288	4
TAP	80	288	5
TAP	80	336	0
TAP	81	0	2
TAP	81	0	3
TAP	81	48	7
TAP	81	96	3
TAP	81	96	4
TAP	81	144	0
TAP	81	168	7
TAP	81	192	0
BRK	81	240	1
BRK	81	240	6
TAP	81	336	0
TAP	81	336	1
TAP	82	0	2
TAP	82	0	7
TAP	82	48	3
TAP	82	48	6
BRK	82	96	4
BRK	82	96	5
BRK	82	168	2
BRK	82	168	3
BRK	82	240	0
BRK	82	240	7
BRK	82	288	2
BRK	82	288	5
TAP	83	0	0
TAP	83	48	7
BRK	83	96	0
BRK	83	96	7
TAP	83	108	1
TAP	83	108	6
TAP	83	120	2
TAP	83	120	5
BRK	83	156	2
BRK	83	156	5
TAP	83	168	1
TAP	83	168	6
TAP	83	180	0
TAP	83	180	7
BRK	83	228	0
BRK	83	228	7
TAP	83	240	1
TAP	83	240	6
TAP	83	252	2
TAP	83	252	5
TAP	83	264	3
TAP	83	264	4
TAP	83	336	5
TAP	83	336	7
TAP	84	0	3
TAP	84	0	4
TAP	84	48	0
TAP	84	48	1
TAP	84	96	2
TAP	84	96	6
TAP	84	144	3
TAP	84	144	5
STR	84	192	4
SXL	84	192	4	96	96	4
SXR	84	192	4	96	96	4
TAP	84	240	2
TAP	84	240	6
TAP	84	288	4
TAP	85	96	2
TAP	85	96	7
TAP	85	144	5
TAP	85	168	4
TAP	85	192	5
STR	85	240	3
SLL	85	240	3	96	96	7
TAP	85	240	7
TAP	85	336	5
TAP	86	0	4
STR	86	48	3
SLR	86	48	3	96	96	7
TAP	86	96	0
TAP	86	144	1
TAP	86	192	2
TAP	86	240	3
TAP	86	288	1
TAP	86	288	5
TAP	87	0	4
TAP	87	0	7
TAP	87	48	6
TAP	87	96	0
TAP	87	96	3
TAP	87	144	1
TAP	87	192	4
TAP	87	192	7
TAP	87	240	5
TAP	87	288	4
TAP	87	288	6
TAP	87	336	3
TAP	87	336	7
STR	88	0	3
SCL	88	0	3	96	48	0
STR	88	0	7
SCL	88	0	7	96	48	4
TAP	88	48	3
TAP	88	48	7
STR	88	96	3
SI_	88	96	3	96	48	7
STR	88	96	7
SI_	88	96	7	96	48	3
TAP	88	192	3
TAP	88	192	7
TAP	88	288	5
TAP	88	312	4
TAP	88	336	5
TAP	88	360	3
TAP	89	0	4
TAP	89	24	3
TAP	89	48	5
TAP	89	72	4
TAP	89	96	5
TAP	89	120	3
TAP	89	144	4
TAP	89	168	3
TAP	89	192	5
TAP	89	288	2
TAP	89	312	3
TAP	89	336	2
TAP	89	360	4
TAP	90	0	3
TAP	90	24	4
TAP	90	48	2
TAP	90	72	3
TAP	90	96	2
TAP	90	120	4
TAP	90	144	3
TAP	90	168	4
TAP	90	192	2
TAP	90	288	6
TAP	90	312	4
TAP	90	336	6
TAP	90	360	3
TAP	91	0	4
TAP	91	24	3
TAP	91	48	6
TAP	91	72	4
TAP	91	96	6
TAP	91	120	3
TAP	91	144	4
TAP	91	168	3
TAP	91	192	6
TAP	91	288	1
TAP	91	312	3
TAP	91	336	1
TAP	91	360	4
TAP	92	0	3
TAP	92	24	4
TAP	92	48	1
TAP	92	72	3
TAP	92	96	1
TAP	92	120	4
TAP	92	144	3
TAP	92	168	4
TAP	92	192	1
TAP	92	240	0
TAP	92	240	7
TAP	92	288	6
TAP	92	312	4
TAP	92	336	6
TAP	92	360	2
TAP	93	0	4
TAP	93	24	2
TAP	93	48	6
TAP	93	72	4
TAP	93	96	6
TAP	93	120	2
TAP	93	144	4
TAP	93	168	2
TAP	93	192	6
TAP	93	240	0
TAP	93	240	7
TAP	93	288	1
TAP	93	312	3
TAP	93	336	1
TAP	93	360	5
TAP	94	0	3
TAP	94	24	5
TAP	94	48	1
TAP	94	72	3
TAP	94	96	1
TAP	94	120	5
TAP	94	144	3
TAP	94	168	5
TAP	94	192	0
TAP	94	208	1
TAP	94	224	2
TAP	94	240	3
TAP	94	240	7
TAP	94	288	6
TAP	94	312	4
TAP	94	336	5
TAP	94	360	1
TAP	95	0	3
TAP	95	24	2
TAP	95	48	6
TAP	95	72	4
TAP	95	96	5
TAP	95	120	1
TAP	95	144	3
TAP	95	168	2
STR	95	192	7
SI_	95	192	7	96	24	3
TAP	95	240	7

T_REC_TAP	730
T_REC_BRK	51
T_REC_XTP	0
T_REC_HLD	23
T_REC_XHO	0
T_REC_STR	71
T_REC_BST	2
T_REC_XST	0
T_REC_TTP	0
T_REC_THO	0
T_REC_SLD	76
T_REC_ALL	953
T_NUM_TAP	801
T_NUM_BRK	53
T_NUM_HLD	23
T_NUM_SLD	76
T_NUM_ALL	953
T_JUDGE_TAP	854
T_JUDGE_HLD	62
T_JUDGE_SLD	76
T_JUDGE_ALL	992
TTM_EACHPAIRS	192
TTM_SCR_TAP	400500
TTM_SCR_BRK	137800
TTM_SCR_HLD	23000
TTM_SCR_SLD	114000
TTM_SCR_ALL	675300
TTM_SCR_S	649900
TTM_SCR_SS	670000
TTM_RAT_ACV	10079

