VERSION	0.00.00	1.03.00
FES_MODE	0
BPM_DEF	160.000	160.000	160.000	160.000
MET_DEF	4	4
RESOLUTION	384
CLK_DEF	384
COMPATIBLE_CODE	MA2

BPM	0	0	160.000
MET	0	0	4	4
MET	4	0	4	3
MET	4	288	4	4

TAP	1	0	1
TAP	1	0	6
TAP	1	48	5
TAP	1	72	4
TAP	1	120	4
TAP	1	144	6
TAP	1	192	2
TAP	1	216	3
TAP	1	264	3
TAP	1	288	1
TAP	2	0	0
TAP	2	0	6
TAP	2	48	2
TAP	2	72	3
TAP	2	120	3
TAP	2	144	1
TAP	2	192	5
TAP	2	216	4
TAP	2	264	4
TAP	2	288	6
TAP	3	0	1
TAP	3	0	7
TAP	3	48	5
TAP	3	72	4
TAP	3	120	4
TAP	3	144	6
TAP	3	192	2
TAP	3	216	3
TAP	3	264	3
STR	3	288	1
SLR	3	288	1	96	96	0
STR	4	96	7
SI_	4	96	7	96	48	3
TAP	4	192	0
TAP	4	288	2
STR	4	336	3
SCL	4	336	3	96	48	0
TAP	5	0	4
TAP	5	48	5
STR	5	144	4
SCR	5	144	4	96	48	7
TAP	5	192	3
TAP	5	240	2
TAP	5	336	7
TAP	6	0	6
TAP	6	48	5
TAP	6	96	3
TAP	6	96	4
TAP	6	144	2
TAP	6	192	1
TAP	6	240	0
TAP	6	288	5
STR	6	336	4
SCR	6	336	4	96	48	7
TAP	7	0	3
TAP	7	48	2
STR	7	144	3
SCL	7	144	3	96	48	0
TAP	7	192	4
STR	7	240	5
SI_	7	240	5	96	48	2
STR	7	336	0
SI_	7	336	0	96	48	3
TAP	8	48	7
TAP	8	144	1
TAP	8	144	6
TAP	8	192	1
TAP	8	192	6
TAP	8	288	5
STR	8	336	4
SCR	8	336	4	96	48	7
TAP	9	0	3
TAP	9	48	2
STR	9	144	3
SCL	9	144	3	96	48	0
TAP	9	192	4
TAP	9	240	5
TAP	9	336	0
TAP	10	0	1
TAP	10	48	2
TAP	10	96	3
TAP	10	96	4
TAP	10	144	5
TAP	10	192	6
TAP	10	240	7
TAP	10	288	2
STR	10	336	3
SCL	10	336	3	96	48	0
TAP	11	0	4
TAP	11	48	5
STR	11	144	4
SCR	11	144	4	96	48	7
TAP	11	192	3
STR	11	240	2
SI_	11	240	2	96	48	5
STR	11	336	7
SI_	11	336	7	96	48	4
TAP	12	48	0
TAP	12	144	1
TAP	12	144	6
TAP	12	192	1
TAP	12	192	6
STR	12	288	5
SCL	12	288	5	96	48	2
TAP	12	336	5
TAP	13	0	1
TAP	13	48	1
TAP	13	96	0
HLD	13	144	0	96
TAP	13	240	7
STR	13	288	0
SCR	13	288	0	96	48	3
TAP	13	336	0
TAP	14	0	5
TAP	14	48	5
STR	14	96	6
SI_	14	96	6	96	48	2
TAP	14	144	6
TAP	14	240	1
STR	14	288	0
SCR	14	288	0	96	48	3
TAP	14	336	0
TAP	15	0	6
TAP	15	48	6
TAP	15	96	3
TAP	15	144	3
STR	15	192	4
SCR	15	192	4	96	144	3
TAP	15	240	4
TAP	15	288	3
HLD	16	48	0	96
TAP	16	144	7
TAP	16	192	1
TAP	16	192	6
STR	16	288	2
SCR	16	288	2	96	48	5
TAP	16	336	2
TAP	17	0	6
TAP	17	48	6
TAP	17	96	7
HLD	17	144	7	96
TAP	17	240	0
STR	17	288	7
SCL	17	288	7	96	48	4
TAP	17	336	7
TAP	18	0	2
TAP	18	48	2
TAP	18	96	3
TAP	18	96	4
TAP	18	144	3
TAP	18	144	4
TAP	18	240	0
STR	18	288	7
SCL	18	288	7	96	48	4
TAP	18	336	7
TAP	19	0	1
TAP	19	48	1
TAP	19	96	4
TAP	19	144	4
STR	19	192	3
SCL	19	192	3	96	144	4
TAP	19	240	3
TAP	19	288	4
STR	20	48	7
SI_	20	48	7	96	48	3
TAP	20	144	0
TAP	20	192	0
TAP	20	288	2
TAP	20	288	6
TAP	20	336	5
TAP	20	360	4
TAP	21	24	4
TAP	21	48	6
TAP	21	96	2
TAP	21	120	3
TAP	21	168	3
TAP	21	192	1
TAP	21	288	1
TAP	21	288	5
TAP	21	336	2
TAP	21	360	3
TAP	22	24	3
TAP	22	48	1
TAP	22	96	5
TAP	22	120	4
TAP	22	168	4
TAP	22	192	6
TAP	22	288	2
TAP	22	288	6
TAP	22	336	5
TAP	22	360	4
TAP	23	24	4
TAP	23	48	6
TAP	23	96	2
TAP	23	120	3
TAP	23	168	3
TAP	23	192	1
TAP	23	240	0
TAP	23	240	7
TAP	23	336	3
TAP	23	336	4
TAP	24	0	2
TAP	24	0	5
STR	24	48	1
SI_	24	48	1	96	48	4
STR	24	48	6
SI_	24	48	6	96	48	2
STR	24	288	2
SCR	24	288	2	96	48	5
TAP	24	336	2
TAP	25	0	6
TAP	25	48	6
TAP	25	96	7
HLD	25	144	7	96
TAP	25	240	0
STR	25	288	7
SCL	25	288	7	96	48	4
TAP	25	336	7
TAP	26	0	2
TAP	26	48	2
STR	26	96	1
SI_	26	96	1	96	48	5
TAP	26	144	1
TAP	26	240	6
STR	26	288	7
SCL	26	288	7	96	48	4
TAP	26	336	7
TAP	27	0	1
TAP	27	48	1
TAP	27	96	4
TAP	27	144	4
STR	27	192	3
SCL	27	192	3	96	144	4
TAP	27	240	3
TAP	27	288	4
HLD	28	48	7	96
TAP	28	144	0
TAP	28	192	1
TAP	28	192	6
STR	28	288	5
SCL	28	288	5	96	48	2
TAP	28	336	5
TAP	29	0	1
TAP	29	48	1
TAP	29	96	0
HLD	29	144	0	96
TAP	29	240	7
STR	29	288	0
SCR	29	288	0	96	48	3
TAP	29	336	0
TAP	30	0	5
TAP	30	48	5
TAP	30	96	3
TAP	30	96	4
TAP	30	144	3
TAP	30	144	4
TAP	30	240	6
TAP	30	288	6
TAP	30	288	7
TAP	30	336	5
TAP	31	0	3
TAP	31	0	4
TAP	31	48	2
TAP	31	96	0
TAP	31	96	1
TAP	31	144	2
TAP	31	192	3
TAP	31	192	4
TAP	31	240	5
TAP	31	288	6
TAP	31	288	7
TAP	31	336	5
TAP	32	0	3
TAP	32	0	4
TAP	32	48	2
TAP	32	96	0
TAP	32	96	1
TAP	32	144	2
TAP	32	192	3
STR	32	192	4
SCR	32	192	4	96	144	3
TAP	33	48	0
TAP	33	144	0
TAP	33	240	0
TAP	33	240	4
TAP	33	336	2
TAP	33	336	5
TAP	34	0	3
TAP	34	24	4
TAP	34	48	3
TAP	34	96	3
TAP	34	96	4
TAP	34	240	5
STR	34	288	5
SCL	34	288	5	96	96	2
TAP	35	48	1
TAP	35	96	1
TAP	35	240	7
STR	35	288	7
SI_	35	288	7	96	48	3
TAP	36	0	0
STR	36	48	0
SI_	36	48	0	96	48	4
STR	36	144	7
SCL	36	144	7	96	240	1
HLD	36	240	0	240
TAP	37	240	3
TAP	37	240	4
TAP	37	288	3
TAP	37	288	4
TAP	38	0	0
TAP	38	0	7
STR	38	48	0
SI_	38	48	0	96	48	4
STR	38	48	7
SI_	38	48	7	96	48	3
TAP	38	240	2
STR	38	288	2
SCR	38	288	2	96	96	5
TAP	39	48	6
TAP	39	96	6
TAP	39	240	5
STR	39	288	5
SI_	39	288	5	96	48	2
STR	40	0	1
SI_	40	0	1	96	48	6
STR	40	96	7
SI_	40	96	7	96	48	3
TAP	40	192	0
TAP	40	240	0
TAP	40	288	1
TAP	40	288	6
TAP	41	48	3
TAP	41	48	4
TAP	41	96	3
TAP	41	96	4
TAP	41	240	0
TAP	41	240	7
TAP	41	288	1
TAP	41	288	6
TAP	41	336	2
TAP	41	336	5
TAP	42	0	2
TAP	42	0	5
STR	42	96	6
SCL	42	96	6	96	48	3
STR	42	96	7
SCR	42	96	7	96	48	2
STR	42	288	0
SI_	42	288	0	96	48	5
STR	42	288	1
SI_	42	288	1	96	48	4
TAP	43	96	6
TAP	43	96	7
TAP	43	168	2
STR	43	168	6
SCR	43	168	6	96	72	3
TAP	43	240	3
TAP	43	336	0
TAP	44	0	0
TAP	44	48	1
TAP	44	48	7
TAP	44	96	1
TAP	44	96	7
STR	44	192	1
SI_	44	192	1	96	48	5
STR	44	240	6
SI_	44	240	6	96	48	2
HLD	45	0	1	96
TAP	45	96	0
STR	45	168	1
SCL	45	168	1	96	72	4
TAP	45	168	5
TAP	45	240	4
TAP	45	336	7
TAP	46	0	7
TAP	46	48	0
TAP	46	48	6
TAP	46	96	0
TAP	46	96	6
TAP	46	192	3
TAP	46	192	5
TAP	46	240	2
STR	46	288	4
SCR	46	288	4	96	48	7
TAP	47	0	1
TAP	47	48	2
STR	47	96	3
SCL	47	96	3	96	48	0
TAP	47	192	6
TAP	47	240	5
STR	47	288	4
SI_	47	288	4	96	48	7
STR	48	0	0
SI_	48	0	0	96	48	3
TAP	48	96	7
TAP	48	192	5
TAP	48	240	4
STR	48	240	6
SI_	48	240	6	96	48	3
TAP	48	336	0
STR	49	0	0
SI_	49	0	0	96	48	4
TAP	49	48	7
TAP	49	96	7
STR	49	192	6
SI_	49	192	6	96	48	2
STR	49	240	0
SI_	49	240	0	96	48	4
TAP	50	0	7
TAP	50	48	7
TAP	50	96	4
TAP	50	96	6
TAP	50	168	1
TAP	50	168	3
TAP	50	240	0
TAP	50	240	7
BRK	50	288	2
BRK	50	288	5
TAP	51	48	0
TAP	51	48	7
TAP	51	96	0
TAP	51	96	7
TAP	51	168	1
TAP	51	168	3
TAP	51	240	4
STR	51	240	6
SI_	51	240	6	96	48	2
TAP	51	336	1
TAP	52	0	1
TAP	52	48	0
TAP	52	96	7
TAP	52	144	6
TAP	52	192	6
TAP	52	240	7
STR	52	288	0
SI_	52	288	0	96	48	6
STR	52	288	5
SI_	52	288	5	96	48	3
TAP	53	96	1
TAP	53	96	4
TAP	53	168	3
TAP	53	168	6
TAP	53	240	2
TAP	53	240	5
TAP	53	336	1
TAP	53	336	6
STR	54	0	1
SI_	54	0	1	96	48	5
TAP	54	0	6
STR	54	96	7
SI_	54	96	7	96	48	4
STR	54	192	3
SI_	54	192	3	96	48	0
HLD	54	288	4	96
TAP	55	0	3
TAP	55	48	4
TAP	55	96	1
TAP	55	144	0
TAP	55	144	4
STR	55	192	0
SCR	55	192	0	96	48	3
STR	55	192	4
SCR	55	192	4	96	48	7
TAP	56	0	2
TAP	56	0	6
TAP	56	48	2
TAP	56	48	6
STR	56	96	1
SI_	56	96	1	96	48	4
STR	56	96	5
SI_	56	96	5	96	48	0
TAP	56	288	2
TAP	56	288	6
TAP	56	336	3
TAP	57	0	4
TAP	57	48	5
TAP	57	96	0
TAP	57	96	6
TAP	57	168	2
TAP	57	168	4
TAP	57	240	3
HLD	57	240	7	96
TAP	57	336	0
TAP	58	0	6
STR	58	48	1
SI_	58	48	1	96	48	5
TAP	58	144	7
STR	58	288	7
SCL	58	288	7	96	48	4
STR	58	336	3
SCL	58	336	3	96	48	0
TAP	59	96	5
TAP	59	144	4
TAP	59	192	3
TAP	59	240	2
STR	59	288	1
SCR	59	288	1	96	48	4
STR	59	336	5
SCR	59	336	5	96	48	0
TAP	60	96	2
TAP	60	144	3
TAP	60	192	4
TAP	60	240	5
STR	60	288	6
SI_	60	288	6	96	48	4
STR	60	336	3
SI_	60	336	3	96	48	7
TAP	61	96	5
TAP	61	144	4
TAP	61	192	3
STR	61	240	2
SI_	61	240	2	96	48	5
TAP	61	240	4
TAP	61	336	7
TAP	62	0	7
STR	62	48	6
SI_	62	48	6	96	48	3
TAP	62	144	1
TAP	62	192	1
STR	62	288	0
SCR	62	288	0	96	48	3
STR	62	336	4
SCR	62	336	4	96	48	7
TAP	63	96	2
TAP	63	144	3
TAP	63	192	4
TAP	63	240	5
STR	63	288	6
SCL	63	288	6	96	48	3
STR	63	336	2
SCL	63	336	2	96	48	7
TAP	64	96	5
TAP	64	144	4
TAP	64	192	3
TAP	64	240	2
STR	64	288	1
SI_	64	288	1	96	48	3
STR	64	336	4
SI_	64	336	4	96	48	0
TAP	65	96	2
TAP	65	144	3
TAP	65	192	4
TAP	65	240	3
TAP	65	240	5
TAP	65	336	0
TAP	65	336	7
TAP	66	0	1
TAP	66	0	6
TAP	66	48	2
TAP	66	48	5
TAP	66	96	3
TAP	66	96	4
HLD	66	192	1	2688
HLD	66	288	5	2592
BST	73	240	1
SCR	73	240	1	96	48	4
BST	73	240	5
SCR	73	240	5	96	48	0
TAP	74	48	1
TAP	74	48	5
TAP	74	144	3
TAP	74	144	7
BRK	74	240	1
BRK	74	240	6
BRK	74	288	1
BRK	74	288	6
TAP	75	48	6
TAP	75	48	7
TAP	75	96	6
TAP	75	96	7
TAP	75	168	2
STR	75	168	6
SCR	75	168	6	96	72	3
TAP	75	240	3
TAP	75	336	0
TAP	76	0	0
TAP	76	48	1
TAP	76	48	7
TAP	76	96	1
TAP	76	96	7
STR	76	192	5
SI_	76	192	5	96	48	0
STR	76	240	1
SI_	76	240	1	96	48	4
HLD	77	0	7	96
TAP	77	96	0
STR	77	168	1
SCL	77	168	1	96	72	4
TAP	77	168	5
TAP	77	240	4
TAP	77	336	7
TAP	78	0	7
TAP	78	48	0
TAP	78	48	6
TAP	78	96	0
TAP	78	96	6
TAP	78	192	2
TAP	78	192	4
TAP	78	240	5
STR	78	288	3
SCL	78	288	3	96	48	0
TAP	79	0	6
TAP	79	48	5
STR	79	96	4
SCR	79	96	4	96	48	7
TAP	79	192	1
TAP	79	240	2
STR	79	288	3
SI_	79	288	3	96	48	7
TAP	79	336	3
STR	80	0	4
SI_	80	0	4	96	48	0
TAP	80	48	4
TAP	80	96	3
TAP	80	192	2
STR	80	240	1
SI_	80	240	1	96	48	4
TAP	80	240	3
TAP	80	336	7
STR	81	0	7
SI_	81	0	7	96	48	3
TAP	81	48	0
TAP	81	96	0
STR	81	192	1
SI_	81	192	1	96	48	5
STR	81	240	7
SI_	81	240	7	96	48	3
TAP	82	0	0
TAP	82	48	0
TAP	82	96	1
TAP	82	96	3
TAP	82	168	4
TAP	82	168	6
TAP	82	240	0
TAP	82	240	7
BRK	82	288	2
BRK	82	288	5
TAP	83	48	0
TAP	83	48	7
TAP	83	96	0
TAP	83	96	7
TAP	83	168	4
TAP	83	168	6
STR	83	240	1
SI_	83	240	1	96	48	5
TAP	83	240	3
TAP	83	336	6
TAP	84	0	6
TAP	84	48	7
TAP	84	96	0
TAP	84	144	1
TAP	84	192	1
TAP	84	240	0
STR	84	288	2
SCR	84	288	2	96	48	4
STR	84	288	7
SCR	84	288	7	96	48	1
TAP	85	96	3
TAP	85	96	6
TAP	85	168	1
TAP	85	168	4
TAP	85	240	2
TAP	85	240	5
TAP	85	336	1
TAP	85	336	6
TAP	86	0	1
STR	86	0	6
SI_	86	0	6	96	48	2
STR	86	96	0
SI_	86	96	0	96	48	3
TAP	86	144	0
STR	86	192	4
SI_	86	192	4	96	48	7
TAP	86	240	4
HLD	86	288	3	96
TAP	87	0	4
TAP	87	48	2
TAP	87	96	1
TAP	87	144	0
TAP	87	144	4
STR	87	192	0
SCR	87	192	0	96	48	3
STR	87	192	4
SCR	87	192	4	96	48	7
TAP	88	0	2
TAP	88	0	6
TAP	88	48	2
TAP	88	48	6
STR	88	96	1
SI_	88	96	1	96	48	4
STR	88	96	5
SI_	88	96	5	96	48	0
TAP	88	288	2
TAP	88	288	6
TAP	88	336	1
TAP	88	360	0
TAP	89	24	6
TAP	89	48	7
TAP	89	96	2
TAP	89	120	3
TAP	89	168	5
TAP	89	192	4
TAP	89	288	1
TAP	89	288	5
TAP	89	336	6
TAP	89	360	7
TAP	90	24	1
TAP	90	48	0
TAP	90	96	5
TAP	90	120	4
TAP	90	168	2
TAP	90	192	3
TAP	90	288	2
TAP	90	288	6
TAP	90	336	1
TAP	90	360	0
TAP	91	24	5
TAP	91	48	4
TAP	91	96	6
TAP	91	120	7
TAP	91	168	2
TAP	91	192	3
TAP	91	288	1
TAP	91	288	5
TAP	91	336	6
TAP	91	360	7
TAP	92	24	2
TAP	92	48	3
TAP	92	96	1
TAP	92	120	0
TAP	92	168	5
TAP	92	192	4
TAP	92	288	2
TAP	92	288	6
TAP	92	336	1
TAP	92	360	0
TAP	93	24	2
TAP	93	48	3
TAP	93	96	6
TAP	93	120	7
TAP	93	168	5
TAP	93	192	4
TAP	93	288	1
TAP	93	288	5
TAP	93	336	6
TAP	93	360	7
TAP	94	24	5
TAP	94	48	4
TAP	94	96	1
TAP	94	120	0
TAP	94	168	2
TAP	94	192	3
TAP	94	288	3
TAP	94	312	4
TAP	94	336	3
TAP	94	360	4
TAP	95	0	3
TAP	95	24	4
TAP	95	48	3
TAP	95	72	4
TAP	95	96	3
TAP	95	120	4
TAP	95	144	3
TAP	95	168	4
TAP	95	192	3
TAP	95	240	2
TAP	95	240	5

T_REC_TAP	528
T_REC_BRK	8
T_REC_XTP	0
T_REC_HLD	14
T_REC_XHO	0
T_REC_STR	107
T_REC_BST	2
T_REC_XST	0
T_REC_TTP	0
T_REC_THO	0
T_REC_SLD	109
T_REC_ALL	768
T_NUM_TAP	635
T_NUM_BRK	10
T_NUM_HLD	14
T_NUM_SLD	109
T_NUM_ALL	768
T_JUDGE_TAP	645
T_JUDGE_HLD	137
T_JUDGE_SLD	109
T_JUDGE_ALL	891
TTM_EACHPAIRS	125
TTM_SCR_TAP	317500
TTM_SCR_BRK	26000
TTM_SCR_HLD	14000
TTM_SCR_SLD	163500
TTM_SCR_ALL	521000
TTM_SCR_S	504400
TTM_SCR_SS	520000
TTM_RAT_ACV	10019

