VERSION	0.00.00	1.03.00
FES_MODE	0
BPM_DEF	160.000	160.000	160.000	160.000
MET_DEF	4	4
RESOLUTION	384
CLK_DEF	384
COMPATIBLE_CODE	MA2

BPM	0	0	160.000
MET	0	0	4	4
MET	4	0	4	3
MET	4	288	4	4

HLD	1	0	1	72
HLD	1	72	2	72
HLD	1	144	3	72
HLD	1	216	4	72
TAP	1	288	5
HLD	2	0	6	72
HLD	2	72	5	72
HLD	2	144	4	72
HLD	2	216	3	72
TAP	2	288	2
HLD	3	0	1	72
HLD	3	72	3	72
HLD	3	144	4	72
HLD	3	216	6	72
TAP	3	288	1
BRK	4	192	3
BRK	4	192	4
TAP	4	288	0
TAP	4	288	7
TAP	5	0	2
TAP	5	48	2
TAP	5	144	1
TAP	5	144	3
TAP	5	240	2
TAP	5	240	4
TAP	5	336	3
TAP	5	336	5
TAP	6	48	4
TAP	6	48	6
TAP	6	144	5
TAP	6	192	5
TAP	6	288	0
TAP	6	288	7
TAP	7	0	5
TAP	7	48	5
TAP	7	144	4
TAP	7	144	6
TAP	7	192	4
TAP	7	192	6
HLD	7	288	5	144
TAP	8	48	4
TAP	8	144	2
TAP	8	144	6
TAP	8	288	0
TAP	8	288	7
TAP	9	0	5
TAP	9	48	5
TAP	9	144	4
TAP	9	144	6
TAP	9	240	3
TAP	9	240	5
TAP	9	336	2
TAP	9	336	4
TAP	10	48	1
TAP	10	48	3
TAP	10	144	2
TAP	10	192	2
TAP	10	288	0
TAP	10	288	7
TAP	11	0	2
TAP	11	48	2
TAP	11	144	1
TAP	11	144	3
TAP	11	192	1
TAP	11	192	3
HLD	11	288	2	144
TAP	12	48	3
TAP	12	144	1
TAP	12	144	5
TAP	12	288	3
TAP	12	288	6
HLD	13	0	2	96
TAP	13	0	4
TAP	13	96	3
TAP	13	144	3
TAP	13	288	4
STR	14	0	1
SCR	14	0	1	96	96	4
TAP	14	288	4
TAP	14	288	6
TAP	15	0	2
TAP	15	0	3
TAP	15	96	4
TAP	15	96	5
TAP	15	192	1
TAP	15	192	3
TAP	15	288	2
TAP	15	336	2
TAP	16	0	4
TAP	16	48	4
TAP	16	144	3
TAP	16	144	5
TAP	16	192	3
TAP	16	192	5
TAP	16	288	1
TAP	16	288	4
TAP	17	0	3
HLD	17	0	5	96
TAP	17	96	4
TAP	17	144	4
TAP	17	288	3
STR	18	0	6
SCL	18	0	6	96	96	3
TAP	18	288	1
TAP	18	288	3
TAP	19	0	4
TAP	19	0	5
TAP	19	96	2
TAP	19	96	3
TAP	19	192	4
TAP	19	192	6
STR	19	288	3
SCL	19	288	3	96	48	0
STR	19	288	7
SCL	19	288	7	96	48	4
STR	20	96	0
SI_	20	96	0	96	48	4
BRK	20	288	2
BRK	20	288	6
TAP	21	0	5
TAP	21	96	4
TAP	21	192	2
TAP	21	192	3
TAP	21	288	1
TAP	21	288	5
TAP	22	0	2
TAP	22	96	3
TAP	22	192	4
TAP	22	192	5
TAP	22	288	2
TAP	22	288	6
TAP	23	0	1
TAP	23	96	0
TAP	23	192	7
HLD	23	240	7	192
STR	24	48	0
SI_	24	48	0	96	48	4
TAP	24	288	2
TAP	24	288	6
TAP	25	0	1
HLD	25	0	5	96
TAP	25	96	4
TAP	25	144	4
TAP	25	144	5
TAP	25	288	2
TAP	25	288	3
STR	26	0	6
SUL	26	0	6	96	96	2
TAP	26	288	1
TAP	26	288	3
TAP	27	0	4
TAP	27	0	5
TAP	27	96	2
TAP	27	96	3
TAP	27	192	4
TAP	27	192	6
TAP	27	288	5
TAP	27	336	5
TAP	28	0	3
TAP	28	48	3
TAP	28	144	2
TAP	28	144	4
TAP	28	192	2
TAP	28	192	4
TAP	28	288	1
TAP	28	288	5
HLD	29	0	2	96
TAP	29	0	6
TAP	29	96	3
TAP	29	144	2
TAP	29	144	3
TAP	29	288	4
TAP	29	288	5
STR	30	0	1
SUR	30	0	1	96	96	5
TAP	30	288	4
TAP	30	288	6
TAP	31	0	2
TAP	31	0	3
TAP	31	96	4
TAP	31	96	5
TAP	31	192	1
TAP	31	192	3
TAP	31	288	2
TAP	31	288	6
TAP	32	0	1
TAP	32	0	4
TAP	32	96	2
TAP	32	96	7
TAP	32	192	0
STR	32	192	4
SCR	32	192	4	96	288	3
TAP	33	288	1
TAP	33	288	6
TAP	34	0	3
TAP	34	48	4
TAP	34	96	3
TAP	34	96	4
HLD	34	288	2	144
TAP	35	48	3
TAP	35	96	3
TAP	35	192	4
HLD	35	288	5	144
TAP	36	48	4
TAP	36	96	4
TAP	36	192	3
HLD	36	288	2	144
TAP	37	48	3
TAP	37	96	3
TAP	37	192	4
HLD	37	288	2	96
HLD	37	288	5	96
TAP	38	48	2
STR	38	48	5
SI_	38	48	5	96	48	2
HLD	38	288	0	96
TAP	38	288	7
TAP	39	0	2
TAP	39	96	1
HLD	39	96	6	96
TAP	39	192	4
HLD	39	288	2	96
TAP	39	288	5
TAP	40	0	3
TAP	40	96	3
TAP	40	96	4
TAP	40	240	1
TAP	40	240	3
TAP	40	288	1
TAP	40	288	3
TAP	41	48	4
TAP	41	48	6
TAP	41	96	4
TAP	41	96	6
TAP	41	240	2
TAP	41	240	5
TAP	41	288	2
TAP	41	288	5
TAP	41	336	2
TAP	41	336	5
TAP	42	0	2
TAP	42	0	5
TAP	42	48	2
TAP	42	48	5
BRK	42	96	3
BRK	42	96	4
TAP	42	288	0
TAP	42	288	1
TAP	43	0	3
TAP	43	0	6
TAP	43	96	6
TAP	43	96	7
TAP	43	192	1
TAP	43	192	4
HLD	43	240	1	144
TAP	43	240	4
TAP	43	336	0
TAP	44	0	0
TAP	44	48	1
TAP	44	96	2
TAP	44	96	7
TAP	44	192	0
TAP	44	288	6
TAP	44	288	7
TAP	45	0	1
TAP	45	0	4
TAP	45	96	0
TAP	45	96	1
TAP	45	192	3
TAP	45	192	6
TAP	45	240	3
HLD	45	240	6	144
TAP	45	336	7
TAP	46	0	7
TAP	46	48	6
TAP	46	96	0
TAP	46	96	5
TAP	46	192	7
STR	46	288	1
SCR	46	288	1	96	48	3
TAP	46	288	4
TAP	47	96	4
STR	47	96	7
SCL	47	96	7	96	48	5
TAP	47	288	4
TAP	47	336	4
STR	48	0	3
SI_	48	0	3	96	48	1
STR	48	0	5
SI_	48	0	5	96	48	1
TAP	48	288	2
TAP	48	336	2
TAP	49	0	1
TAP	49	0	3
TAP	49	96	5
TAP	49	144	5
TAP	49	192	4
TAP	49	192	6
TAP	49	288	2
TAP	49	336	2
TAP	50	0	4
TAP	50	48	4
TAP	50	96	3
TAP	50	96	5
TAP	50	168	2
TAP	50	168	4
TAP	50	240	1
TAP	50	240	6
BRK	50	288	1
BRK	50	288	6
TAP	51	48	7
HLD	51	96	7	72
HLD	51	168	6	72
STR	51	240	5
SCL	51	240	5	96	96	2
TAP	52	96	0
TAP	52	96	1
TAP	52	192	2
TAP	52	192	7
TAP	52	288	0
TAP	52	288	5
STR	53	0	6
SI_	53	0	6	96	96	3
STR	53	0	7
SI_	53	0	7	96	96	2
TAP	53	288	1
TAP	53	336	1
TAP	54	0	0
TAP	54	0	2
TAP	54	96	6
TAP	54	144	6
TAP	54	192	5
TAP	54	192	7
TAP	54	288	3
TAP	54	288	4
TAP	55	0	0
TAP	55	0	4
TAP	55	96	1
TAP	55	96	5
TAP	55	192	2
TAP	55	192	6
STR	55	288	3
SCL	55	288	3	96	48	0
STR	55	288	7
SCL	55	288	7	96	48	4
STR	56	96	0
SI_	56	96	0	96	48	4
BRK	56	288	2
BRK	56	288	6
TAP	57	0	5
TAP	57	96	4
TAP	57	192	3
HLD	57	240	3	192
STR	58	48	4
SI_	58	48	4	96	48	7
TAP	58	144	0
TAP	58	288	1
TAP	58	336	1
TAP	59	0	4
TAP	59	48	4
TAP	59	96	2
TAP	59	144	2
TAP	59	240	1
TAP	59	240	3
TAP	59	336	2
TAP	59	336	4
TAP	60	48	3
TAP	60	48	5
TAP	60	144	4
TAP	60	144	6
TAP	60	240	5
HLD	60	288	5	96
HLD	61	0	4	96
HLD	61	96	3	96
TAP	61	192	2
TAP	61	240	2
TAP	61	336	4
TAP	62	0	3
TAP	62	48	4
TAP	62	144	5
TAP	62	192	5
TAP	62	288	3
TAP	62	288	4
TAP	63	0	5
TAP	63	48	5
TAP	63	144	4
TAP	63	144	6
TAP	63	240	3
TAP	63	240	5
TAP	63	336	2
TAP	63	336	4
TAP	64	48	1
TAP	64	48	3
TAP	64	144	2
TAP	64	192	2
TAP	64	288	6
TAP	64	336	6
TAP	65	0	3
TAP	65	48	3
TAP	65	96	5
TAP	65	144	5
TAP	65	192	2
STR	65	240	2
SCL	65	240	2	96	192	5
TAP	66	192	4
STR	66	288	0
SI_	66	288	0	96	624	4
SCR	66	288	0	96	1248	0
STR	74	48	0
SCR	74	48	0	96	48	3
STR	74	48	7
SCL	74	48	7	96	48	4
TAP	74	240	1
TAP	74	240	6
BRK	74	288	1
BRK	74	288	6
TAP	75	96	3
HLD	75	96	4	72
HLD	75	168	5	72
HLD	75	240	6	144
TAP	75	336	7
TAP	76	0	7
TAP	76	48	6
TAP	76	96	0
TAP	76	96	5
STR	76	192	7
SI_	76	192	7	96	48	3
TAP	76	288	0
TAP	77	0	1
TAP	77	0	6
HLD	77	96	3	72
TAP	77	96	4
HLD	77	168	2	72
HLD	77	240	1	144
TAP	77	336	0
TAP	78	0	0
TAP	78	48	1
TAP	78	96	2
TAP	78	96	7
TAP	78	192	0
STR	78	288	6
SCL	78	288	6	96	48	4
TAP	78	288	7
TAP	79	96	0
STR	79	96	1
SCR	79	96	1	96	48	3
TAP	79	288	7
TAP	79	336	0
TAP	80	0	7
TAP	80	48	0
TAP	80	96	1
TAP	80	96	6
TAP	80	288	6
TAP	80	336	6
TAP	81	0	5
TAP	81	0	7
TAP	81	96	1
TAP	81	144	1
TAP	81	192	0
TAP	81	192	2
TAP	81	288	6
TAP	81	336	6
TAP	82	0	3
TAP	82	48	3
TAP	82	96	2
TAP	82	96	4
TAP	82	168	3
TAP	82	168	5
TAP	82	240	1
TAP	82	240	6
BRK	82	288	1
BRK	82	288	6
TAP	83	48	0
HLD	83	96	0	72
HLD	83	168	1	72
STR	83	240	2
SCR	83	240	2	96	96	5
TAP	84	96	6
TAP	84	96	7
STR	84	192	0
SI_	84	192	0	96	48	4
TAP	84	288	5
TAP	85	0	6
TAP	85	96	0
TAP	85	96	7
TAP	85	192	0
STR	85	192	7
SSR	85	192	7	96	144	3
TAP	86	96	1
TAP	86	144	0
TAP	86	192	2
TAP	86	192	7
TAP	86	288	3
TAP	86	288	4
TAP	87	0	1
TAP	87	0	5
TAP	87	48	1
TAP	87	48	5
TAP	87	96	1
TAP	87	96	5
TAP	87	192	3
TAP	87	192	7
TAP	87	240	3
TAP	87	240	7
STR	87	288	3
SCL	87	288	3	96	48	0
STR	87	288	7
SCL	87	288	7	96	48	4
STR	88	96	0
SI_	88	96	0	96	48	4
BRK	88	288	2
HLD	88	288	6	72
HLD	88	360	5	72
HLD	89	48	4	72
HLD	89	120	3	72
TAP	89	192	2
HLD	89	288	1	72
TAP	89	288	5
HLD	89	360	2	72
HLD	90	48	3	72
HLD	90	120	4	72
TAP	90	192	5
HLD	90	288	2	72
TAP	90	288	6
HLD	90	360	1	72
HLD	91	48	0	72
HLD	91	120	7	72
TAP	91	192	6
TAP	91	288	1
HLD	91	288	5	72
HLD	91	360	6	72
HLD	92	48	7	72
HLD	92	120	0	72
TAP	92	192	1
TAP	92	288	3
HLD	92	288	7	72
HLD	92	360	5	72
HLD	93	48	3	72
HLD	93	120	1	72
TAP	93	192	7
HLD	93	288	0	72
TAP	93	288	4
HLD	93	360	2	72
HLD	94	48	4	72
HLD	94	120	6	72
TAP	94	192	0
TAP	94	288	6
TAP	94	288	7
TAP	94	360	2
TAP	94	360	3
TAP	95	48	0
TAP	95	48	1
TAP	95	120	4
TAP	95	120	5
TAP	95	192	1
TAP	95	192	6
TAP	95	240	1
TAP	95	240	6

T_REC_TAP	407
T_REC_BRK	15
T_REC_XTP	0
T_REC_HLD	67
T_REC_XHO	0
T_REC_STR	34
T_REC_BST	0
T_REC_XST	0
T_REC_TTP	0
T_REC_THO	0
T_REC_SLD	35
T_REC_ALL	558
T_NUM_TAP	441
T_NUM_BRK	15
T_NUM_HLD	67
T_NUM_SLD	35
T_NUM_ALL	558
T_JUDGE_TAP	456
T_JUDGE_HLD	147
T_JUDGE_SLD	35
T_JUDGE_ALL	638
TTM_EACHPAIRS	161
TTM_SCR_TAP	220500
TTM_SCR_BRK	39000
TTM_SCR_HLD	67000
TTM_SCR_SLD	52500
TTM_SCR_ALL	379000
TTM_SCR_S	366200
TTM_SCR_SS	377500
TTM_RAT_ACV	10039

