VERSION	0.00.00	1.03.00
FES_MODE	0
BPM_DEF	160.000	160.000	160.000	160.000
MET_DEF	4	4
RESOLUTION	384
CLK_DEF	384
COMPATIBLE_CODE	MA2

BPM	0	0	160.000
MET	0	0	4	4
MET	4	0	4	3
MET	4	288	4	4

STR	1	0	0
SI_	1	0	0	96	192	3
STR	2	0	4
SI_	2	0	4	96	192	7
STR	3	0	0
SCR	3	0	0	96	192	3
STR	3	0	7
SCL	3	0	7	96	192	4
HLD	4	0	3	192
HLD	4	0	4	192
TAP	4	288	4
TAP	5	0	5
TAP	5	96	4
TAP	5	96	6
TAP	5	288	3
TAP	6	0	2
TAP	6	96	1
TAP	6	96	3
TAP	6	288	1
TAP	7	0	0
TAP	7	96	7
TAP	7	192	6
TAP	7	288	0
TAP	7	288	7
TAP	8	0	1
TAP	8	0	6
TAP	8	96	2
TAP	8	96	5
TAP	8	288	3
TAP	9	0	2
TAP	9	96	1
TAP	9	96	3
TAP	9	288	4
TAP	10	0	5
TAP	10	96	4
TAP	10	96	6
TAP	10	288	6
TAP	11	0	7
TAP	11	96	0
TAP	11	192	1
TAP	11	288	0
TAP	11	288	7
TAP	12	0	0
TAP	12	0	7
BRK	12	96	1
BRK	12	96	6
TAP	12	288	2
TAP	13	0	2
TAP	13	96	3
TAP	13	192	3
TAP	13	288	4
TAP	14	0	4
TAP	14	96	3
TAP	14	96	4
TAP	14	288	4
TAP	15	0	4
TAP	15	96	5
TAP	15	192	4
TAP	15	192	5
STR	15	288	6
SI_	15	288	6	96	192	2
TAP	16	288	1
TAP	17	0	1
TAP	17	96	2
TAP	17	192	3
TAP	17	288	4
TAP	18	0	5
TAP	18	96	4
TAP	18	96	5
TAP	18	288	4
TAP	19	0	4
TAP	19	96	3
TAP	19	192	3
TAP	19	288	4
TAP	20	0	4
TAP	20	96	2
TAP	20	96	5
TAP	20	192	2
TAP	20	192	5
STR	20	288	1
SXL	20	288	1	96	576	4
TAP	20	288	6
TAP	22	288	5
TAP	23	0	4
TAP	23	96	3
STR	23	192	2
SCL	23	192	2	96	192	7
TAP	24	288	5
TAP	25	0	5
TAP	25	96	4
TAP	25	192	4
TAP	25	288	3
TAP	26	0	3
TAP	26	96	2
TAP	26	96	4
TAP	26	288	3
TAP	27	0	3
TAP	27	96	2
TAP	27	192	2
TAP	27	192	3
STR	27	288	1
SI_	27	288	1	96	192	5
TAP	28	288	6
TAP	29	0	6
TAP	29	96	5
TAP	29	192	4
TAP	29	288	3
TAP	30	0	2
TAP	30	96	2
TAP	30	96	4
TAP	30	288	2
TAP	31	0	2
TAP	31	96	3
TAP	31	192	3
TAP	31	288	4
TAP	32	0	4
TAP	32	96	5
TAP	32	192	4
TAP	32	288	2
TAP	32	288	5
TAP	33	96	2
TAP	33	192	3
TAP	33	288	4
TAP	34	0	3
TAP	34	96	3
TAP	34	96	4
HLD	34	288	5	384
HLD	35	288	4	384
HLD	36	288	3	384
TAP	37	288	2
TAP	38	96	3
TAP	38	96	4
HLD	38	288	2	192
TAP	39	96	3
HLD	39	288	5	192
TAP	40	96	4
TAP	40	288	2
TAP	40	288	3
TAP	41	96	4
TAP	41	96	5
TAP	41	288	3
TAP	41	288	4
TAP	42	0	2
TAP	42	0	5
BRK	42	96	1
BRK	42	96	6
TAP	42	288	0
TAP	42	288	1
TAP	43	0	0
TAP	43	0	1
TAP	43	96	6
TAP	43	96	7
TAP	43	192	6
TAP	43	192	7
TAP	43	288	0
TAP	43	288	1
TAP	44	0	0
TAP	44	0	1
TAP	44	96	2
TAP	44	96	7
TAP	44	288	4
TAP	44	288	5
TAP	45	0	4
TAP	45	0	5
TAP	45	96	2
TAP	45	96	3
TAP	45	192	2
TAP	45	192	3
TAP	45	288	4
TAP	45	288	5
TAP	46	0	4
TAP	46	0	5
TAP	46	96	3
TAP	46	96	6
HLD	46	288	3	192
TAP	47	96	4
TAP	47	288	3
TAP	47	288	4
TAP	48	0	3
TAP	48	0	4
TAP	48	96	2
TAP	48	96	5
TAP	48	288	2
TAP	48	288	3
TAP	49	0	2
TAP	49	0	3
TAP	49	96	0
TAP	49	96	1
TAP	49	192	0
TAP	49	192	1
TAP	49	288	6
TAP	49	288	7
TAP	50	0	6
TAP	50	0	7
TAP	50	96	0
TAP	50	96	1
TAP	50	192	0
TAP	50	192	1
BRK	50	288	2
BRK	50	288	7
TAP	51	96	2
TAP	51	96	3
TAP	51	192	2
TAP	51	192	3
TAP	51	288	4
TAP	51	288	5
TAP	52	0	4
TAP	52	0	5
TAP	52	96	3
TAP	52	96	6
TAP	52	288	0
TAP	52	288	1
TAP	53	0	0
TAP	53	0	1
TAP	53	96	6
TAP	53	96	7
TAP	53	192	6
TAP	53	192	7
TAP	53	288	0
TAP	53	288	1
TAP	54	0	0
TAP	54	0	1
TAP	54	96	2
TAP	54	96	7
HLD	54	288	7	192
TAP	55	96	0
TAP	55	192	0
TAP	55	288	1
TAP	55	288	6
TAP	56	96	0
TAP	56	96	7
TAP	56	192	0
TAP	56	192	7
HLD	56	288	1	192
HLD	56	288	6	192
TAP	57	288	0
TAP	58	0	7
TAP	58	96	1
TAP	58	96	6
STR	58	288	6
SI_	58	288	6	96	192	3
STR	58	288	7
SI_	58	288	7	96	192	2
STR	59	288	0
SI_	59	288	0	96	192	5
STR	59	288	1
SI_	59	288	1	96	192	4
TAP	60	288	6
TAP	61	0	5
TAP	61	96	4
TAP	61	192	3
STR	61	288	3
SI_	61	288	3	96	192	0
STR	62	288	0
SI_	62	288	0	96	192	5
STR	62	288	1
SI_	62	288	1	96	192	4
STR	63	288	6
SI_	63	288	6	96	192	3
STR	63	288	7
SI_	63	288	7	96	192	2
TAP	64	288	1
TAP	65	0	2
TAP	65	96	3
TAP	65	192	4
TAP	65	288	3
TAP	65	288	5
TAP	66	96	2
TAP	66	96	4
HLD	66	288	2	768
HLD	68	288	3	384
TAP	69	288	2
TAP	70	96	3
TAP	70	96	4
HLD	70	288	5	384
HLD	71	288	4	384
TAP	74	96	3
TAP	74	96	4
TAP	74	192	2
TAP	74	192	5
BRK	74	288	1
BRK	74	288	6
TAP	75	96	0
TAP	75	96	1
TAP	75	192	6
TAP	75	192	7
TAP	75	288	0
TAP	75	288	1
TAP	76	0	6
TAP	76	0	7
TAP	76	96	0
TAP	76	96	5
TAP	76	288	2
TAP	76	288	3
TAP	77	0	2
TAP	77	0	3
TAP	77	96	4
TAP	77	96	5
TAP	77	192	4
TAP	77	192	5
TAP	77	288	2
TAP	77	288	3
TAP	78	0	4
TAP	78	0	5
TAP	78	96	3
TAP	78	96	6
HLD	78	288	4	192
TAP	79	96	3
TAP	79	288	3
TAP	79	288	4
TAP	80	0	2
TAP	80	0	5
TAP	80	96	1
TAP	80	96	6
TAP	80	288	0
TAP	80	288	1
TAP	81	0	0
TAP	81	0	1
TAP	81	96	2
TAP	81	192	3
TAP	81	288	3
TAP	81	288	4
TAP	82	0	2
TAP	82	0	5
TAP	82	96	1
TAP	82	96	6
TAP	82	192	0
TAP	82	192	7
BRK	82	288	1
BRK	82	288	6
TAP	83	96	6
TAP	83	96	7
TAP	83	192	0
TAP	83	192	1
TAP	83	288	6
TAP	83	288	7
TAP	84	0	0
TAP	84	0	1
TAP	84	96	2
TAP	84	96	7
TAP	84	288	4
TAP	84	288	5
TAP	85	0	4
TAP	85	0	5
TAP	85	96	2
TAP	85	96	3
TAP	85	192	2
TAP	85	192	3
TAP	85	288	4
TAP	85	288	5
TAP	86	0	2
TAP	86	0	3
TAP	86	96	1
TAP	86	96	4
HLD	86	288	0	192
TAP	87	96	7
TAP	87	192	7
TAP	87	288	1
TAP	87	288	6
TAP	88	96	0
TAP	88	96	7
TAP	88	192	0
TAP	88	192	7
BST	88	288	1
SI_	88	288	1	96	192	4
BST	88	288	6
SI_	88	288	6	96	192	3
TAP	89	288	3
TAP	90	0	4
TAP	90	96	2
TAP	90	96	5
TAP	90	288	2
TAP	91	0	3
TAP	91	96	2
TAP	91	96	4
TAP	91	288	5
TAP	92	0	4
TAP	92	96	3
TAP	92	96	5
TAP	92	288	6
TAP	93	0	5
TAP	93	96	4
TAP	93	192	3
TAP	93	192	4
TAP	93	288	3
TAP	94	0	2
TAP	94	96	1
TAP	94	192	0
TAP	94	192	7
TAP	94	288	7
TAP	95	0	0
TAP	95	96	0
TAP	95	96	7
BRK	95	192	1
BRK	95	192	6

T_REC_TAP	328
T_REC_BRK	12
T_REC_XTP	0
T_REC_HLD	17
T_REC_XHO	0
T_REC_STR	17
T_REC_BST	2
T_REC_XST	0
T_REC_TTP	0
T_REC_THO	0
T_REC_SLD	19
T_REC_ALL	395
T_NUM_TAP	345
T_NUM_BRK	14
T_NUM_HLD	17
T_NUM_SLD	19
T_NUM_ALL	395
T_JUDGE_TAP	359
T_JUDGE_HLD	104
T_JUDGE_SLD	19
T_JUDGE_ALL	482
TTM_EACHPAIRS	127
TTM_SCR_TAP	172500
TTM_SCR_BRK	36400
TTM_SCR_HLD	17000
TTM_SCR_SLD	28500
TTM_SCR_ALL	254400
TTM_SCR_S	245450
TTM_SCR_SS	253000
TTM_RAT_ACV	10055

