VERSION	0.00.00	1.03.00
FES_MODE	0
BPM_DEF	160.000	160.000	160.000	160.000
MET_DEF	4	4
RESOLUTION	384
CLK_DEF	384
COMPATIBLE_CODE	MA2

BPM	0	0	160.000
MET	0	0	4	4
MET	4	0	4	3
MET	4	288	4	4

TAP	4	288	0
TAP	5	96	0
TAP	5	288	1
TAP	6	96	1
TAP	6	288	2
TAP	7	96	2
HLD	7	288	3	192
TAP	8	288	4
TAP	9	96	4
TAP	9	288	5
TAP	10	96	5
TAP	10	288	6
TAP	11	96	6
HLD	11	288	7	192
TAP	12	288	0
TAP	13	96	0
TAP	13	288	0
TAP	14	0	0
TAP	14	96	0
TAP	14	288	7
TAP	15	0	7
TAP	15	96	7
TAP	15	288	0
TAP	16	0	7
TAP	16	96	0
TAP	16	288	7
TAP	17	96	7
TAP	17	288	7
TAP	18	0	7
TAP	18	96	7
TAP	18	288	0
TAP	19	0	0
TAP	19	96	0
TAP	19	288	7
TAP	20	0	0
TAP	20	96	7
STR	20	288	0
SI_	20	288	0	96	288	4
STR	22	288	7
SI_	22	288	7	96	288	3
TAP	24	288	2
TAP	25	96	2
TAP	25	288	3
TAP	26	0	3
TAP	26	96	3
TAP	26	288	4
TAP	27	0	4
TAP	27	96	4
TAP	27	288	3
TAP	28	0	4
TAP	28	96	3
TAP	28	288	5
TAP	29	96	5
TAP	29	288	4
TAP	30	0	4
TAP	30	96	4
TAP	30	288	3
TAP	31	0	3
TAP	31	96	3
TAP	31	288	4
TAP	32	0	3
TAP	32	96	4
STR	32	288	3
SI_	32	288	3	96	288	0
HLD	34	288	7	192
HLD	35	288	6	192
HLD	36	288	5	192
TAP	37	288	4
TAP	38	0	4
TAP	38	96	3
TAP	38	96	4
TAP	38	288	3
TAP	39	96	3
TAP	39	288	2
TAP	40	96	2
TAP	40	288	0
TAP	40	288	1
TAP	41	96	6
TAP	41	96	7
TAP	41	288	0
TAP	42	0	0
BRK	42	96	0
TAP	42	288	1
TAP	43	0	1
TAP	43	96	1
TAP	43	288	2
TAP	44	0	2
TAP	44	96	2
TAP	44	288	3
TAP	45	0	3
TAP	45	96	3
TAP	45	288	4
TAP	46	0	3
TAP	46	96	4
HLD	46	288	5	192
HLD	47	288	5	192
TAP	48	288	6
TAP	49	0	6
TAP	49	96	6
TAP	49	288	7
TAP	50	0	0
BRK	50	96	7
TAP	50	288	7
TAP	51	0	7
TAP	51	96	7
TAP	51	288	6
TAP	52	0	6
TAP	52	96	6
TAP	52	288	5
TAP	53	0	5
TAP	53	96	5
TAP	53	288	4
TAP	54	0	3
TAP	54	96	4
TAP	54	288	3
TAP	55	0	3
TAP	55	96	3
TAP	55	288	2
TAP	56	0	2
TAP	56	96	2
STR	56	288	1
SI_	56	288	1	96	288	4
TAP	58	288	5
TAP	59	96	5
TAP	59	288	6
TAP	60	96	6
TAP	60	288	7
TAP	61	96	7
HLD	61	288	0	192
TAP	62	288	1
TAP	63	96	1
TAP	63	288	2
TAP	64	96	2
TAP	64	288	3
TAP	65	96	3
TAP	65	288	3
TAP	65	288	4
HLD	66	288	4	384
HLD	68	288	3	384
HLD	70	288	4	384
TAP	72	288	3
TAP	73	288	3
TAP	73	288	4
TAP	74	0	3
TAP	74	0	4
BRK	74	96	3
BRK	74	96	4
TAP	74	288	2
TAP	75	0	2
TAP	75	96	2
TAP	75	288	1
TAP	76	0	1
TAP	76	96	1
TAP	76	288	0
TAP	77	0	0
TAP	77	96	7
TAP	77	192	7
TAP	77	288	0
TAP	78	0	7
TAP	78	96	0
TAP	78	288	7
TAP	79	96	7
TAP	79	288	6
TAP	80	96	6
HLD	80	288	5	192
TAP	81	288	4
TAP	82	0	3
BRK	82	96	4
TAP	82	288	5
TAP	83	0	5
TAP	83	96	5
TAP	83	288	6
TAP	84	0	6
TAP	84	96	6
TAP	84	288	7
TAP	85	0	7
TAP	85	96	0
TAP	85	192	0
TAP	85	288	7
TAP	86	0	0
TAP	86	96	7
TAP	86	288	0
TAP	87	96	0
TAP	87	288	1
TAP	88	96	1
STR	88	288	1
SI_	88	288	1	96	288	4
STR	90	288	6
SI_	90	288	6	96	288	3
STR	92	288	0
SI_	92	288	0	96	288	4
STR	94	288	7
SI_	94	288	7	96	288	3

T_REC_TAP	160
T_REC_BRK	5
T_REC_XTP	0
T_REC_HLD	12
T_REC_XHO	0
T_REC_STR	8
T_REC_BST	0
T_REC_XST	0
T_REC_TTP	0
T_REC_THO	0
T_REC_SLD	8
T_REC_ALL	193
T_NUM_TAP	168
T_NUM_BRK	5
T_NUM_HLD	12
T_NUM_SLD	8
T_NUM_ALL	193
T_JUDGE_TAP	173
T_JUDGE_HLD	60
T_JUDGE_SLD	8
T_JUDGE_ALL	241
TTM_EACHPAIRS	7
TTM_SCR_TAP	84000
TTM_SCR_BRK	13000
TTM_SCR_HLD	12000
TTM_SCR_SLD	12000
TTM_SCR_ALL	121000
TTM_SCR_S	116900
TTM_SCR_SS	120500
TTM_RAT_ACV	10041

