VERSION	0.00.00	1.03.00
FES_MODE	0
BPM_DEF	185.000	185.000	185.000	185.000
MET_DEF	4	4
RESOLUTION	384
CLK_DEF	384
COMPATIBLE_CODE	MA2

BPM	0	0	185.000

TAP	1	288	2
TAP	1	288	4
STR	2	0	5
SI_	2	0	5	96	48	2
STR	2	96	1
SI_	2	96	1	96	48	4
STR	2	192	5
SI_	2	192	5	96	48	0
STR	2	288	2
SI_	2	288	2	96	48	5
STR	3	0	7
SI_	3	0	7	96	48	4
TAP	3	96	3
TAP	3	144	3
TAP	3	192	2
TAP	3	192	4
TAP	3	288	3
TAP	3	288	5
STR	4	0	2
SI_	4	0	2	96	48	5
STR	4	96	6
SI_	4	96	6	96	48	3
STR	4	192	2
SI_	4	192	2	96	48	7
STR	4	288	5
SI_	4	288	5	96	48	2
STR	5	0	0
SI_	5	0	0	96	48	3
STR	5	96	4
SCR	5	96	4	96	96	3
TAP	5	192	3
STR	6	0	2
SI_	6	0	2	96	48	5
STR	6	96	6
SI_	6	96	6	96	48	3
STR	6	192	2
SI_	6	192	2	96	48	7
STR	6	288	5
SI_	6	288	5	96	48	2
STR	7	0	0
SI_	7	0	0	96	48	3
TAP	7	96	4
TAP	7	144	4
TAP	7	192	3
TAP	7	192	5
TAP	7	288	2
TAP	7	288	4
STR	8	0	5
SI_	8	0	5	96	48	2
STR	8	96	1
SI_	8	96	1	96	48	4
STR	8	192	5
SI_	8	192	5	96	48	0
STR	8	288	2
SI_	8	288	2	96	48	5
TAP	9	0	7
TAP	9	48	7
TAP	9	96	0
TAP	9	144	0
TAP	9	192	1
TAP	9	192	6
TAP	10	0	4
TAP	10	96	5
STR	10	144	5
SI_	10	144	5	96	48	7
STR	10	240	0
SI_	10	240	0	96	48	4
TAP	10	336	5
TAP	11	0	5
TAP	11	96	4
TAP	11	96	6
TAP	11	192	3
TAP	11	240	3
TAP	11	288	2
TAP	11	288	4
TAP	12	0	6
TAP	12	96	7
STR	12	144	7
SI_	12	144	7	96	48	3
STR	12	240	2
SI_	12	240	2	96	48	0
STR	12	336	5
SI_	12	336	5	96	48	2
STR	13	48	1
SCR	13	48	1	96	144	6
TAP	13	144	6
TAP	13	240	7
TAP	13	288	7
TAP	14	0	3
TAP	14	96	2
STR	14	144	2
SI_	14	144	2	96	48	0
STR	14	240	7
SI_	14	240	7	96	48	3
TAP	14	336	2
TAP	15	0	2
TAP	15	96	1
TAP	15	96	3
TAP	15	192	4
TAP	15	240	4
TAP	15	288	3
TAP	15	288	5
TAP	16	0	2
TAP	16	0	4
STR	16	96	3
SI_	16	96	3	96	48	0
TAP	16	144	4
TAP	16	192	5
TAP	16	288	4
STR	16	336	4
SI_	16	336	4	96	48	7
STR	17	48	0
SI_	17	48	0	96	48	4
TAP	17	144	7
TAP	17	192	7
TAP	17	288	2
TAP	17	288	6
STR	18	0	7
SCL	18	0	7	96	48	4
TAP	18	96	2
STR	18	144	2
SI_	18	144	2	96	48	7
STR	18	240	6
SI_	18	240	6	96	48	3
TAP	18	336	2
TAP	19	0	2
STR	19	96	0
SI_	19	96	0	96	48	3
TAP	19	96	3
TAP	19	192	4
TAP	19	240	4
TAP	19	288	3
TAP	19	288	5
TAP	20	0	0
TAP	20	0	7
TAP	20	48	6
TAP	20	96	1
STR	20	144	1
SI_	20	144	1	96	48	4
STR	20	240	5
SI_	20	240	5	96	48	0
STR	20	336	2
SI_	20	336	2	96	48	5
STR	21	48	6
SCL	21	48	6	96	144	1
TAP	21	144	1
TAP	21	240	0
TAP	21	288	0
STR	22	0	3
SCL	22	0	3	96	48	0
TAP	22	96	5
STR	22	144	5
SI_	22	144	5	96	48	0
STR	22	240	1
SI_	22	240	1	96	48	4
STR	22	336	7
SCL	22	336	7	96	48	4
TAP	23	48	0
TAP	23	96	0
TAP	23	192	3
TAP	23	192	4
TAP	23	288	2
TAP	24	0	3
TAP	24	0	5
STR	24	96	4
SI_	24	96	4	96	48	0
TAP	24	144	3
TAP	24	192	2
TAP	24	288	3
STR	24	336	3
SI_	24	336	3	96	48	7
STR	25	48	6
SI_	25	48	6	96	48	2
TAP	25	144	0
TAP	25	192	0
TAP	25	288	2
TAP	25	288	6
TAP	26	0	2
TAP	26	0	3
TAP	26	48	2
HLD	26	48	3	528
STR	26	192	2
SLR	26	192	2	96	192	1
TAP	27	192	2
TAP	28	0	4
TAP	28	0	5
HLD	28	48	4	528
TAP	28	48	5
STR	28	192	5
SLL	28	192	5	96	192	6
TAP	29	192	5
STR	30	0	2
SCL	30	0	2	96	96	7
STR	30	0	3
SCR	30	0	3	96	96	6
TAP	30	288	3
TAP	30	288	6
TAP	30	336	3
TAP	30	336	6
TAP	31	48	3
TAP	31	48	4
TAP	31	96	3
TAP	31	96	4
TAP	31	192	1
TAP	31	192	6
TAP	31	288	1
TAP	31	288	6
TAP	32	0	0
TAP	32	0	7
TAP	32	48	0
TAP	32	48	7
TAP	32	96	1
TAP	32	96	6
TAP	32	144	1
TAP	32	144	6
TAP	32	192	2
TAP	32	192	5
TAP	32	240	2
TAP	32	240	5
TAP	32	288	3
TAP	32	288	4
TAP	32	336	3
TAP	32	336	4
BRK	33	288	2
BRK	33	288	5
TAP	34	0	2
TAP	34	0	5
STR	34	48	3
SCL	34	48	3	96	96	6
TAP	34	96	4
TAP	34	144	5
TAP	34	288	7
TAP	35	0	1
STR	35	0	6
SI_	35	0	6	96	48	2
STR	35	96	3
SI_	35	96	3	96	48	0
TAP	35	96	6
TAP	35	192	3
STR	35	192	7
SI_	35	192	7	96	48	4
TAP	35	288	0
TAP	35	288	7
TAP	36	0	5
STR	36	48	4
SCR	36	48	4	96	96	1
TAP	36	96	3
TAP	36	144	2
TAP	36	288	0
STR	37	0	0
SCR	37	0	0	96	96	4
STR	37	96	4
SCR	37	96	4	96	96	0
STR	37	192	0
SCR	37	192	0	96	96	4
TAP	37	288	5
STR	38	0	6
SI_	38	0	6	96	48	2
STR	38	96	0
SI_	38	96	0	96	48	3
SI_	38	96	0	96	48	5
TAP	38	96	6
TAP	38	192	0
TAP	38	288	7
TAP	38	336	0
TAP	38	336	6
TAP	39	48	1
TAP	39	48	4
TAP	39	96	5
TAP	39	144	3
TAP	39	144	6
TAP	39	192	2
TAP	39	240	1
TAP	39	240	4
TAP	39	288	5
TAP	39	336	3
TAP	39	336	6
STR	40	0	2
SI_	40	0	2	96	48	7
TAP	40	96	2
TAP	40	96	4
STR	40	192	5
SI_	40	192	5	96	48	0
TAP	40	288	3
TAP	40	288	5
TAP	41	0	2
TAP	41	48	2
TAP	41	96	1
TAP	41	96	6
STR	41	192	0
SI_	41	192	0	96	48	3
STR	41	192	4
SI_	41	192	4	96	48	7
TAP	41	288	0
TAP	41	288	4
TAP	42	0	2
STR	42	48	3
SCL	42	48	3	96	96	6
TAP	42	96	4
TAP	42	144	5
TAP	42	288	7
STR	43	0	1
SI_	43	0	1	96	48	5
TAP	43	0	6
TAP	43	96	1
STR	43	96	4
SI_	43	96	4	96	48	7
STR	43	192	0
SI_	43	192	0	96	48	3
TAP	43	192	4
TAP	43	288	0
TAP	43	288	7
TAP	43	336	7
STR	44	0	6
SI_	44	0	6	96	48	3
TAP	44	96	2
STR	44	144	1
SI_	44	144	1	96	48	4
TAP	44	240	7
TAP	44	288	7
STR	45	0	6
SI_	45	0	6	96	48	2
TAP	45	48	6
STR	45	96	7
SI_	45	96	7	96	48	3
TAP	45	144	7
STR	45	192	0
SI_	45	192	0	96	48	4
TAP	45	240	0
TAP	45	288	1
TAP	45	336	1
TAP	46	0	1
TAP	46	0	4
TAP	46	48	0
TAP	46	96	7
TAP	46	144	3
TAP	46	144	6
TAP	46	192	7
TAP	46	240	0
TAP	46	288	1
TAP	46	288	4
TAP	46	336	0
TAP	47	0	7
TAP	47	48	3
TAP	47	48	6
TAP	47	96	7
TAP	47	144	0
BRK	47	192	1
BRK	47	192	6
BRK	47	240	2
BRK	47	240	5
TAP	48	0	3
TAP	48	0	6
STR	48	48	5
SUR	48	48	5	96	96	1
TAP	48	72	4
STR	48	144	1
SLR	48	144	1	96	96	7
TAP	49	0	1
TAP	49	0	4
STR	49	48	2
SUL	49	48	2	96	96	6
TAP	49	72	3
STR	49	144	6
SLL	49	144	6	96	96	0
TAP	50	0	0
TAP	50	0	7
TAP	50	48	0
TAP	50	48	7
TAP	50	96	1
TAP	50	96	3
TAP	50	168	4
TAP	50	168	6
TAP	50	240	2
TAP	50	240	5
TAP	50	288	3
TAP	50	288	4
TAP	51	0	4
TAP	51	0	6
TAP	51	72	1
TAP	51	72	3
TAP	51	144	0
TAP	51	144	7
TAP	51	192	2
TAP	51	192	5
TAP	51	240	3
TAP	51	264	4
TAP	51	288	3
TAP	51	312	4
TAP	51	336	3
STR	52	0	2
SI_	52	0	2	96	48	5
TAP	52	48	2
TAP	52	96	7
STR	52	144	6
SI_	52	144	6	96	48	1
TAP	52	192	6
TAP	52	240	3
STR	52	288	2
SI_	52	288	2	96	48	5
TAP	52	336	2
TAP	53	0	6
TAP	53	48	6
STR	53	96	7
SCL	53	96	7	96	48	4
TAP	53	144	7
STR	53	192	3
SCL	53	192	3	96	48	0
TAP	53	240	3
TAP	54	0	0
TAP	54	24	7
TAP	54	48	0
HLD	54	96	2	48
HLD	54	96	6	48
HLD	54	192	1	48
HLD	54	192	5	48
TAP	54	288	2
TAP	54	312	3
TAP	54	336	2
TAP	55	0	1
TAP	55	0	4
TAP	55	48	1
TAP	55	48	4
TAP	55	96	5
TAP	55	120	4
TAP	55	144	5
TAP	55	192	3
TAP	55	192	6
TAP	55	240	3
TAP	55	240	6
BRK	55	288	7
STR	56	0	1
SXL	56	0	1	96	192	4
TAP	56	0	5
TAP	56	96	4
TAP	56	192	7
TAP	56	240	7
TAP	56	288	7
TAP	57	0	2
STR	57	0	6
SXR	57	0	6	96	192	3
TAP	57	96	3
TAP	57	192	0
TAP	57	240	0
TAP	57	288	0
TAP	58	0	1
TAP	58	0	4
TAP	58	48	2
TAP	58	72	3
TAP	58	96	2
TAP	58	144	3
TAP	58	144	6
TAP	58	192	5
TAP	58	216	4
TAP	58	240	5
STR	58	288	1
SI_	58	288	1	96	48	5
TAP	58	288	4
TAP	59	0	1
STR	59	0	6
SI_	59	0	6	96	48	2
STR	59	96	0
SI_	59	96	0	96	48	3
TAP	59	96	6
TAP	59	192	0
STR	59	192	4
SI_	59	192	4	96	48	7
TAP	59	288	0
TAP	59	288	4
TAP	60	0	3
TAP	60	0	6
TAP	60	48	5
TAP	60	96	1
TAP	60	96	4
TAP	60	144	2
TAP	60	192	3
TAP	60	192	6
TAP	60	240	5
TAP	60	288	1
TAP	60	288	4
TAP	60	336	2
TAP	61	0	3
TAP	61	0	7
TAP	61	48	5
TAP	61	96	0
TAP	61	96	4
TAP	61	144	2
TAP	61	192	3
TAP	61	192	7
TAP	61	240	5
TAP	61	288	0
TAP	61	288	4
TAP	61	336	2
TAP	62	0	3
TAP	62	0	4
TAP	62	48	3
TAP	62	48	4
TAP	62	96	2
TAP	62	96	5
TAP	62	144	2
TAP	62	144	5
TAP	62	192	1
TAP	62	192	6
TAP	62	240	1
TAP	62	240	6
TAP	62	288	0
TAP	62	288	7
TAP	62	336	0
TAP	62	336	7
TAP	63	0	1
TAP	63	0	6
TAP	63	48	2
TAP	63	72	5
TAP	63	96	2
TAP	63	120	5
TAP	63	144	2
TAP	63	168	5
TAP	63	192	3
TAP	63	216	4
TAP	63	240	3
TAP	63	288	2
TAP	63	288	5
TAP	64	0	2
TAP	64	0	3
HLD	64	48	1	240
HLD	64	48	4	240
TAP	64	336	1
TAP	64	336	4
HLD	65	48	3	240
HLD	65	48	6	240
TAP	66	0	0
TAP	66	0	7
HLD	66	48	1	240
HLD	66	48	6	240
STR	66	336	1
SCL	66	336	1	96	48	6
STR	67	48	5
SCL	67	48	5	96	48	2
HLD	67	144	0	144
STR	67	288	7
SCL	67	288	7	96	288	0
TAP	69	0	4
TAP	69	48	4
TAP	69	96	2
TAP	69	96	5
TAP	69	144	2
TAP	69	144	5
TAP	69	192	1
TAP	69	240	1
TAP	69	288	0
TAP	69	288	7
TAP	69	336	0
TAP	69	336	7
TAP	70	0	1
TAP	70	0	6
TAP	70	48	5
TAP	70	96	4
TAP	70	144	3
TAP	70	192	2
TAP	70	192	5
TAP	70	240	2
TAP	70	240	5
TAP	70	288	3
TAP	70	288	4
HLD	70	336	3	336
HLD	70	336	4	336
TAP	71	336	4
TAP	71	360	3
TAP	72	0	2
TAP	72	0	5
HLD	72	48	2	240
HLD	72	48	5	240
STR	73	0	6
SI_	73	0	6	96	48	3
TAP	73	48	6
TAP	73	96	7
TAP	73	144	0
STR	73	192	1
SI_	73	192	1	96	48	4
TAP	73	240	1
TAP	73	288	0
TAP	73	336	7
STR	74	0	1
SI_	74	0	1	96	48	5
TAP	74	0	6
TAP	74	96	1
STR	74	96	4
SI_	74	96	4	96	48	7
STR	74	192	0
SI_	74	192	0	96	48	3
TAP	74	192	4
TAP	74	288	0
TAP	74	288	7
STR	75	0	6
SI_	75	0	6	96	48	3
TAP	75	48	6
TAP	75	96	7
TAP	75	144	0
STR	75	192	1
SI_	75	192	1	96	48	4
TAP	75	240	1
TAP	75	288	0
TAP	75	336	7
HLD	76	0	7	96
TAP	76	96	5
TAP	76	192	4
TAP	76	192	6
TAP	76	264	3
TAP	76	264	5
TAP	76	336	2
TAP	76	336	4
STR	77	0	1
SI_	77	0	1	96	48	5
TAP	77	96	1
STR	77	96	7
SI_	77	96	7	96	48	2
SI_	77	96	7	96	48	4
TAP	77	192	7
TAP	77	288	0
TAP	77	336	1
TAP	77	336	7
TAP	78	48	0
TAP	78	48	6
STR	78	96	0
SI_	78	96	0	96	48	4
STR	78	96	6
SI_	78	96	6	96	48	2
TAP	78	192	0
TAP	78	192	6
TAP	78	288	0
TAP	78	288	6
TAP	79	0	3
STR	79	0	5
SI_	79	0	5	96	48	0
TAP	79	48	3
TAP	79	96	3
TAP	79	96	5
STR	79	192	2
SI_	79	192	2	96	48	7
TAP	79	192	4
TAP	79	240	4
TAP	79	288	2
TAP	79	288	4
TAP	80	0	5
TAP	80	48	5
BRK	80	96	1
BRK	80	96	6
TAP	80	144	0
TAP	80	144	7
TAP	80	192	0
TAP	80	192	7
TAP	80	240	0
TAP	80	264	7
TAP	80	288	0
TAP	80	312	7
TAP	80	336	0
TAP	80	360	7
STR	81	0	1
SI_	81	0	1	96	48	4
TAP	81	48	1
TAP	81	96	0
TAP	81	144	7
STR	81	192	6
SI_	81	192	6	96	48	3
TAP	81	240	6
TAP	81	288	7
TAP	81	336	0
TAP	82	0	1
STR	82	0	6
SI_	82	0	6	96	48	2
STR	82	96	3
SI_	82	96	3	96	48	0
TAP	82	96	6
TAP	82	192	3
STR	82	192	7
SI_	82	192	7	96	48	4
TAP	82	288	0
TAP	82	288	7
TAP	82	336	0
STR	83	0	1
SI_	83	0	1	96	48	4
TAP	83	48	1
TAP	83	96	0
TAP	83	144	7
STR	83	192	6
SI_	83	192	6	96	48	3
TAP	83	240	6
TAP	83	288	7
TAP	83	336	0
STR	84	0	1
SI_	84	0	1	96	48	5
TAP	84	48	1
STR	84	96	0
SI_	84	96	0	96	48	4
TAP	84	144	0
STR	84	192	7
SI_	84	192	7	96	48	3
TAP	84	240	7
TAP	84	288	6
TAP	84	336	6
TAP	85	0	3
TAP	85	0	6
STR	85	48	7
SI_	85	48	7	96	48	3
TAP	85	144	1
STR	85	192	0
SI_	85	192	0	96	48	4
TAP	85	288	6
TAP	85	336	7
TAP	86	0	1
TAP	86	0	6
TAP	86	48	3
TAP	86	72	4
TAP	86	96	3
TAP	86	120	4
TAP	86	144	3
TAP	86	168	4
TAP	86	192	3
TAP	86	216	4
TAP	86	240	3
TAP	86	264	4
TAP	86	288	2
TAP	86	288	5
STR	87	0	2
SI_	87	0	2	96	48	7
TAP	87	0	5
TAP	87	48	5
TAP	87	96	5
TAP	87	144	5
TAP	87	192	5
STR	87	192	7
SI_	87	192	7	96	48	4
TAP	87	240	5
TAP	87	288	5
TAP	87	336	5
STR	88	0	4
SI_	88	0	4	96	48	0
TAP	88	0	5
TAP	88	48	5
TAP	88	96	5
TAP	88	144	5
STR	88	192	0
SI_	88	192	0	96	48	3
TAP	88	192	5
TAP	88	240	5
TAP	88	288	5
TAP	88	336	5
STR	89	0	3
SI_	89	0	3	96	48	7
TAP	89	0	5
TAP	89	48	5
TAP	89	96	5
TAP	89	144	5
TAP	89	192	5
STR	89	192	7
SI_	89	192	7	96	48	3
TAP	89	240	5
TAP	89	288	5
TAP	89	336	5
STR	90	0	3
SCL	90	0	3	96	96	7
TAP	90	0	5
STR	90	96	7
SCL	90	96	7	96	96	3
STR	90	192	3
SCL	90	192	3	96	96	7
TAP	90	288	7
STR	91	0	5
SI_	91	0	5	96	48	3
TAP	91	96	2
TAP	91	96	5
STR	91	192	2
SI_	91	192	2	96	48	4
TAP	91	288	2
TAP	91	288	5
STR	92	0	5
SCL	92	0	5	96	96	2
STR	92	96	2
SUR	92	96	2	96	96	6
STR	92	192	6
SUL	92	192	6	96	96	1
TAP	92	288	1
STR	93	0	0
SI_	93	0	0	96	48	4
TAP	93	96	6
TAP	93	144	6
STR	93	192	7
SI_	93	192	7	96	48	3
TAP	93	288	1
TAP	93	336	1
TAP	94	0	2
TAP	94	0	5
STR	94	96	3
SI_	94	96	3	96	48	0
TAP	94	192	3
STR	94	192	4
SI_	94	192	4	96	48	7
TAP	94	288	0
TAP	94	288	4
TAP	95	0	2
STR	95	0	5
SI_	95	0	5	96	48	0
TAP	95	48	2
TAP	95	96	2
TAP	95	144	2
STR	95	192	0
SI_	95	192	0	96	48	3
TAP	95	192	2
TAP	95	240	2
TAP	95	288	2
TAP	95	336	2
TAP	96	0	2
STR	96	0	3
SI_	96	0	3	96	48	7
TAP	96	48	2
TAP	96	96	2
TAP	96	144	2
TAP	96	192	2
STR	96	192	7
SI_	96	192	7	96	48	4
TAP	96	240	2
TAP	96	288	2
TAP	96	336	2
TAP	97	0	2
STR	97	0	4
SI_	97	0	4	96	48	0
TAP	97	48	2
TAP	97	96	2
TAP	97	144	2
STR	97	192	0
SI_	97	192	0	96	48	4
TAP	97	192	2
TAP	97	240	2
TAP	97	288	2
TAP	97	336	2
TAP	98	0	2
TAP	98	0	4
TAP	98	48	5
STR	98	96	1
SI_	98	96	1	96	48	4
STR	98	96	6
SI_	98	96	6	96	48	3
TAP	98	192	1
TAP	98	192	6
TAP	98	288	1
TAP	98	288	6
TAP	99	0	2
TAP	99	0	7
TAP	99	48	3
TAP	99	96	4
TAP	99	144	0
TAP	99	144	5
TAP	99	192	4
TAP	99	240	3
TAP	99	288	2
TAP	99	288	7
TAP	99	336	3
TAP	100	0	4
TAP	100	48	0
TAP	100	48	5
TAP	100	96	4
TAP	100	144	3
STR	100	192	2
SI_	100	192	2	96	48	4
TAP	100	192	5
TAP	100	240	2
TAP	100	240	5
TAP	101	0	0
TAP	101	0	5
TAP	101	48	4
TAP	101	96	3
TAP	101	144	2
TAP	101	144	7
TAP	101	192	3
TAP	101	240	4
TAP	101	288	0
TAP	101	288	5
TAP	101	336	4
TAP	102	0	3
TAP	102	48	2
TAP	102	48	7
TAP	102	96	3
TAP	102	144	4
BRK	102	192	3
BRK	102	192	4
BRK	102	240	3
BRK	102	240	4
STR	103	0	2
SI_	103	0	2	96	48	5
TAP	103	48	2
STR	103	96	6
SI_	103	96	6	96	48	3
TAP	103	144	6
STR	103	192	2
SI_	103	192	2	96	48	7
TAP	103	240	2
STR	103	288	5
SI_	103	288	5	96	48	2
TAP	103	336	5
STR	104	0	0
SI_	104	0	0	96	48	3
TAP	104	48	0
TAP	104	96	4
TAP	104	144	5
STR	104	192	3
SCL	104	192	3	96	48	0
TAP	104	192	6
TAP	104	288	4
STR	105	0	5
SI_	105	0	5	96	48	2
TAP	105	48	5
STR	105	96	1
SI_	105	96	1	96	48	4
TAP	105	144	1
STR	105	192	5
SI_	105	192	5	96	48	0
TAP	105	240	5
STR	105	288	2
SI_	105	288	2	96	48	5
TAP	105	336	2
STR	106	0	7
SI_	106	0	7	96	48	4
TAP	106	48	7
STR	106	96	3
SCL	106	96	3	96	96	4
TAP	106	144	3
TAP	106	192	4
STR	107	0	5
SI_	107	0	5	96	48	2
TAP	107	48	5
STR	107	96	1
SI_	107	96	1	96	48	4
TAP	107	144	1
STR	107	192	5
SI_	107	192	5	96	48	0
TAP	107	240	5
STR	107	288	2
SI_	107	288	2	96	48	5
TAP	107	336	2
STR	108	0	7
SI_	108	0	7	96	48	4
TAP	108	48	7
TAP	108	96	3
TAP	108	144	2
TAP	108	192	1
STR	108	192	4
SCR	108	192	4	96	48	7
TAP	108	288	3
STR	109	0	2
SI_	109	0	2	96	48	5
TAP	109	48	2
STR	109	96	6
SI_	109	96	6	96	48	3
TAP	109	144	6
STR	109	192	2
SI_	109	192	2	96	48	7
TAP	109	240	2
TAP	109	288	5
TAP	110	0	0
TAP	110	0	7
TAP	110	48	0
TAP	110	48	7
TAP	110	96	1
TAP	110	96	6
TAP	110	144	2
TAP	110	144	5
BRK	110	192	3
BRK	110	192	4

T_REC_TAP	605
T_REC_BRK	15
T_REC_XTP	0
T_REC_HLD	18
T_REC_XHO	0
T_REC_STR	164
T_REC_BST	0
T_REC_XST	0
T_REC_TTP	0
T_REC_THO	0
T_REC_SLD	166
T_REC_ALL	968
T_NUM_TAP	769
T_NUM_BRK	15
T_NUM_HLD	18
T_NUM_SLD	166
T_NUM_ALL	968
T_JUDGE_TAP	784
T_JUDGE_HLD	85
T_JUDGE_SLD	166
T_JUDGE_ALL	1035
TTM_EACHPAIRS	194
TTM_SCR_TAP	384500
TTM_SCR_BRK	39000
TTM_SCR_HLD	18000
TTM_SCR_SLD	249000
TTM_SCR_ALL	690500
TTM_SCR_S	668350
TTM_SCR_SS	689000
TTM_RAT_ACV	10021

