VERSION	0.00.00	1.03.00
FES_MODE	0
BPM_DEF	185.000	185.000	185.000	185.000
MET_DEF	4	4
RESOLUTION	384
CLK_DEF	384
COMPATIBLE_CODE	MA2

BPM	0	0	185.000

TAP	1	288	3
TAP	1	288	4
HLD	2	0	1	96
HLD	2	96	2	96
TAP	2	192	3
TAP	2	288	3
TAP	2	288	4
TAP	3	0	5
TAP	3	48	4
TAP	3	96	5
TAP	3	192	4
TAP	3	192	5
TAP	3	288	3
TAP	3	288	6
TAP	4	0	5
TAP	4	96	4
TAP	4	96	6
TAP	4	192	2
TAP	4	288	1
TAP	4	288	3
TAP	5	0	2
TAP	5	48	3
TAP	5	96	2
TAP	5	192	0
TAP	5	192	7
HLD	6	0	6	96
HLD	6	96	5	96
TAP	6	192	4
TAP	6	288	3
TAP	6	288	4
TAP	7	0	2
TAP	7	48	3
TAP	7	96	2
TAP	7	192	2
TAP	7	192	3
TAP	7	288	1
TAP	7	288	4
TAP	8	0	2
TAP	8	96	1
TAP	8	96	3
TAP	8	192	5
TAP	8	288	4
TAP	8	288	6
TAP	9	0	5
TAP	9	48	4
TAP	9	96	5
BRK	9	192	1
BRK	9	192	6
TAP	10	0	5
TAP	10	96	4
TAP	10	96	5
TAP	10	192	5
TAP	10	288	4
TAP	10	288	5
TAP	11	0	5
TAP	11	96	4
TAP	11	96	6
TAP	11	192	5
TAP	11	240	4
TAP	11	288	3
TAP	11	288	5
TAP	12	0	5
TAP	12	96	4
TAP	12	96	5
TAP	12	192	5
TAP	12	288	4
TAP	12	288	5
TAP	13	0	5
TAP	13	96	4
TAP	13	192	3
TAP	13	288	2
TAP	14	0	2
TAP	14	96	2
TAP	14	96	3
TAP	14	192	2
TAP	14	288	2
TAP	14	288	3
TAP	15	0	2
TAP	15	96	1
TAP	15	96	3
TAP	15	192	2
TAP	15	240	3
TAP	15	288	2
TAP	15	288	4
TAP	16	0	2
TAP	16	96	2
TAP	16	96	3
TAP	16	192	2
TAP	16	288	2
TAP	16	288	3
TAP	17	0	3
TAP	17	0	4
TAP	17	144	2
TAP	17	144	5
HLD	17	192	2	96
HLD	17	192	5	96
TAP	18	0	5
TAP	18	96	4
TAP	18	96	5
TAP	18	192	5
TAP	18	288	4
TAP	18	288	5
TAP	19	0	5
TAP	19	96	5
TAP	19	96	6
TAP	19	192	5
TAP	19	240	4
TAP	19	288	3
TAP	19	288	5
TAP	20	0	5
TAP	20	96	4
TAP	20	96	5
TAP	20	192	5
TAP	20	288	4
TAP	20	288	5
TAP	21	0	5
STR	21	96	5
SCL	21	96	5	96	96	3
TAP	21	96	6
TAP	22	0	2
TAP	22	96	2
TAP	22	96	3
TAP	22	192	2
TAP	22	288	2
TAP	22	288	3
TAP	23	0	2
TAP	23	96	1
TAP	23	96	2
TAP	23	192	2
TAP	23	240	3
TAP	23	288	2
TAP	23	288	4
TAP	24	0	2
TAP	24	96	2
TAP	24	96	3
TAP	24	192	2
TAP	24	288	2
TAP	24	288	3
TAP	25	0	4
TAP	25	0	5
TAP	25	96	2
TAP	25	96	3
TAP	25	192	3
TAP	25	192	4
HLD	26	0	2	144
TAP	26	0	5
TAP	26	144	3
TAP	26	192	3
TAP	26	288	4
TAP	26	336	4
TAP	27	48	4
HLD	27	48	5	144
TAP	27	192	4
TAP	27	288	3
TAP	28	0	2
HLD	28	0	5	144
TAP	28	144	4
TAP	28	192	4
TAP	28	288	3
TAP	28	336	3
TAP	29	48	2
TAP	29	48	3
HLD	29	144	2	144
TAP	29	144	3
TAP	30	0	2
TAP	30	0	5
TAP	30	96	4
TAP	30	192	3
TAP	30	288	2
HLD	30	336	2	144
TAP	31	96	1
TAP	31	192	0
STR	31	288	3
SXR	31	288	3	96	384	0
STR	31	288	7
SXR	31	288	7	96	384	4
BRK	33	96	1
BRK	33	192	2
BRK	33	288	3
TAP	34	0	4
TAP	34	0	5
TAP	34	96	6
TAP	34	96	7
TAP	34	144	6
STR	34	144	7
SCR	34	144	7	96	144	4
TAP	35	96	0
TAP	35	96	1
TAP	35	192	6
TAP	35	192	7
TAP	35	288	4
TAP	35	288	5
TAP	36	0	2
TAP	36	0	3
TAP	36	96	0
TAP	36	96	1
STR	36	144	0
SCL	36	144	0	96	144	3
TAP	36	144	1
TAP	37	96	1
TAP	37	96	4
TAP	37	192	3
TAP	37	240	3
TAP	37	288	4
TAP	37	336	4
STR	38	0	1
SI_	38	0	1	96	48	4
TAP	38	96	5
STR	38	192	6
SI_	38	192	6	96	48	3
TAP	38	288	2
STR	39	0	1
SCR	39	0	1	96	48	4
TAP	39	96	5
STR	39	192	6
SCL	39	192	6	96	48	3
TAP	39	288	1
TAP	40	0	2
TAP	40	96	3
TAP	40	192	4
TAP	40	288	5
TAP	40	336	5
TAP	41	48	4
TAP	41	48	6
TAP	41	144	2
TAP	41	192	2
TAP	41	288	1
TAP	41	288	3
TAP	42	0	4
TAP	42	0	5
TAP	42	96	2
TAP	42	96	3
STR	42	144	2
SCL	42	144	2	96	144	5
TAP	42	144	3
TAP	43	96	4
TAP	43	96	5
TAP	43	192	6
TAP	43	192	7
TAP	43	288	0
TAP	43	288	1
TAP	44	0	2
TAP	44	0	3
TAP	44	96	4
TAP	44	96	5
TAP	44	144	4
STR	44	144	5
SCR	44	144	5	96	144	2
TAP	45	192	0
TAP	45	192	7
TAP	45	288	1
TAP	45	288	6
STR	46	0	2
SI_	46	0	2	96	48	4
STR	46	144	5
SI_	46	144	5	96	48	3
STR	46	288	1
SI_	46	288	1	96	48	4
STR	47	48	6
SI_	47	48	6	96	48	3
TAP	47	192	0
BRK	47	240	0
HLD	48	0	2	144
TAP	48	144	3
TAP	48	192	1
TAP	48	192	4
HLD	49	0	5	144
TAP	49	144	4
TAP	49	192	3
TAP	49	192	6
TAP	49	288	3
TAP	49	288	4
TAP	50	0	2
TAP	50	0	5
TAP	50	96	0
TAP	50	96	1
TAP	50	168	0
TAP	50	168	1
TAP	50	240	0
TAP	50	240	1
TAP	51	0	6
TAP	51	0	7
TAP	51	72	6
TAP	51	72	7
TAP	51	144	6
TAP	51	144	7
TAP	51	288	2
TAP	51	288	5
TAP	52	0	3
TAP	52	48	3
TAP	52	144	6
TAP	52	192	6
TAP	52	288	1
TAP	52	336	1
TAP	53	48	4
TAP	53	96	4
TAP	53	192	2
TAP	53	192	3
TAP	53	288	4
TAP	53	288	5
TAP	54	0	2
TAP	54	48	2
TAP	54	96	1
TAP	54	96	3
TAP	54	192	0
TAP	54	192	7
TAP	54	288	4
TAP	54	288	5
TAP	55	0	3
TAP	55	0	6
TAP	55	48	3
TAP	55	48	6
TAP	55	192	2
TAP	55	192	5
TAP	55	288	1
TAP	55	288	6
STR	56	0	0
SCR	56	0	0	96	480	7
TAP	56	0	7
TAP	58	0	0
TAP	58	0	1
TAP	58	96	2
TAP	58	144	2
TAP	58	240	4
TAP	58	288	4
TAP	59	0	3
TAP	59	48	3
HLD	59	144	2	144
HLD	59	144	5	144
TAP	60	0	5
TAP	60	96	4
TAP	60	96	6
TAP	60	192	2
TAP	60	288	1
TAP	60	288	3
TAP	61	0	6
TAP	61	96	5
TAP	61	96	7
TAP	61	192	1
TAP	61	288	0
TAP	61	288	2
TAP	62	0	4
TAP	62	48	4
TAP	62	96	3
TAP	62	144	3
TAP	62	192	5
TAP	62	240	5
TAP	62	288	2
TAP	62	336	2
TAP	63	0	6
TAP	63	48	6
TAP	63	96	1
TAP	63	144	1
TAP	63	192	0
TAP	63	192	7
TAP	63	240	0
TAP	63	240	7
BRK	63	288	0
BRK	63	288	7
TAP	64	0	2
TAP	64	0	3
HLD	64	48	2	528
TAP	64	48	3
TAP	64	192	3
TAP	64	288	3
TAP	65	0	3
TAP	65	96	3
TAP	65	192	3
TAP	65	288	3
TAP	65	288	4
TAP	66	0	4
TAP	66	0	5
TAP	66	48	4
HLD	66	48	5	528
TAP	66	192	4
TAP	66	288	4
TAP	67	0	4
TAP	67	96	4
TAP	67	192	4
TAP	67	288	3
TAP	67	288	4
HLD	68	0	2	288
HLD	68	0	5	288
TAP	69	0	3
TAP	69	48	3
TAP	69	96	4
TAP	69	144	4
TAP	69	192	2
TAP	69	240	2
TAP	69	288	5
TAP	69	336	5
TAP	70	0	1
TAP	70	48	1
TAP	70	96	6
TAP	70	144	6
TAP	70	192	0
TAP	70	192	7
TAP	70	240	0
TAP	70	240	7
TAP	70	288	0
TAP	70	288	7
TAP	70	336	0
TAP	70	336	7
BRK	72	96	6
BRK	72	192	5
BRK	72	288	4
TAP	73	0	2
TAP	73	0	3
TAP	73	96	0
TAP	73	96	1
STR	73	144	0
SCL	73	144	0	96	144	3
HLD	73	144	1	240
TAP	74	96	6
TAP	74	96	7
TAP	74	192	0
TAP	74	192	1
TAP	74	288	2
TAP	74	288	3
TAP	75	0	4
TAP	75	0	5
TAP	75	96	6
TAP	75	96	7
HLD	75	144	6	240
STR	75	144	7
SCR	75	144	7	96	144	4
TAP	76	96	3
TAP	76	96	6
HLD	76	192	2	72
HLD	76	264	3	72
TAP	76	336	4
STR	77	0	6
SI_	77	0	6	96	48	3
TAP	77	96	1
STR	77	192	2
SI_	77	192	2	96	48	7
TAP	77	288	6
STR	78	0	5
SCR	78	0	5	96	48	0
TAP	78	96	2
STR	78	192	1
SCR	78	192	1	96	48	4
TAP	78	288	6
TAP	79	0	5
TAP	79	96	4
TAP	79	192	3
TAP	79	288	2
TAP	79	336	2
TAP	80	48	1
TAP	80	48	3
TAP	80	144	5
TAP	80	192	5
TAP	80	288	4
TAP	80	288	6
TAP	81	0	2
TAP	81	0	3
TAP	81	96	4
TAP	81	96	5
HLD	81	144	4	240
STR	81	144	5
SCR	81	144	5	96	144	2
TAP	82	96	2
TAP	82	96	3
TAP	82	192	0
TAP	82	192	1
TAP	82	288	6
TAP	82	288	7
TAP	83	0	4
TAP	83	0	5
TAP	83	96	2
TAP	83	96	3
STR	83	144	2
SCL	83	144	2	96	144	5
HLD	83	144	3	240
TAP	84	192	0
TAP	84	192	7
TAP	84	288	1
TAP	84	288	6
TAP	85	0	3
HLD	85	0	6	96
TAP	85	96	5
HLD	85	192	1	96
TAP	85	192	4
TAP	85	288	2
BRK	86	0	1
BRK	86	0	6
TAP	86	96	0
TAP	86	96	1
TAP	86	192	2
TAP	86	192	3
TAP	86	288	4
TAP	86	288	5
TAP	87	0	6
TAP	87	0	7
TAP	87	96	0
TAP	87	96	1
STR	87	144	0
SCL	87	144	0	96	144	2
HLD	87	144	1	240
TAP	88	96	6
TAP	88	96	7
TAP	88	192	4
TAP	88	192	5
TAP	88	288	2
TAP	88	288	3
TAP	89	0	0
TAP	89	0	1
TAP	89	96	6
TAP	89	96	7
HLD	89	144	6	240
STR	89	144	7
SCR	89	144	7	96	144	5
TAP	90	96	3
TAP	90	96	4
TAP	90	192	3
TAP	90	192	4
TAP	90	240	3
TAP	90	240	4
TAP	90	336	2
TAP	90	336	5
STR	91	0	2
SI_	91	0	2	96	48	7
TAP	91	0	5
TAP	91	96	6
STR	91	192	5
SI_	91	192	5	96	48	0
TAP	91	288	1
STR	92	0	2
SCL	92	0	2	96	48	7
TAP	92	96	6
STR	92	192	5
SCR	92	192	5	96	48	0
TAP	92	288	1
TAP	93	0	2
TAP	93	96	3
TAP	93	192	4
TAP	93	288	5
TAP	93	336	5
TAP	94	48	4
TAP	94	48	6
TAP	94	144	2
TAP	94	192	2
TAP	94	288	1
TAP	94	288	3
TAP	95	0	4
TAP	95	0	5
TAP	95	96	2
TAP	95	96	3
STR	95	144	2
SCL	95	144	2	96	144	4
HLD	95	144	3	240
TAP	96	96	4
TAP	96	96	5
TAP	96	192	6
TAP	96	192	7
TAP	96	288	0
TAP	96	288	1
TAP	97	0	2
TAP	97	0	3
TAP	97	96	4
TAP	97	96	5
HLD	97	144	4	240
STR	97	144	5
SCR	97	144	5	96	144	3
TAP	98	192	0
TAP	98	192	7
TAP	98	288	1
TAP	98	288	6
STR	99	0	2
SI_	99	0	2	96	48	4
TAP	99	0	5
STR	99	144	5
SI_	99	144	5	96	48	3
STR	99	288	1
SI_	99	288	1	96	48	4
STR	100	48	6
SI_	100	48	6	96	48	3
TAP	100	192	0
BRK	100	240	0
TAP	101	0	2
STR	101	0	6
SI_	101	0	6	96	48	3
STR	101	144	1
SI_	101	144	1	96	48	4
STR	101	288	7
SI_	101	288	7	96	48	3
STR	102	48	0
SI_	102	48	0	96	48	4
TAP	102	192	7
BRK	102	240	7
HLD	103	0	6	96
HLD	103	96	5	96
TAP	103	192	4
TAP	103	288	3
TAP	103	288	4
TAP	104	0	2
TAP	104	48	3
TAP	104	96	2
TAP	104	192	2
TAP	104	192	3
TAP	104	288	1
TAP	104	288	4
TAP	105	0	2
TAP	105	96	1
TAP	105	96	3
TAP	105	192	5
TAP	105	288	4
TAP	105	288	6
TAP	106	0	7
TAP	106	48	0
TAP	106	96	7
TAP	106	192	0
TAP	106	192	7
HLD	107	0	1	96
HLD	107	96	2	96
TAP	107	192	3
TAP	107	288	3
TAP	107	288	4
TAP	108	0	5
TAP	108	48	4
TAP	108	96	5
TAP	108	192	4
TAP	108	192	5
TAP	108	288	3
TAP	108	288	6
TAP	109	0	5
TAP	109	96	4
TAP	109	96	6
TAP	109	192	2
TAP	109	288	1
TAP	109	288	3
TAP	110	0	0
TAP	110	48	7
TAP	110	96	0
BRK	110	192	1
BRK	110	192	6

T_REC_TAP	504
T_REC_BRK	17
T_REC_XTP	0
T_REC_HLD	35
T_REC_XHO	0
T_REC_STR	40
T_REC_BST	0
T_REC_XST	0
T_REC_TTP	0
T_REC_THO	0
T_REC_SLD	40
T_REC_ALL	636
T_NUM_TAP	544
T_NUM_BRK	17
T_NUM_HLD	35
T_NUM_SLD	40
T_NUM_ALL	636
T_JUDGE_TAP	561
T_JUDGE_HLD	129
T_JUDGE_SLD	40
T_JUDGE_ALL	730
TTM_EACHPAIRS	185
TTM_SCR_TAP	272000
TTM_SCR_BRK	44200
TTM_SCR_HLD	35000
TTM_SCR_SLD	60000
TTM_SCR_ALL	411200
TTM_SCR_S	397250
TTM_SCR_SS	409500
TTM_RAT_ACV	10041

