VERSION	0.00.00	1.03.00
FES_MODE	0
BPM_DEF	185.000	185.000	185.000	185.000
MET_DEF	4	4
RESOLUTION	384
CLK_DEF	384
COMPATIBLE_CODE	MA2

BPM	0	0	185.000
MET	0	0	4	4

TAP	2	0	3
TAP	2	96	2
TAP	2	192	1
TAP	2	288	0
TAP	3	0	7
TAP	3	96	6
TAP	3	192	6
TAP	3	192	7
TAP	4	0	4
TAP	4	96	5
TAP	4	192	6
TAP	4	288	7
TAP	5	0	0
TAP	5	96	1
TAP	5	192	0
TAP	5	192	1
TAP	6	0	0
TAP	6	96	1
TAP	6	192	2
TAP	6	288	3
TAP	7	0	4
TAP	7	96	5
TAP	7	192	6
TAP	7	288	0
TAP	7	288	7
TAP	8	0	1
TAP	8	96	1
TAP	8	192	0
TAP	8	288	0
TAP	9	0	0
TAP	9	0	7
TAP	9	96	0
TAP	9	96	7
TAP	9	192	1
TAP	9	192	6
TAP	10	0	5
TAP	10	96	5
TAP	10	192	4
TAP	10	192	5
TAP	11	0	2
TAP	11	96	2
TAP	11	192	2
TAP	11	192	3
TAP	12	0	3
TAP	12	96	3
TAP	12	192	4
TAP	12	288	4
TAP	13	0	5
TAP	13	96	5
TAP	13	192	4
TAP	13	192	6
TAP	14	0	2
TAP	14	96	2
TAP	14	192	2
TAP	14	192	3
TAP	15	0	5
TAP	15	96	5
TAP	15	192	4
TAP	15	192	5
TAP	16	0	4
TAP	16	96	4
TAP	16	192	3
TAP	16	288	3
TAP	17	0	2
TAP	17	96	2
TAP	17	192	1
TAP	17	192	3
TAP	18	0	6
TAP	18	96	6
TAP	18	192	6
TAP	18	192	7
TAP	19	0	1
TAP	19	96	1
TAP	19	192	0
TAP	19	192	1
TAP	20	0	0
TAP	20	96	0
TAP	20	192	7
TAP	20	288	7
TAP	21	0	6
TAP	21	96	6
TAP	21	192	5
TAP	21	192	7
TAP	22	0	1
TAP	22	96	1
TAP	22	192	0
TAP	22	192	1
TAP	23	0	6
TAP	23	96	6
TAP	23	192	6
TAP	23	192	7
TAP	24	0	7
TAP	24	96	7
TAP	24	192	0
TAP	24	288	0
TAP	25	0	1
TAP	25	96	1
TAP	25	192	0
TAP	25	192	2
HLD	26	0	5	192
TAP	26	192	4
HLD	27	0	2	192
TAP	27	192	3
HLD	28	0	5	192
TAP	28	192	4
HLD	29	0	2	192
TAP	29	192	3
TAP	30	0	5
TAP	30	96	5
TAP	30	192	4
TAP	30	288	4
TAP	31	0	3
TAP	31	96	3
TAP	31	192	2
TAP	31	192	5
TAP	31	288	2
TAP	31	288	5
TAP	32	0	1
TAP	32	0	6
TAP	32	96	1
TAP	32	96	6
TAP	32	192	0
TAP	32	192	7
TAP	32	288	0
TAP	32	288	7
BRK	33	0	1
BRK	33	0	6
TAP	34	0	1
TAP	34	96	1
TAP	34	192	0
TAP	34	288	0
TAP	35	0	7
TAP	35	96	6
TAP	35	96	7
TAP	35	192	0
TAP	35	192	5
TAP	36	0	6
TAP	36	96	6
TAP	36	192	7
TAP	36	288	7
TAP	37	0	0
TAP	37	96	0
TAP	37	96	1
TAP	37	192	2
TAP	37	192	7
STR	38	0	5
SCR	38	0	5	96	192	0
STR	39	0	2
SCL	39	0	2	96	192	7
TAP	40	0	6
TAP	40	96	6
TAP	40	192	7
TAP	40	288	7
TAP	41	0	0
TAP	41	96	0
TAP	41	192	1
TAP	41	192	7
TAP	42	0	6
TAP	42	96	6
TAP	42	192	7
TAP	42	288	7
TAP	43	0	0
TAP	43	96	0
TAP	43	96	1
TAP	43	192	2
TAP	43	192	7
TAP	44	0	1
TAP	44	96	1
TAP	44	192	0
TAP	44	288	0
TAP	45	0	7
TAP	45	96	6
TAP	45	96	7
TAP	45	192	0
TAP	45	192	5
HLD	46	0	6	144
HLD	46	0	7	144
STR	46	288	5
SCL	46	288	5	96	192	2
STR	48	0	0
SI_	48	0	0	96	192	5
STR	48	0	1
SI_	48	0	1	96	192	4
STR	49	0	6
SI_	49	0	6	96	192	3
STR	49	0	7
SI_	49	0	7	96	192	2
TAP	50	0	1
TAP	50	96	0
TAP	50	192	0
TAP	50	192	7
TAP	50	288	6
TAP	51	0	7
TAP	51	96	0
TAP	51	96	7
TAP	51	192	1
TAP	51	192	6
STR	52	0	6
SI_	52	0	6	96	192	3
STR	52	0	7
SI_	52	0	7	96	192	2
STR	53	0	0
SI_	53	0	0	96	192	5
STR	53	0	1
SI_	53	0	1	96	192	4
TAP	54	0	5
TAP	54	96	4
TAP	54	192	3
TAP	54	192	4
TAP	54	288	2
TAP	55	0	3
TAP	55	96	3
TAP	55	96	4
TAP	55	192	2
TAP	55	192	5
STR	56	0	7
SI_	56	0	7	96	192	4
STR	57	0	3
SI_	57	0	3	96	192	0
TAP	58	0	1
TAP	58	96	2
TAP	58	192	3
TAP	58	288	4
TAP	59	0	5
TAP	59	96	6
TAP	59	192	0
TAP	59	192	7
STR	60	0	6
SI_	60	0	6	96	192	1
STR	61	0	2
SI_	61	0	2	96	192	5
TAP	62	0	6
TAP	62	96	7
TAP	62	192	0
TAP	62	288	1
TAP	63	0	0
TAP	63	0	7
TAP	63	96	0
TAP	63	96	7
TAP	63	192	1
TAP	63	192	6
HLD	64	0	2	192
TAP	64	192	3
HLD	65	0	5	192
TAP	65	192	4
HLD	66	0	2	192
TAP	66	192	3
HLD	67	0	5	192
TAP	67	192	4
HLD	68	0	3	192
HLD	68	0	4	192
TAP	69	0	3
TAP	69	0	4
TAP	69	96	3
TAP	69	96	4
TAP	69	192	2
TAP	69	192	5
TAP	69	288	2
TAP	69	288	5
TAP	70	0	1
TAP	70	0	6
TAP	70	96	1
TAP	70	96	6
TAP	70	192	0
TAP	70	192	7
TAP	70	288	0
TAP	70	288	7
HLD	71	0	1	384
HLD	71	0	6	384
TAP	73	0	6
TAP	73	96	6
TAP	73	192	6
TAP	73	192	7
TAP	73	288	6
TAP	73	288	7
TAP	74	0	0
TAP	74	96	0
TAP	74	96	1
TAP	74	192	2
TAP	74	192	7
TAP	75	0	1
TAP	75	96	1
TAP	75	192	0
TAP	75	192	1
TAP	75	288	0
TAP	75	288	1
TAP	76	0	7
TAP	76	96	6
TAP	76	96	7
TAP	76	192	0
TAP	76	192	5
STR	77	0	1
SCR	77	0	1	96	192	4
STR	78	0	5
SCR	78	0	5	96	192	0
TAP	79	0	0
TAP	79	0	1
TAP	79	96	0
TAP	79	96	1
TAP	79	192	7
TAP	79	288	6
TAP	80	0	6
TAP	80	0	7
TAP	80	96	6
TAP	80	96	7
TAP	80	192	0
TAP	80	192	5
TAP	81	0	2
TAP	81	96	2
TAP	81	192	2
TAP	81	192	3
TAP	81	288	2
TAP	81	288	3
TAP	82	0	4
TAP	82	96	4
TAP	82	96	5
TAP	82	192	3
TAP	82	192	6
TAP	83	0	6
TAP	83	96	6
TAP	83	192	6
TAP	83	192	7
TAP	83	288	6
TAP	83	288	7
TAP	84	0	0
TAP	84	96	0
TAP	84	96	1
TAP	84	192	2
TAP	84	192	7
STR	85	0	2
SCL	85	0	2	96	480	5
TAP	87	0	6
TAP	87	0	7
TAP	87	96	6
TAP	87	96	7
TAP	87	192	0
TAP	87	192	1
TAP	87	288	0
TAP	87	288	1
TAP	88	0	7
TAP	88	96	6
TAP	88	96	7
TAP	88	192	0
TAP	88	288	0
TAP	88	288	1
TAP	89	0	6
TAP	89	0	7
TAP	89	96	6
TAP	89	96	7
TAP	89	192	0
TAP	89	192	1
TAP	89	288	0
TAP	89	288	1
TAP	90	0	6
TAP	90	0	7
TAP	90	96	0
TAP	90	96	1
TAP	90	192	2
TAP	90	192	7
STR	91	0	2
SCR	91	0	2	96	192	5
STR	92	0	6
SCR	92	0	6	96	192	1
TAP	93	0	2
TAP	93	0	3
TAP	93	96	2
TAP	93	96	3
TAP	93	192	1
TAP	93	192	4
TAP	94	0	4
TAP	94	0	5
TAP	94	96	4
TAP	94	96	5
TAP	94	192	3
TAP	94	192	6
TAP	95	0	0
TAP	95	0	1
TAP	95	96	0
TAP	95	96	1
TAP	95	192	6
TAP	95	192	7
TAP	95	288	6
TAP	95	288	7
TAP	96	0	0
TAP	96	96	0
TAP	96	96	1
TAP	96	192	7
TAP	96	288	6
TAP	96	288	7
TAP	97	0	0
TAP	97	0	1
TAP	97	96	0
TAP	97	96	1
TAP	97	192	6
TAP	97	192	7
TAP	97	288	6
TAP	97	288	7
TAP	98	0	0
TAP	98	0	1
TAP	98	96	6
TAP	98	96	7
TAP	98	192	0
TAP	98	192	5
STR	99	0	5
SCL	99	0	5	96	192	2
STR	100	0	1
SCR	100	0	1	96	192	4
STR	101	0	6
SCL	101	0	6	96	192	3
STR	102	0	2
SCR	102	0	2	96	192	5
TAP	103	0	6
TAP	103	96	7
TAP	103	192	0
TAP	103	288	0
TAP	104	0	1
TAP	104	96	0
TAP	104	192	6
TAP	104	192	7
TAP	105	0	1
TAP	105	96	0
TAP	105	192	7
TAP	105	288	7
TAP	106	0	6
TAP	106	96	7
TAP	106	192	0
TAP	106	192	1
TAP	107	0	6
TAP	107	96	7
TAP	107	192	0
TAP	107	288	0
TAP	108	0	1
TAP	108	96	0
TAP	108	192	6
TAP	108	192	7
TAP	108	288	6
TAP	108	288	7
TAP	109	0	6
TAP	109	96	7
TAP	109	192	0
TAP	109	288	1
TAP	110	0	0
TAP	110	0	7
TAP	110	96	0
TAP	110	96	7
BRK	110	192	1
BRK	110	192	6

T_REC_TAP	381
T_REC_BRK	4
T_REC_XTP	0
T_REC_HLD	14
T_REC_XHO	0
T_REC_STR	24
T_REC_BST	0
T_REC_XST	0
T_REC_TTP	0
T_REC_THO	0
T_REC_SLD	24
T_REC_ALL	447
T_NUM_TAP	405
T_NUM_BRK	4
T_NUM_HLD	14
T_NUM_SLD	24
T_NUM_ALL	447
T_JUDGE_TAP	409
T_JUDGE_HLD	62
T_JUDGE_SLD	24
T_JUDGE_ALL	495
TTM_EACHPAIRS	119
TTM_SCR_TAP	202500
TTM_SCR_BRK	10400
TTM_SCR_HLD	14000
TTM_SCR_SLD	36000
TTM_SCR_ALL	262900
TTM_SCR_S	254650
TTM_SCR_SS	262500
TTM_RAT_ACV	10015

