VERSION	0.00.00	1.03.00
FES_MODE	0
BPM_DEF	185.000	185.000	185.000	185.000
MET_DEF	4	4
RESOLUTION	384
CLK_DEF	384
COMPATIBLE_CODE	MA2

BPM	0	0	185.000

TAP	2	0	0
TAP	2	192	0
TAP	3	0	1
TAP	3	192	1
TAP	4	0	2
TAP	4	192	2
TAP	5	0	3
TAP	5	96	3
TAP	5	192	3
TAP	6	0	4
TAP	6	192	4
TAP	7	0	5
TAP	7	192	5
TAP	8	0	6
TAP	8	192	6
TAP	9	0	7
TAP	9	96	7
TAP	9	192	7
HLD	10	0	0	192
HLD	11	0	0	192
HLD	12	0	1	192
TAP	13	0	1
TAP	13	192	1
HLD	14	0	2	192
HLD	15	0	2	192
HLD	16	0	3	192
TAP	17	0	3
TAP	17	0	4
TAP	18	0	4
TAP	18	192	4
TAP	19	0	4
TAP	20	0	5
TAP	20	192	5
TAP	21	0	5
TAP	21	192	4
TAP	21	192	5
TAP	22	0	6
TAP	22	192	6
TAP	23	0	6
TAP	24	0	7
TAP	24	192	7
TAP	25	0	7
TAP	25	192	0
TAP	25	192	7
STR	26	0	7
SI_	26	0	7	96	288	4
STR	28	0	0
SI_	28	0	0	96	288	3
TAP	30	0	7
TAP	30	192	7
TAP	31	0	6
TAP	31	192	6
TAP	32	0	5
TAP	32	192	5
BRK	33	0	3
BRK	33	0	4
TAP	34	0	3
TAP	34	96	3
TAP	34	192	3
TAP	35	0	2
TAP	35	96	2
TAP	35	192	2
TAP	36	0	1
TAP	36	96	1
TAP	36	192	1
TAP	37	0	0
TAP	37	96	0
TAP	37	192	0
TAP	38	0	7
TAP	38	96	7
TAP	38	192	7
TAP	39	0	6
TAP	39	96	6
TAP	39	192	6
HLD	40	0	5	192
TAP	41	0	3
TAP	41	0	4
TAP	41	192	3
TAP	41	192	4
TAP	42	0	4
TAP	42	96	4
TAP	42	192	4
TAP	43	0	5
TAP	43	96	5
TAP	43	192	5
TAP	44	0	6
TAP	44	96	6
TAP	44	192	6
TAP	45	0	7
TAP	45	96	7
TAP	45	192	7
HLD	46	0	0	192
HLD	47	0	7	192
STR	48	0	0
SI_	48	0	0	96	288	4
TAP	50	0	7
TAP	50	192	7
TAP	51	0	0
TAP	51	192	0
STR	52	0	7
SI_	52	0	7	96	288	3
TAP	54	0	0
TAP	54	192	0
TAP	55	0	7
TAP	55	192	7
HLD	56	0	6	192
TAP	57	0	6
TAP	57	192	6
HLD	58	0	5	192
TAP	59	0	5
TAP	59	192	5
TAP	60	0	4
TAP	60	192	4
TAP	61	0	3
TAP	61	192	3
TAP	62	0	2
TAP	62	192	2
TAP	63	0	1
TAP	63	192	1
STR	64	0	0
SI_	64	0	0	96	288	3
STR	66	0	7
SI_	66	0	7	96	288	4
TAP	68	0	0
TAP	68	192	0
TAP	69	0	1
TAP	69	192	1
TAP	70	0	2
TAP	70	192	2
BRK	71	0	3
BRK	71	0	4
BRK	72	0	3
BRK	72	0	4
TAP	73	0	4
TAP	73	96	4
TAP	73	192	4
TAP	74	0	5
TAP	74	96	5
TAP	74	192	5
TAP	75	0	6
TAP	75	96	6
TAP	75	192	7
TAP	75	288	7
TAP	76	0	0
TAP	76	96	0
TAP	76	192	0
TAP	76	192	7
TAP	77	0	1
TAP	77	96	1
TAP	77	192	1
TAP	78	0	2
TAP	78	96	2
TAP	78	192	2
HLD	79	0	2	192
HLD	79	0	3	192
TAP	80	0	3
TAP	80	0	4
TAP	80	192	3
TAP	80	192	4
TAP	81	0	3
TAP	81	96	3
TAP	81	192	3
TAP	82	0	2
TAP	82	96	2
TAP	82	192	2
TAP	83	0	1
TAP	83	96	1
TAP	83	192	0
TAP	83	288	0
TAP	84	0	7
TAP	84	96	7
TAP	84	192	0
TAP	84	192	7
HLD	85	0	0	384
HLD	85	0	7	384
BRK	86	192	0
BRK	86	192	7
TAP	87	0	0
TAP	87	96	0
TAP	87	192	1
TAP	87	288	1
TAP	88	0	2
TAP	88	96	2
TAP	88	192	2
TAP	88	192	3
TAP	89	0	4
TAP	89	96	4
TAP	89	192	5
TAP	89	288	5
TAP	90	0	6
TAP	90	96	6
TAP	90	192	6
TAP	90	192	7
TAP	91	0	1
TAP	91	96	1
TAP	91	192	0
TAP	91	192	1
TAP	92	0	6
TAP	92	96	6
TAP	92	192	6
TAP	92	192	7
STR	93	0	0
SI_	93	0	0	96	288	4
TAP	95	0	4
TAP	95	96	4
TAP	95	192	5
TAP	95	288	5
TAP	96	0	6
TAP	96	96	6
TAP	96	192	6
TAP	96	192	7
TAP	97	0	0
TAP	97	96	0
TAP	97	192	1
TAP	97	288	1
TAP	98	0	2
TAP	98	96	2
TAP	98	192	2
TAP	98	192	3
HLD	99	0	4	192
HLD	99	0	5	192
HLD	100	0	2	192
HLD	100	0	3	192
HLD	101	0	3	192
HLD	101	0	5	192
HLD	102	0	2	192
HLD	102	0	4	192
TAP	103	0	3
TAP	103	96	3
TAP	103	192	3
TAP	104	0	2
TAP	104	96	2
TAP	104	192	2
TAP	105	0	1
TAP	105	96	1
TAP	105	192	1
TAP	106	0	0
TAP	106	96	7
TAP	106	192	0
TAP	107	0	7
TAP	107	96	7
TAP	107	192	7
TAP	108	0	6
TAP	108	96	6
TAP	108	192	6
TAP	109	0	5
TAP	109	96	5
TAP	109	192	5
TAP	110	0	4
TAP	110	96	3
TAP	110	192	4

T_REC_TAP	206
T_REC_BRK	8
T_REC_XTP	0
T_REC_HLD	23
T_REC_XHO	0
T_REC_STR	7
T_REC_BST	0
T_REC_XST	0
T_REC_TTP	0
T_REC_THO	0
T_REC_SLD	7
T_REC_ALL	251
T_NUM_TAP	213
T_NUM_BRK	8
T_NUM_HLD	23
T_NUM_SLD	7
T_NUM_ALL	251
T_JUDGE_TAP	221
T_JUDGE_HLD	100
T_JUDGE_SLD	7
T_JUDGE_ALL	328
TTM_EACHPAIRS	25
TTM_SCR_TAP	106500
TTM_SCR_BRK	20800
TTM_SCR_HLD	23000
TTM_SCR_SLD	10500
TTM_SCR_ALL	160800
TTM_SCR_S	155200
TTM_SCR_SS	160000
TTM_RAT_ACV	10050

