VERSION	0.00.00	1.03.00
FES_MODE	0
BPM_DEF	165.000	165.000	165.000	165.000
MET_DEF	4	4
RESOLUTION	384
CLK_DEF	384
COMPATIBLE_CODE	MA2

BPM	0	0	165.000
MET	0	0	4	4

STR	1	0	0
SSL	1	0	0	96	624	4
STR	1	0	4
SSL	1	0	4	96	288	0
STR	2	192	6
SI_	2	192	6	96	48	2
TAP	3	0	3
TAP	3	0	6
TAP	3	48	2
TAP	3	48	5
TAP	3	96	1
TAP	3	96	4
TAP	3	120	1
TAP	3	120	4
HLD	3	168	0	168
TAP	3	168	3
TAP	3	240	7
TAP	3	288	6
TAP	3	336	5
TAP	4	0	1
TAP	4	0	4
TAP	4	48	2
TAP	4	48	5
TAP	4	96	3
TAP	4	96	6
TAP	4	120	3
TAP	4	120	6
TAP	4	168	4
HLD	4	168	7	168
TAP	4	240	2
TAP	4	288	1
TAP	4	336	0
TAP	5	0	1
TAP	5	0	6
TAP	5	48	5
TAP	5	72	4
TAP	5	96	5
TAP	5	120	4
STR	5	144	5
SCR	5	144	5	96	48	7
TAP	5	168	4
STR	5	192	5
SCL	5	192	5	96	48	1
TAP	6	0	6
TAP	6	24	7
TAP	6	48	6
TAP	6	72	7
STR	6	96	6
SI_	6	96	6	96	48	4
TAP	6	120	7
STR	6	144	6
SI_	6	144	6	96	48	0
TAP	6	168	7
STR	6	192	6
SI_	6	192	6	96	48	2
TAP	7	0	1
TAP	7	24	0
TAP	7	48	1
TAP	7	96	2
TAP	7	96	7
TAP	7	120	2
TAP	7	120	7
STR	7	168	1
SXL	7	168	1	96	72	3
TAP	7	168	5
TAP	7	240	0
TAP	7	288	7
TAP	7	336	6
TAP	8	0	5
TAP	8	24	4
TAP	8	48	5
TAP	8	96	3
TAP	8	96	6
TAP	8	120	3
TAP	8	120	6
TAP	8	168	1
STR	8	168	5
SXL	8	168	5	96	72	7
TAP	8	240	4
TAP	8	288	3
TAP	8	336	2
TAP	9	0	1
TAP	9	24	1
TAP	9	24	4
TAP	9	72	6
TAP	9	96	3
TAP	9	96	6
TAP	9	144	0
TAP	9	168	0
TAP	9	168	4
TAP	9	216	7
TAP	9	240	3
TAP	9	240	7
TAP	9	288	0
TAP	9	312	7
TAP	9	336	0
TAP	9	360	7
STR	10	0	2
SXL	10	0	2	96	48	4
STR	10	0	6
SXL	10	0	6	96	48	0
TAP	10	192	3
STR	10	192	7
SI_	10	192	7	96	48	3
TAP	10	216	2
TAP	10	216	6
TAP	10	240	1
TAP	10	240	5
TAP	10	264	0
TAP	10	264	4
TAP	11	0	2
STR	11	0	6
SI_	11	0	6	96	48	3
TAP	11	72	4
TAP	11	96	6
TAP	11	144	2
STR	11	192	1
SI_	11	192	1	96	48	4
TAP	11	192	5
TAP	11	264	3
TAP	11	288	1
TAP	11	336	5
TAP	12	0	2
STR	12	0	7
SI_	12	0	7	96	48	3
TAP	12	72	4
TAP	12	96	7
TAP	12	144	2
STR	12	192	0
SI_	12	192	0	96	48	4
TAP	12	192	5
TAP	12	264	3
TAP	12	288	0
TAP	12	336	5
TAP	13	0	0
STR	13	0	4
SCR	13	0	4	96	432	3
TAP	13	48	3
TAP	13	96	2
TAP	13	120	2
TAP	13	168	1
TAP	13	240	0
TAP	13	288	1
TAP	13	336	2
TAP	14	0	7
TAP	14	48	6
TAP	14	96	5
TAP	14	144	4
BRK	14	192	2
BRK	14	192	5
BRK	14	264	2
BRK	14	264	5
STR	15	0	3
SI_	15	0	3	96	48	1
STR	15	48	3
SI_	15	48	3	96	48	6
STR	15	96	3
SI_	15	96	3	96	48	7
STR	15	144	3
SI_	15	144	3	96	48	5
STR	15	192	3
SI_	15	192	3	96	48	0
STR	15	240	3
SI_	15	240	3	96	48	7
TAP	15	288	3
TAP	15	336	3
TAP	16	0	0
TAP	16	32	0
TAP	16	64	0
TAP	16	96	0
TAP	16	128	0
TAP	16	160	0
TAP	16	192	0
TAP	16	192	4
TAP	16	204	7
TAP	16	216	6
TAP	16	228	5
TAP	16	240	4
TAP	16	252	3
TAP	16	264	2
TAP	16	276	1
STR	16	288	0
SI_	16	288	0	96	36	4
STR	16	288	4
SCR	16	288	4	96	36	7
BRK	17	0	0
BRK	17	0	4
STR	17	96	3
SCL	17	96	3	96	36	0
STR	17	96	7
SI_	17	96	7	96	36	3
BRK	17	192	3
BRK	17	192	7
BRK	17	288	1
BRK	17	288	5
TAP	18	0	2
HLD	18	0	6	96
TAP	18	24	2
TAP	18	72	0
STR	18	96	0
SSL	18	96	0	96	96	4
TAP	18	144	3
TAP	18	168	3
STR	18	216	5
SI_	18	216	5	96	24	1
TAP	18	240	5
BRK	18	288	5
TAP	19	0	3
TAP	19	0	4
TAP	19	48	2
TAP	19	72	3
TAP	19	96	2
TAP	19	144	5
TAP	19	168	4
TAP	19	192	5
TAP	19	240	1
TAP	19	264	2
TAP	19	288	1
TAP	19	336	6
TAP	19	360	5
HLD	20	0	6	48
TAP	20	48	7
TAP	20	72	6
TAP	20	96	0
TAP	20	120	6
TAP	20	144	1
TAP	20	168	6
TAP	20	192	2
TAP	20	216	5
TAP	20	240	3
TAP	20	264	4
TAP	20	288	2
TAP	20	312	5
TAP	20	336	3
TAP	20	360	4
TAP	21	0	2
TAP	21	0	5
TAP	21	48	6
TAP	21	72	7
TAP	21	96	6
TAP	21	144	1
TAP	21	168	0
TAP	21	192	1
TAP	21	240	5
TAP	21	264	4
TAP	21	288	5
STR	21	336	2
SCL	21	336	2	96	48	7
TAP	21	360	3
TAP	22	0	2
TAP	22	48	6
TAP	22	64	5
TAP	22	80	4
TAP	22	96	3
TAP	22	168	3
TAP	22	168	5
TAP	22	216	2
TAP	22	216	4
TAP	22	264	3
TAP	22	264	5
TAP	22	288	6
TAP	22	312	1
TAP	22	336	7
TAP	22	360	0
STR	23	0	1
SI_	23	0	1	96	48	4
STR	23	0	6
SI_	23	0	6	96	48	3
BRK	23	96	1
BRK	23	96	6
TAP	23	192	3
TAP	23	192	4
TAP	23	240	6
TAP	23	264	4
TAP	23	288	6
TAP	23	336	1
TAP	23	360	3
HLD	24	0	1	48
TAP	24	48	0
TAP	24	72	1
TAP	24	96	7
TAP	24	120	1
TAP	24	144	6
TAP	24	168	1
TAP	24	192	5
TAP	24	216	2
TAP	24	240	4
TAP	24	264	3
TAP	24	288	5
TAP	24	312	2
TAP	24	336	4
TAP	24	360	3
TAP	25	0	2
TAP	25	0	5
TAP	25	48	1
TAP	25	72	0
TAP	25	96	1
TAP	25	144	6
TAP	25	168	7
TAP	25	192	6
TAP	25	240	2
TAP	25	264	3
TAP	25	288	2
TAP	25	336	5
TAP	25	360	4
TAP	26	0	7
TAP	26	24	0
TAP	26	48	7
TAP	26	72	0
TAP	26	96	6
TAP	26	112	5
TAP	26	128	4
TAP	26	144	0
TAP	26	160	1
TAP	26	176	2
TAP	26	192	4
TAP	26	216	3
TAP	26	240	4
TAP	26	264	3
TAP	26	288	5
TAP	26	304	6
TAP	26	320	7
TAP	26	336	3
TAP	26	352	2
TAP	26	368	1
STR	27	0	0
SI_	27	0	0	96	48	4
TAP	27	48	1
TAP	27	48	7
BRK	27	96	0
TAP	27	192	3
TAP	27	192	4
TAP	27	240	2
TAP	27	264	3
TAP	27	288	1
TAP	27	336	5
TAP	27	360	4
HLD	28	0	6	48
TAP	28	48	7
TAP	28	72	6
TAP	28	96	0
TAP	28	120	6
TAP	28	144	1
TAP	28	168	6
TAP	28	192	2
TAP	28	216	2
TAP	28	240	4
TAP	28	264	4
TAP	28	288	3
TAP	28	312	3
TAP	28	336	5
TAP	28	360	5
TAP	29	0	2
TAP	29	24	4
TAP	29	48	3
TAP	29	72	4
TAP	29	96	2
TAP	29	96	5
TAP	29	144	6
TAP	29	168	7
TAP	29	192	5
TAP	29	240	1
TAP	29	264	0
TAP	29	288	2
STR	29	336	5
SCR	29	336	5	96	48	0
TAP	29	360	4
TAP	30	0	6
TAP	30	48	1
TAP	30	64	2
TAP	30	80	3
TAP	30	96	4
TAP	30	168	2
TAP	30	168	4
TAP	30	216	3
TAP	30	216	5
TAP	30	264	2
TAP	30	264	4
TAP	30	288	1
TAP	30	312	6
TAP	30	336	0
TAP	30	360	7
STR	31	0	1
SI_	31	0	1	96	48	4
STR	31	0	6
SI_	31	0	6	96	48	3
BRK	31	96	1
BRK	31	96	6
TAP	31	192	2
TAP	31	192	5
TAP	31	240	5
TAP	31	264	4
TAP	31	288	6
TAP	31	336	2
TAP	31	360	3
HLD	32	0	1	48
TAP	32	48	0
TAP	32	72	1
TAP	32	96	7
TAP	32	120	1
TAP	32	144	6
TAP	32	168	1
TAP	32	192	5
TAP	32	216	5
TAP	32	240	3
TAP	32	264	3
TAP	32	288	4
TAP	32	312	4
TAP	32	336	2
TAP	32	360	2
TAP	33	0	6
TAP	33	12	5
TAP	33	24	4
TAP	33	48	2
TAP	33	72	6
TAP	33	84	5
TAP	33	96	4
TAP	33	120	2
TAP	33	144	2
TAP	33	192	1
TAP	33	204	2
TAP	33	216	3
TAP	33	240	5
TAP	33	264	1
TAP	33	276	2
TAP	33	288	3
TAP	33	312	5
TAP	33	336	5
TAP	34	0	3
TAP	34	0	4
TAP	34	24	2
TAP	34	24	4
TAP	34	48	1
TAP	34	48	4
TAP	34	72	0
TAP	34	72	4
TAP	34	144	3
TAP	34	144	4
TAP	34	168	3
TAP	34	168	5
TAP	34	192	3
TAP	34	192	6
TAP	34	216	3
TAP	34	216	7
BRK	34	288	0
TAP	34	300	1
TAP	34	300	7
TAP	34	312	2
TAP	34	312	6
TAP	34	324	3
TAP	34	324	5
TAP	34	336	4
TAP	35	0	2
HLD	35	0	5	96
TAP	35	48	2
TAP	35	96	2
TAP	35	144	2
HLD	35	144	6	144
TAP	35	192	2
TAP	35	240	2
TAP	35	288	2
TAP	35	336	2
TAP	35	336	7
TAP	35	360	6
TAP	36	0	2
HLD	36	0	5	96
TAP	36	48	2
TAP	36	96	2
TAP	36	144	2
TAP	36	144	4
TAP	36	168	5
TAP	36	192	2
HLD	36	192	6	48
TAP	36	240	2
TAP	36	288	2
HLD	36	288	5	48
TAP	36	336	2
TAP	37	0	3
HLD	37	0	4	96
TAP	37	48	3
TAP	37	72	2
TAP	37	96	1
TAP	37	144	1
TAP	37	192	0
HLD	37	192	7	96
TAP	37	240	0
TAP	37	264	1
TAP	37	288	2
TAP	37	336	2
HLD	38	0	3	96
TAP	38	0	4
TAP	38	48	4
TAP	38	72	5
TAP	38	96	6
TAP	38	144	6
TAP	38	192	0
TAP	38	192	7
TAP	38	240	0
TAP	38	240	7
TAP	38	256	1
TAP	38	256	6
TAP	38	272	2
TAP	38	272	5
TAP	38	288	3
TAP	38	288	4
HLD	39	0	2	96
TAP	39	0	5
TAP	39	48	5
TAP	39	96	5
HLD	39	144	3	144
TAP	39	144	5
TAP	39	192	5
TAP	39	240	5
TAP	39	288	5
TAP	39	336	2
TAP	39	336	5
TAP	39	360	1
HLD	40	0	0	96
TAP	40	0	5
TAP	40	48	5
TAP	40	96	5
TAP	40	144	1
TAP	40	144	5
TAP	40	168	2
HLD	40	192	3	48
TAP	40	192	5
TAP	40	240	5
HLD	40	288	2	48
TAP	40	288	5
TAP	40	336	5
TAP	41	0	0
HLD	41	0	1	168
TAP	41	24	7
TAP	41	48	6
TAP	41	72	5
TAP	41	96	4
TAP	41	120	3
TAP	41	144	2
HLD	41	192	0	168
TAP	41	216	2
TAP	41	240	3
TAP	41	264	4
TAP	41	288	5
TAP	41	312	6
TAP	41	336	7
HLD	42	0	1	168
TAP	42	24	2
TAP	42	48	3
TAP	42	72	4
TAP	42	96	5
TAP	42	120	6
TAP	42	144	7
TAP	42	168	0
TAP	42	192	1
TAP	42	208	2
TAP	42	224	3
TAP	42	240	4
TAP	42	256	5
TAP	42	272	6
BRK	42	288	3
BRK	42	288	7
TAP	43	0	4
TAP	43	48	4
TAP	43	96	2
TAP	43	96	5
TAP	43	144	4
TAP	43	168	3
TAP	43	216	3
TAP	43	264	3
TAP	43	288	2
TAP	43	288	5
TAP	43	336	4
TAP	43	360	3
TAP	44	0	4
TAP	44	72	3
TAP	44	96	2
TAP	44	96	5
TAP	44	144	4
TAP	44	168	4
TAP	44	216	3
TAP	44	264	4
TAP	44	288	2
TAP	44	288	5
TAP	44	312	3
TAP	44	336	4
HLD	45	0	3	96
TAP	45	0	4
TAP	45	48	4
TAP	45	72	5
TAP	45	96	6
TAP	45	144	6
HLD	45	192	0	96
TAP	45	192	7
TAP	45	240	7
TAP	45	264	6
TAP	45	288	5
TAP	45	336	5
TAP	46	0	3
HLD	46	0	4	96
TAP	46	48	3
TAP	46	72	2
TAP	46	96	1
TAP	46	144	1
STR	46	192	0
SI_	46	192	0	96	48	3
STR	46	192	7
SI_	46	192	7	96	48	4
TAP	47	0	3
TAP	47	12	4
TAP	47	24	3
TAP	47	48	5
TAP	47	72	3
TAP	47	84	4
TAP	47	96	3
TAP	47	120	5
TAP	47	144	2
HLD	47	168	2	48
TAP	47	216	4
TAP	47	240	2
TAP	47	264	2
TAP	47	288	4
TAP	47	300	3
TAP	47	312	4
TAP	47	336	2
TAP	48	0	3
TAP	48	0	7
TAP	48	48	6
TAP	48	60	5
TAP	48	72	4
TAP	48	96	1
TAP	48	108	2
TAP	48	120	3
HLD	48	144	7	48
TAP	48	192	1
TAP	48	204	2
TAP	48	216	3
TAP	48	240	6
TAP	48	252	5
TAP	48	264	4
TAP	48	288	2
TAP	48	300	3
TAP	48	312	2
TAP	48	336	5
TAP	48	348	4
TAP	48	360	5
STR	49	0	0
SSL	49	0	0	96	480	4
TAP	49	192	4
TAP	50	192	0
STR	51	0	4
SSL	51	0	4	96	480	0
TAP	51	192	0
TAP	52	192	4
BRK	53	6	3
TAP	53	288	4
TAP	54	0	2
STR	54	0	7
SCL	54	0	7	96	288	2
TAP	54	192	1
STR	55	0	0
SCR	55	0	0	96	288	5
TAP	55	192	7
STR	56	0	6
SCL	56	0	6	96	288	1
TAP	56	192	0
HLD	57	0	0	96
TAP	57	144	0
TAP	57	160	0
TAP	57	176	0
STR	57	192	0
SF_	57	192	0	96	48	4
BRK	57	288	0
TAP	58	0	4
TAP	58	0	5
TAP	58	48	5
TAP	58	96	3
TAP	58	96	6
TAP	58	144	5
TAP	58	168	4
TAP	58	216	4
TAP	58	264	4
TAP	58	288	3
TAP	58	288	6
TAP	58	336	5
TAP	58	360	5
TAP	59	0	4
TAP	59	48	4
TAP	59	96	3
TAP	59	96	6
TAP	59	144	4
TAP	59	168	5
TAP	59	216	5
TAP	59	240	4
TAP	59	288	3
TAP	59	288	6
TAP	59	336	4
TAP	59	336	5
TAP	60	0	2
TAP	60	0	3
TAP	60	48	2
TAP	60	96	1
TAP	60	96	4
TAP	60	144	2
TAP	60	168	3
TAP	60	216	3
TAP	60	264	3
TAP	60	288	1
TAP	60	288	4
TAP	60	312	2
TAP	60	336	3
TAP	60	360	2
TAP	61	48	0
TAP	61	48	1
TAP	61	96	2
TAP	61	96	3
TAP	61	120	2
TAP	61	120	3
TAP	61	168	4
TAP	61	168	5
TAP	61	240	3
TAP	61	240	7
TAP	61	288	2
TAP	61	288	6
TAP	61	336	1
TAP	61	336	5
STR	62	0	0
SI_	62	0	0	96	48	2
TAP	62	0	4
STR	62	48	2
SLR	62	48	2	96	96	0
TAP	62	48	5
TAP	62	96	6
TAP	62	120	6
TAP	62	168	7
TAP	62	216	6
TAP	62	240	6
TAP	62	288	5
TAP	62	336	4
TAP	63	0	3
STR	63	0	7
SI_	63	0	7	96	48	5
TAP	63	48	2
STR	63	48	5
SLL	63	48	5	96	96	7
TAP	63	96	1
TAP	63	120	1
TAP	63	168	0
TAP	63	216	1
TAP	63	240	1
TAP	63	288	2
TAP	63	336	3
STR	64	0	0
SI_	64	0	0	96	48	2
TAP	64	0	4
STR	64	48	2
SLR	64	48	2	96	96	0
TAP	64	48	5
TAP	64	96	6
TAP	64	120	6
TAP	64	168	7
TAP	64	216	7
TAP	64	228	6
TAP	64	240	5
TAP	64	288	5
TAP	64	336	4
TAP	65	0	3
STR	65	0	7
SI_	65	0	7	96	48	5
TAP	65	48	1
STR	65	48	5
SI_	65	48	5	96	48	3
TAP	65	96	0
TAP	65	120	0
TAP	65	168	1
BRK	65	192	1
BRK	65	264	5
BRK	65	264	7
BRK	65	336	0
BRK	65	336	2
TAP	66	0	3
TAP	66	0	4
TAP	66	48	3
TAP	66	48	4
TAP	66	96	5
TAP	66	120	3
TAP	66	144	4
HLD	66	168	2	72
TAP	66	240	3
TAP	66	264	2
TAP	66	288	4
TAP	66	312	3
TAP	66	336	5
TAP	66	360	4
TAP	67	0	6
TAP	67	24	6
TAP	67	48	3
TAP	67	72	7
TAP	67	96	1
TAP	67	120	1
TAP	67	144	4
TAP	67	168	0
TAP	67	192	1
TAP	67	192	6
TAP	67	240	2
TAP	67	240	5
HLD	67	288	3	48
HLD	67	288	4	48
TAP	68	0	0
TAP	68	12	1
TAP	68	24	2
TAP	68	36	3
TAP	68	48	0
TAP	68	60	1
TAP	68	72	2
TAP	68	84	3
TAP	68	96	7
TAP	68	108	6
TAP	68	120	5
TAP	68	132	4
TAP	68	144	7
TAP	68	156	6
TAP	68	168	5
TAP	68	180	4
TAP	68	192	1
TAP	68	204	2
TAP	68	216	3
TAP	68	228	4
TAP	68	240	5
TAP	68	252	6
TAP	68	264	7
TAP	68	276	0
TAP	68	288	1
TAP	68	300	2
TAP	68	312	3
TAP	68	324	4
TAP	68	336	5
TAP	68	348	6
TAP	68	360	7
TAP	68	372	0
HLD	69	0	1	96
BRK	69	0	5
TAP	69	24	5
TAP	69	72	7
STR	69	96	7
SSR	69	96	7	96	96	3
TAP	69	144	4
TAP	69	168	4
STR	69	216	2
SI_	69	216	2	96	24	6
TAP	69	240	2
BRK	69	288	2
TAP	70	0	3
TAP	70	24	4
TAP	70	48	2
TAP	70	72	2
TAP	70	96	5
TAP	70	120	4
TAP	70	144	6
HLD	70	168	6	72
TAP	70	240	7
TAP	70	264	6
TAP	70	288	0
TAP	70	312	6
TAP	70	336	1
TAP	70	360	6
TAP	71	0	2
STR	71	0	5
SI_	71	0	5	96	48	0
TAP	71	48	4
STR	71	96	2
SI_	71	96	2	96	48	7
TAP	71	96	5
TAP	71	144	3
TAP	71	192	2
TAP	71	192	6
TAP	71	216	5
TAP	71	240	4
TAP	71	264	3
TAP	71	288	0
TAP	71	300	1
TAP	71	312	2
TAP	71	324	3
TAP	71	336	4
TAP	71	348	5
TAP	71	360	6
TAP	71	372	7
TAP	72	0	0
TAP	72	0	4
TAP	72	48	2
TAP	72	48	6
TAP	72	96	5
TAP	72	120	5
TAP	72	144	1
TAP	72	168	1
TAP	72	192	7
TAP	72	204	0
TAP	72	216	7
TAP	72	240	1
TAP	72	264	1
TAP	72	288	4
TAP	72	300	3
TAP	72	312	4
TAP	72	336	2
TAP	73	0	1
TAP	73	0	4
TAP	73	48	3
TAP	73	48	6
TAP	73	96	1
TAP	73	96	4
TAP	73	120	1
TAP	73	120	4
TAP	73	168	2
STR	73	168	7
SI_	73	168	7	96	48	3
TAP	73	216	6
TAP	73	240	0
TAP	73	264	7
BRK	73	288	1
STR	74	0	3
SSR	74	0	3	96	48	7
STR	74	0	4
SSL	74	0	4	96	48	0
TAP	74	48	2
TAP	74	48	5
BRK	74	96	3
BRK	74	96	4
TAP	74	192	1
TAP	74	216	0
TAP	74	240	1
TAP	74	264	7
TAP	74	288	1
TAP	74	312	6
TAP	74	336	1
TAP	74	360	5
STR	75	0	2
SI_	75	0	2	96	48	7
TAP	75	0	4
TAP	75	48	3
TAP	75	96	2
STR	75	96	5
SI_	75	96	5	96	48	0
TAP	75	144	4
TAP	75	192	1
TAP	75	192	5
TAP	75	216	2
TAP	75	240	3
TAP	75	264	4
TAP	75	288	7
TAP	75	300	6
TAP	75	312	5
TAP	75	324	4
TAP	75	336	3
TAP	75	348	2
TAP	75	360	1
TAP	75	372	0
TAP	76	0	3
TAP	76	0	7
TAP	76	48	1
TAP	76	48	5
TAP	76	96	2
TAP	76	120	2
TAP	76	144	6
TAP	76	168	6
TAP	76	192	0
TAP	76	204	7
TAP	76	216	0
TAP	76	240	6
TAP	76	264	6
TAP	76	288	3
TAP	76	300	4
TAP	76	312	3
TAP	76	336	5
STR	77	0	0
SSL	77	0	0	96	96	4
TAP	77	0	6
TAP	77	48	1
STR	77	96	5
SI_	77	96	5	96	24	1
TAP	77	120	5
TAP	77	168	5
BRK	77	288	2
BRK	77	288	6
TAP	78	0	3
TAP	78	12	4
TAP	78	24	3
TAP	78	48	5
TAP	78	72	2
TAP	78	96	5
TAP	78	120	1
TAP	78	144	5
TAP	78	168	0
TAP	78	192	4
TAP	78	204	3
TAP	78	216	4
TAP	78	240	2
TAP	78	264	5
TAP	78	288	2
TAP	78	312	6
TAP	78	336	2
TAP	78	360	7
TAP	79	0	1
TAP	79	12	0
TAP	79	24	1
TAP	79	48	7
TAP	79	72	7
TAP	79	96	3
TAP	79	108	4
TAP	79	120	3
TAP	79	144	5
TAP	79	168	5
STR	79	192	0
SI_	79	192	0	96	48	4
TAP	79	204	1
TAP	79	216	2
STR	79	240	6
SI_	79	240	6	96	48	2
TAP	79	252	5
TAP	79	264	4
TAP	79	288	0
TAP	79	336	6
HLD	80	0	3	48
TAP	80	48	5
TAP	80	72	7
TAP	80	96	5
TAP	80	120	0
TAP	80	144	5
TAP	80	168	1
TAP	80	192	4
TAP	80	204	3
TAP	80	216	4
TAP	80	240	2
TAP	80	264	0
TAP	80	288	2
TAP	80	312	7
TAP	80	336	2
TAP	80	360	6
TAP	81	0	3
TAP	81	0	6
TAP	81	48	1
TAP	81	48	4
TAP	81	96	2
TAP	81	96	6
TAP	81	120	2
TAP	81	120	6
STR	81	168	0
SI_	81	168	0	96	48	4
TAP	81	168	5
TAP	81	216	1
TAP	81	240	7
TAP	81	264	0
BRK	81	288	6
TAP	82	0	4
TAP	82	12	3
TAP	82	24	4
TAP	82	48	2
TAP	82	72	5
TAP	82	96	2
TAP	82	120	6
TAP	82	144	2
TAP	82	168	7
TAP	82	192	3
TAP	82	204	4
TAP	82	216	3
TAP	82	240	5
TAP	82	264	2
TAP	82	288	5
TAP	82	312	1
TAP	82	336	5
TAP	82	360	0
TAP	83	0	6
TAP	83	12	7
TAP	83	24	6
TAP	83	48	0
TAP	83	72	0
TAP	83	96	4
TAP	83	108	3
TAP	83	120	4
TAP	83	144	2
TAP	83	168	2
STR	83	192	7
SF_	83	192	7	96	24	3
TAP	83	204	6
TAP	83	216	5
TAP	83	240	3
TAP	83	252	2
TAP	83	264	1
BRK	83	288	7
TAP	84	0	3
TAP	84	0	5
TAP	84	48	2
TAP	84	48	4
TAP	84	96	3
TAP	84	96	6
TAP	84	144	1
TAP	84	144	4
TAP	84	192	2
TAP	84	216	5
TAP	84	240	1
TAP	84	264	6
TAP	84	288	0
TAP	84	300	7
TAP	84	312	0
TAP	84	324	7
TAP	84	336	0
TAP	84	348	7
TAP	84	360	0
BRK	85	0	1
BRK	85	0	6
BRK	85	48	3
BRK	85	48	4
BRK	85	96	2
BRK	85	96	7
BRK	85	120	2
BRK	85	120	7
BST	85	168	0
SSL	85	168	0	96	48	4
BRK	85	168	4
TAP	85	288	7
TAP	86	0	0
TAP	86	0	7
TAP	86	72	7
TAP	86	96	0
TAP	86	144	0
TAP	86	192	1
TAP	86	240	2
TAP	86	256	3
TAP	86	272	2
TAP	86	288	3
TAP	86	336	4
TAP	87	0	6
TAP	87	48	5
TAP	87	64	4
TAP	87	80	5
TAP	87	96	4
TAP	87	144	3
TAP	87	192	2
TAP	87	240	1
TAP	87	288	0
TAP	87	336	1
TAP	88	0	2
TAP	88	72	2
TAP	88	96	3
TAP	88	144	6
TAP	88	192	5
TAP	88	240	4
TAP	88	256	3
TAP	88	272	4
TAP	88	288	3
TAP	88	336	2
HLD	89	0	3	32
HLD	89	64	4	32
HLD	89	128	3	32
HLD	89	128	5	32
HLD	89	192	2	32
HLD	89	192	6	32
HLD	89	256	1	32
HLD	89	256	7	32
TAP	89	320	0
TAP	89	336	1
TAP	89	336	7
TAP	89	352	2
TAP	89	352	6
TAP	89	368	3
TAP	89	368	5
BST	90	0	4
SSL	90	0	4	96	672	0
SSL	90	0	4	96	672	0

T_REC_TAP	939
T_REC_BRK	44
T_REC_XTP	0
T_REC_HLD	43
T_REC_XHO	0
T_REC_STR	68
T_REC_BST	2
T_REC_XST	0
T_REC_TTP	0
T_REC_THO	0
T_REC_SLD	71
T_REC_ALL	1167
T_NUM_TAP	1007
T_NUM_BRK	46
T_NUM_HLD	43
T_NUM_SLD	71
T_NUM_ALL	1167
T_JUDGE_TAP	1053
T_JUDGE_HLD	77
T_JUDGE_SLD	71
T_JUDGE_ALL	1201
TTM_EACHPAIRS	177
TTM_SCR_TAP	503500
TTM_SCR_BRK	119600
TTM_SCR_HLD	43000
TTM_SCR_SLD	106500
TTM_SCR_ALL	772600
TTM_SCR_S	745000
TTM_SCR_SS	768000
TTM_RAT_ACV	10059

