VERSION	0.00.00	1.03.00
FES_MODE	0
BPM_DEF	165.000	165.000	165.000	165.000
MET_DEF	4	4
RESOLUTION	384
CLK_DEF	384
COMPATIBLE_CODE	MA2

BPM	0	0	165.000
MET	0	0	4	4

STR	1	0	0
SSL	1	0	0	96	528	4
STR	1	0	4
SSL	1	0	4	96	528	0
TAP	3	0	0
TAP	3	0	6
TAP	3	48	7
TAP	3	96	5
TAP	3	120	4
TAP	3	168	1
TAP	3	168	7
TAP	3	240	6
TAP	3	240	7
TAP	3	288	0
TAP	3	288	5
TAP	3	336	1
TAP	3	336	4
TAP	4	0	2
TAP	4	0	7
TAP	4	48	0
TAP	4	96	2
TAP	4	120	3
TAP	4	168	4
TAP	4	168	5
TAP	4	240	3
TAP	4	240	6
TAP	4	288	2
TAP	4	288	7
TAP	4	336	0
TAP	4	336	1
TAP	5	0	1
TAP	5	0	7
TAP	5	48	0
TAP	5	96	2
TAP	5	120	3
TAP	5	168	0
TAP	5	168	6
TAP	5	240	0
TAP	5	240	1
TAP	5	288	2
TAP	5	288	7
TAP	5	336	3
TAP	5	336	6
TAP	6	0	0
TAP	6	0	5
TAP	6	48	7
TAP	6	96	5
TAP	6	120	4
TAP	6	168	2
TAP	6	168	3
TAP	6	240	1
TAP	6	240	4
TAP	6	288	0
TAP	6	288	5
TAP	6	336	6
TAP	6	336	7
TAP	7	0	0
TAP	7	0	5
TAP	7	24	0
TAP	7	24	5
TAP	7	48	0
TAP	7	48	5
TAP	7	96	2
TAP	7	96	7
TAP	7	120	2
TAP	7	120	7
TAP	7	168	0
TAP	7	168	5
TAP	7	240	6
TAP	7	240	7
TAP	7	288	0
TAP	7	288	5
TAP	7	336	1
TAP	7	336	4
TAP	8	0	2
TAP	8	0	7
TAP	8	48	0
TAP	8	96	2
TAP	8	120	3
TAP	8	168	4
TAP	8	168	5
TAP	8	240	3
TAP	8	240	6
TAP	8	288	2
TAP	8	288	7
TAP	8	336	0
TAP	8	336	1
TAP	9	0	1
TAP	9	0	7
TAP	9	24	1
TAP	9	24	7
TAP	9	72	0
TAP	9	72	6
TAP	9	96	0
TAP	9	96	6
TAP	9	144	3
TAP	9	144	5
TAP	9	168	3
TAP	9	168	5
TAP	9	216	2
TAP	9	216	4
TAP	9	240	2
TAP	9	240	4
TAP	9	288	3
TAP	9	312	4
TAP	9	336	3
TAP	9	360	4
TAP	10	0	2
TAP	10	24	5
TAP	10	48	2
TAP	10	72	5
TAP	10	96	1
TAP	10	120	6
TAP	10	144	1
TAP	10	168	6
TAP	10	192	3
STR	10	192	7
SI_	10	192	7	96	48	3
TAP	10	216	2
TAP	10	216	6
TAP	10	240	1
TAP	10	240	5
TAP	10	264	0
TAP	10	264	4
BRK	10	288	7
STR	11	0	0
SI_	11	0	0	96	48	4
TAP	11	0	7
TAP	11	72	7
TAP	11	144	7
STR	11	192	6
SI_	11	192	6	96	48	3
TAP	11	192	7
TAP	11	264	7
TAP	11	336	7
STR	12	0	2
SI_	12	0	2	96	48	6
TAP	12	0	7
TAP	12	72	7
TAP	12	144	7
STR	12	192	4
SI_	12	192	4	96	48	0
TAP	12	192	7
TAP	12	264	7
TAP	12	336	7
HLD	13	0	3	96
TAP	13	48	7
HLD	13	96	5	96
TAP	13	144	0
HLD	13	192	4	96
TAP	13	240	7
HLD	13	288	2	96
TAP	13	336	0
HLD	14	0	3	96
TAP	14	48	6
HLD	14	96	4	48
TAP	14	144	1
TAP	14	192	0
TAP	14	216	7
TAP	14	240	0
TAP	14	264	7
TAP	15	0	6
TAP	15	0	7
TAP	15	48	6
TAP	15	48	7
TAP	15	96	0
TAP	15	96	1
TAP	15	144	0
TAP	15	144	1
TAP	15	192	3
TAP	15	192	5
TAP	15	240	2
TAP	15	264	1
TAP	15	264	3
TAP	15	312	5
TAP	15	336	4
TAP	15	336	6
TAP	16	0	3
TAP	16	0	7
TAP	16	32	3
TAP	16	32	7
TAP	16	64	3
TAP	16	64	7
TAP	16	96	2
TAP	16	96	6
TAP	16	128	2
TAP	16	128	6
TAP	16	160	2
TAP	16	160	6
TAP	16	192	1
TAP	16	192	5
TAP	16	224	1
TAP	16	224	5
TAP	16	256	1
TAP	16	256	5
STR	16	288	1
SI_	16	288	1	96	48	4
STR	16	288	5
SI_	16	288	5	96	48	0
TAP	16	300	2
TAP	16	312	3
TAP	16	324	4
TAP	16	336	5
TAP	16	348	6
TAP	16	360	7
TAP	16	372	0
BRK	17	0	1
BRK	17	0	5
STR	17	96	2
SI_	17	96	2	96	48	7
STR	17	96	6
SI_	17	96	6	96	48	3
BRK	17	192	2
BRK	17	192	6
TAP	17	288	0
TAP	17	300	1
TAP	17	312	2
TAP	17	324	3
TAP	17	336	4
TAP	17	348	5
TAP	17	360	6
TAP	17	372	7
TAP	18	0	0
TAP	18	0	4
TAP	18	24	0
TAP	18	24	4
TAP	18	72	2
TAP	18	72	3
TAP	18	96	2
TAP	18	96	3
TAP	18	144	3
TAP	18	144	7
TAP	18	168	3
TAP	18	168	7
TAP	18	216	4
TAP	18	216	5
TAP	18	240	4
TAP	18	240	5
BRK	18	288	0
TAP	19	0	2
TAP	19	0	5
TAP	19	48	4
TAP	19	72	3
TAP	19	96	4
TAP	19	144	3
TAP	19	168	4
TAP	19	192	3
TAP	19	240	4
TAP	19	264	3
TAP	19	288	4
TAP	19	336	3
TAP	19	360	4
TAP	20	0	2
TAP	20	48	4
TAP	20	72	3
TAP	20	96	5
TAP	20	144	3
TAP	20	168	4
TAP	20	192	2
TAP	20	240	4
TAP	20	264	3
TAP	20	288	5
TAP	20	336	2
TAP	20	360	3
TAP	21	0	1
TAP	21	48	5
TAP	21	72	4
TAP	21	96	6
TAP	21	144	2
TAP	21	168	3
TAP	21	192	1
TAP	21	240	5
TAP	21	264	4
TAP	21	288	6
TAP	21	336	2
TAP	21	360	4
TAP	22	0	3
TAP	22	24	5
TAP	22	48	4
TAP	22	72	5
TAP	22	96	2
TAP	22	120	3
TAP	22	144	2
TAP	22	168	6
TAP	22	192	5
TAP	22	216	6
TAP	22	240	1
TAP	22	264	2
TAP	22	288	1
TAP	22	312	6
TAP	22	336	7
TAP	22	360	6
STR	23	0	0
SI_	23	0	0	96	48	4
TAP	23	48	0
TAP	23	72	7
BRK	23	96	0
TAP	23	192	2
TAP	23	192	5
TAP	23	240	5
TAP	23	264	4
TAP	23	288	6
TAP	23	336	2
TAP	23	360	3
TAP	24	0	1
TAP	24	48	5
TAP	24	72	4
TAP	24	96	6
TAP	24	144	2
TAP	24	168	3
TAP	24	192	1
TAP	24	240	5
TAP	24	264	4
TAP	24	288	6
TAP	24	336	1
TAP	24	360	3
TAP	25	0	0
TAP	25	48	6
TAP	25	72	4
TAP	25	96	7
TAP	25	144	1
TAP	25	168	4
TAP	25	192	0
TAP	25	240	6
TAP	25	264	3
TAP	25	288	7
TAP	25	336	0
TAP	25	360	4
TAP	26	0	0
TAP	26	24	1
TAP	26	48	2
TAP	26	72	3
TAP	26	96	4
TAP	26	120	5
TAP	26	144	6
TAP	26	168	7
TAP	26	192	0
TAP	26	192	4
TAP	26	216	3
TAP	26	240	2
TAP	26	264	1
TAP	26	288	0
TAP	26	312	7
TAP	26	336	6
TAP	26	360	5
STR	27	0	3
SI_	27	0	3	96	48	0
STR	27	0	4
SI_	27	0	4	96	48	7
TAP	27	48	3
TAP	27	48	4
BRK	27	96	3
BRK	27	96	4
STR	27	192	1
SI_	27	192	1	96	48	4
TAP	27	192	6
TAP	27	240	1
STR	27	288	6
SI_	27	288	6	96	48	3
TAP	27	336	6
STR	28	0	0
SI_	28	0	0	96	48	4
TAP	28	48	0
STR	28	96	7
SI_	28	96	7	96	48	3
TAP	28	144	7
STR	28	192	2
SCL	28	192	2	96	48	7
TAP	28	240	2
STR	28	288	4
SI_	28	288	4	96	48	0
TAP	28	336	4
STR	29	0	3
SI_	29	0	3	96	48	7
TAP	29	48	3
STR	29	96	5
SCR	29	96	5	96	48	0
TAP	29	144	5
STR	29	192	2
SI_	29	192	2	96	48	7
TAP	29	240	2
STR	29	288	3
SI_	29	288	3	96	48	6
TAP	29	336	3
STR	30	0	0
SI_	30	0	0	96	48	4
TAP	30	48	0
TAP	30	96	7
TAP	30	144	7
TAP	30	192	7
TAP	30	216	6
TAP	30	240	5
TAP	30	264	4
TAP	30	288	3
TAP	30	312	2
TAP	30	336	1
TAP	30	360	0
STR	31	0	6
SI_	31	0	6	96	48	3
STR	31	0	7
SI_	31	0	7	96	48	2
TAP	31	48	6
TAP	31	48	7
BRK	31	96	6
BRK	31	96	7
TAP	31	192	0
STR	31	192	1
SI_	31	192	1	96	48	4
TAP	31	240	1
STR	31	288	5
SI_	31	288	5	96	48	0
TAP	31	336	5
STR	32	0	2
SI_	32	0	2	96	48	6
TAP	32	48	2
STR	32	96	7
SI_	32	96	7	96	48	3
TAP	32	144	7
STR	32	192	4
SI_	32	192	4	96	48	0
TAP	32	240	4
TAP	32	288	5
TAP	32	336	5
TAP	33	0	0
TAP	33	12	1
TAP	33	24	2
TAP	33	36	3
TAP	33	48	4
TAP	33	60	5
TAP	33	72	6
TAP	33	84	7
TAP	33	96	4
TAP	33	120	4
TAP	33	144	4
TAP	33	168	4
TAP	33	192	7
TAP	33	204	6
TAP	33	216	5
TAP	33	228	4
TAP	33	240	3
TAP	33	252	2
TAP	33	264	1
TAP	33	276	0
TAP	33	288	4
TAP	33	312	4
TAP	33	336	4
TAP	33	360	4
BRK	34	0	0
BRK	34	24	0
BRK	34	48	0
BRK	34	72	0
BRK	34	144	7
BRK	34	168	7
BRK	34	192	7
BRK	34	216	7
TAP	34	288	0
TAP	34	288	7
TAP	34	304	1
TAP	34	304	6
TAP	34	320	2
TAP	34	320	5
TAP	34	336	3
TAP	34	336	4
STR	35	0	1
SCR	35	0	1	96	48	4
TAP	35	0	6
TAP	35	96	5
STR	35	144	5
SCR	35	144	5	96	48	0
TAP	35	240	3
TAP	35	288	3
TAP	35	336	2
TAP	35	360	3
STR	36	0	2
SCL	36	0	2	96	48	7
TAP	36	96	6
STR	36	144	6
SCL	36	144	6	96	48	3
TAP	36	240	0
TAP	36	288	0
TAP	37	0	0
HLD	37	0	5	192
TAP	37	48	0
TAP	37	72	1
TAP	37	96	2
TAP	37	144	4
HLD	37	192	1	192
TAP	37	240	6
TAP	37	264	5
TAP	37	288	4
TAP	37	336	2
HLD	38	0	7	192
TAP	38	48	1
TAP	38	72	2
TAP	38	96	3
TAP	38	144	5
TAP	38	192	0
TAP	38	240	1
TAP	38	240	6
TAP	38	264	2
TAP	38	264	5
TAP	38	288	3
TAP	38	288	4
TAP	38	336	0
TAP	38	336	7
TAP	39	0	1
STR	39	0	6
SCL	39	0	6	96	48	3
TAP	39	96	2
STR	39	144	2
SCL	39	144	2	96	48	7
TAP	39	240	4
TAP	39	288	4
TAP	39	336	5
TAP	39	360	4
STR	40	0	5
SCR	40	0	5	96	48	0
TAP	40	96	1
STR	40	144	1
SCR	40	144	1	96	48	4
TAP	40	240	7
TAP	40	288	7
TAP	41	0	0
HLD	41	0	6	96
TAP	41	24	1
TAP	41	48	2
TAP	41	72	3
TAP	41	96	4
TAP	41	120	5
TAP	41	144	6
TAP	41	168	7
TAP	41	192	0
HLD	41	192	6	96
TAP	41	216	1
TAP	41	240	2
TAP	41	264	3
TAP	41	288	4
TAP	41	312	5
TAP	41	336	6
TAP	41	360	7
TAP	42	0	0
HLD	42	0	6	96
TAP	42	24	1
TAP	42	48	2
TAP	42	72	3
TAP	42	96	4
TAP	42	120	5
TAP	42	144	6
TAP	42	168	7
TAP	42	192	0
TAP	42	216	7
TAP	42	240	0
TAP	42	264	7
TAP	42	288	1
TAP	42	288	6
TAP	43	0	3
TAP	43	48	3
TAP	43	96	2
TAP	43	96	4
TAP	43	144	3
TAP	43	168	4
TAP	43	216	4
TAP	43	264	4
TAP	43	288	3
TAP	43	288	5
TAP	43	336	4
TAP	43	360	3
TAP	44	0	4
TAP	44	48	4
TAP	44	96	3
TAP	44	96	5
TAP	44	144	4
TAP	44	168	3
TAP	44	216	3
TAP	44	264	3
TAP	44	288	2
TAP	44	288	4
TAP	44	336	3
TAP	45	0	2
TAP	45	0	4
TAP	45	48	1
TAP	45	72	0
TAP	45	96	1
TAP	45	144	2
TAP	45	144	7
TAP	45	192	4
TAP	45	192	5
TAP	45	240	6
TAP	45	264	7
TAP	45	288	6
TAP	45	336	0
TAP	45	336	5
TAP	46	0	0
TAP	46	24	7
TAP	46	48	1
TAP	46	72	6
TAP	46	96	0
TAP	46	120	7
TAP	46	144	1
TAP	46	168	6
BRK	46	192	0
TAP	46	288	3
TAP	46	312	4
TAP	46	336	3
TAP	46	360	4
BRK	47	0	1
TAP	47	24	4
TAP	47	48	3
BRK	47	72	6
TAP	47	96	3
TAP	47	120	4
TAP	47	144	3
BRK	47	168	6
TAP	47	192	3
TAP	47	216	4
TAP	47	240	3
TAP	47	264	4
TAP	47	288	2
TAP	47	312	5
TAP	47	336	2
TAP	47	360	5
BRK	48	0	1
TAP	48	24	7
TAP	48	48	3
TAP	48	72	5
TAP	48	96	4
TAP	48	120	6
TAP	48	144	2
TAP	48	168	0
TAP	48	192	2
TAP	48	216	4
TAP	48	240	0
TAP	48	264	6
TAP	48	288	7
TAP	48	312	5
TAP	48	336	1
TAP	48	360	3
STR	49	0	2
SCL	49	0	2	96	480	5
TAP	49	192	4
TAP	50	192	4
STR	51	0	7
SCL	51	0	7	96	480	0
TAP	51	192	3
TAP	52	192	3
BRK	53	0	3
BRK	53	0	4
TAP	53	288	3
TAP	53	288	4
TAP	54	0	2
TAP	54	0	5
TAP	54	72	3
TAP	54	96	4
TAP	54	144	3
TAP	54	192	1
TAP	54	192	4
TAP	54	240	1
TAP	54	256	2
TAP	54	272	3
TAP	54	288	4
TAP	54	336	7
TAP	55	0	2
TAP	55	0	6
TAP	55	48	6
TAP	55	64	5
TAP	55	80	4
TAP	55	96	3
TAP	55	144	0
TAP	55	192	1
TAP	55	192	5
TAP	55	288	3
TAP	55	312	4
TAP	55	336	2
TAP	55	360	5
TAP	56	0	1
TAP	56	72	1
TAP	56	96	0
TAP	56	144	2
TAP	56	192	6
TAP	56	264	6
TAP	56	288	7
TAP	56	336	5
TAP	57	0	0
TAP	57	0	7
TAP	57	144	0
TAP	57	160	7
TAP	57	176	0
STR	57	192	7
SF_	57	192	7	96	48	3
BRK	57	288	7
TAP	58	0	0
STR	58	0	1
SI_	58	0	1	96	48	4
TAP	58	48	2
TAP	58	72	3
TAP	58	96	1
TAP	58	144	7
STR	58	192	6
SI_	58	192	6	96	48	3
TAP	58	192	7
TAP	58	240	5
TAP	58	264	4
TAP	58	288	6
TAP	58	336	0
TAP	59	0	0
STR	59	0	1
SI_	59	0	1	96	48	4
TAP	59	48	2
TAP	59	72	3
TAP	59	96	1
TAP	59	144	7
STR	59	192	7
SI_	59	192	7	96	48	3
TAP	59	216	0
TAP	59	240	6
TAP	59	264	1
TAP	59	288	7
TAP	59	336	0
STR	60	0	2
SI_	60	0	2	96	48	7
TAP	60	0	4
TAP	60	48	1
TAP	60	72	0
TAP	60	96	2
TAP	60	144	4
TAP	60	192	3
STR	60	192	5
SI_	60	192	5	96	48	0
TAP	60	240	6
TAP	60	264	7
TAP	60	288	5
TAP	60	336	3
TAP	61	48	0
TAP	61	48	1
TAP	61	96	2
TAP	61	96	4
TAP	61	120	2
TAP	61	120	4
TAP	61	168	6
TAP	61	168	7
TAP	61	240	3
TAP	61	240	5
TAP	61	288	2
TAP	61	288	6
TAP	61	336	1
TAP	61	336	7
STR	62	0	0
SI_	62	0	0	96	48	4
TAP	62	0	5
STR	62	48	4
SI_	62	48	4	96	48	7
TAP	62	96	5
TAP	62	120	5
STR	62	168	6
SCL	62	168	6	96	72	1
TAP	62	240	1
TAP	62	288	0
TAP	62	336	7
STR	63	0	7
SI_	63	0	7	96	48	3
STR	63	48	3
SI_	63	48	3	96	48	0
TAP	63	96	2
TAP	63	120	2
STR	63	168	1
SCR	63	168	1	96	72	6
TAP	63	240	6
TAP	63	288	7
TAP	63	336	0
STR	64	0	0
SI_	64	0	0	96	48	4
STR	64	48	4
SI_	64	48	4	96	48	7
TAP	64	96	5
TAP	64	120	5
STR	64	168	6
SCL	64	168	6	96	72	1
TAP	64	240	1
TAP	64	288	0
TAP	64	336	7
STR	65	0	7
SI_	65	0	7	96	48	3
STR	65	48	3
SI_	65	48	3	96	48	7
TAP	65	96	2
TAP	65	120	2
TAP	65	168	0
BRK	65	192	0
BRK	65	264	0
BRK	65	336	0
TAP	66	0	1
TAP	66	24	0
TAP	66	48	2
TAP	66	72	7
STR	66	96	3
SCL	66	96	3	96	36	0
TAP	66	120	6
TAP	66	144	4
TAP	66	168	5
TAP	66	240	6
TAP	66	264	7
TAP	66	288	5
TAP	66	312	0
TAP	66	336	4
TAP	66	360	1
TAP	67	0	2
TAP	67	0	3
TAP	67	48	6
TAP	67	48	7
TAP	67	96	4
TAP	67	96	5
TAP	67	120	4
TAP	67	120	5
TAP	67	168	0
TAP	67	168	1
STR	67	216	0
SI_	67	216	0	96	36	4
STR	67	216	7
SI_	67	216	7	96	36	3
TAP	67	228	1
TAP	67	228	6
TAP	67	240	2
TAP	67	240	5
TAP	67	252	3
TAP	67	252	4
BRK	67	288	0
BRK	67	288	7
TAP	68	0	2
TAP	68	24	5
TAP	68	48	2
TAP	68	72	5
TAP	68	96	1
TAP	68	120	6
TAP	68	144	1
TAP	68	168	6
TAP	68	192	0
TAP	68	216	7
TAP	68	240	0
TAP	68	264	7
TAP	68	288	0
TAP	68	300	1
TAP	68	312	2
TAP	68	324	3
TAP	68	336	4
TAP	68	348	5
TAP	68	360	6
TAP	68	372	7
TAP	69	0	0
TAP	69	0	4
TAP	69	24	0
TAP	69	24	4
TAP	69	72	3
TAP	69	72	5
TAP	69	96	3
TAP	69	96	5
TAP	69	144	3
TAP	69	144	7
TAP	69	168	3
TAP	69	168	7
TAP	69	216	2
TAP	69	216	4
TAP	69	240	2
TAP	69	240	4
BRK	69	288	0
STR	70	0	1
SCR	70	0	1	96	72	4
TAP	70	24	0
TAP	70	48	1
TAP	70	96	1
TAP	70	96	4
TAP	70	120	5
TAP	70	144	6
HLD	70	168	7	72
TAP	70	240	1
TAP	70	264	0
TAP	70	288	2
TAP	70	312	7
TAP	70	336	3
TAP	70	360	6
TAP	71	0	4
TAP	71	0	5
TAP	71	48	3
TAP	71	48	6
TAP	71	96	3
STR	71	120	4
SCR	71	120	4	96	48	7
TAP	71	168	1
TAP	71	168	4
TAP	71	216	0
TAP	71	216	4
TAP	71	240	1
TAP	71	264	2
STR	71	288	0
SI_	71	288	0	96	48	4
TAP	71	288	3
TAP	71	304	1
TAP	71	320	2
TAP	71	336	3
TAP	71	352	4
TAP	71	368	5
TAP	72	0	0
TAP	72	0	6
TAP	72	48	7
TAP	72	96	3
TAP	72	120	4
TAP	72	168	3
TAP	72	168	5
TAP	72	216	2
TAP	72	216	6
TAP	72	240	1
TAP	72	240	5
TAP	72	264	0
TAP	72	264	4
TAP	72	288	3
TAP	72	288	7
TAP	72	304	6
TAP	72	320	5
TAP	72	336	4
TAP	72	352	3
TAP	72	368	2
TAP	73	0	1
TAP	73	0	5
TAP	73	48	3
TAP	73	48	7
TAP	73	96	0
TAP	73	96	4
TAP	73	120	0
TAP	73	120	4
TAP	73	168	1
STR	73	168	7
SI_	73	168	7	96	48	3
TAP	73	216	6
TAP	73	240	1
TAP	73	264	7
BRK	73	288	0
STR	74	0	3
SI_	74	0	3	96	48	0
STR	74	0	4
SI_	74	0	4	96	48	7
TAP	74	48	2
TAP	74	72	5
BRK	74	96	3
BRK	74	96	4
TAP	74	192	1
TAP	74	192	6
TAP	74	240	6
TAP	74	264	7
TAP	74	288	5
TAP	74	312	0
TAP	74	336	4
TAP	74	360	1
TAP	75	0	2
TAP	75	0	3
TAP	75	48	1
TAP	75	48	4
TAP	75	96	4
STR	75	120	3
SCL	75	120	3	96	48	0
TAP	75	168	3
TAP	75	168	6
TAP	75	216	3
TAP	75	216	7
TAP	75	240	6
TAP	75	264	5
TAP	75	288	4
STR	75	288	7
SI_	75	288	7	96	48	3
TAP	75	304	6
TAP	75	320	5
TAP	75	336	4
TAP	75	352	3
TAP	75	368	2
TAP	76	0	1
TAP	76	0	7
TAP	76	48	0
TAP	76	72	0
TAP	76	96	1
TAP	76	96	6
TAP	76	144	0
TAP	76	168	7
TAP	76	192	1
TAP	76	216	6
TAP	76	240	2
TAP	76	264	5
TAP	76	288	3
TAP	76	304	4
TAP	76	320	3
TAP	76	336	4
TAP	76	352	3
TAP	76	368	4
TAP	77	0	3
TAP	77	0	5
TAP	77	48	2
TAP	77	48	4
TAP	77	96	3
TAP	77	96	7
TAP	77	120	3
TAP	77	120	7
STR	77	168	0
SI_	77	168	0	96	48	4
TAP	77	168	6
BRK	77	288	7
STR	78	0	0
SCL	78	0	0	96	48	5
TAP	78	0	7
TAP	78	48	1
TAP	78	96	0
TAP	78	96	2
STR	78	144	3
SCL	78	144	3	96	48	0
TAP	78	192	4
TAP	78	240	3
TAP	78	240	5
TAP	78	288	6
TAP	78	336	7
TAP	78	360	0
STR	79	0	7
SCR	79	0	7	96	48	2
TAP	79	48	6
TAP	79	96	5
TAP	79	96	7
STR	79	144	4
SCR	79	144	4	96	48	7
TAP	79	192	3
TAP	79	240	2
TAP	79	240	4
TAP	79	288	1
TAP	79	336	0
TAP	80	0	0
TAP	80	0	4
TAP	80	24	1
TAP	80	48	2
TAP	80	48	4
TAP	80	72	3
TAP	80	96	0
TAP	80	96	4
TAP	80	120	5
TAP	80	144	0
TAP	80	144	6
TAP	80	168	7
TAP	80	192	0
TAP	80	192	4
TAP	80	216	1
TAP	80	240	2
TAP	80	240	4
TAP	80	264	3
TAP	80	288	0
TAP	80	288	4
TAP	80	312	5
TAP	80	336	0
TAP	80	336	6
TAP	80	360	7
TAP	81	0	0
TAP	81	0	4
TAP	81	48	2
TAP	81	48	6
TAP	81	96	1
TAP	81	96	4
TAP	81	120	1
TAP	81	120	4
TAP	81	168	3
STR	81	168	7
SCL	81	168	7	96	36	4
TAP	81	216	0
TAP	81	216	7
TAP	81	240	1
TAP	81	264	2
BRK	81	288	3
TAP	82	0	1
TAP	82	24	0
TAP	82	48	2
TAP	82	72	7
TAP	82	96	2
TAP	82	120	3
TAP	82	144	1
TAP	82	168	4
TAP	82	192	7
TAP	82	216	6
TAP	82	240	0
TAP	82	264	5
TAP	82	288	4
TAP	82	312	5
TAP	82	336	3
TAP	82	360	6
TAP	83	0	0
TAP	83	0	1
TAP	83	48	2
TAP	83	48	7
TAP	83	96	1
TAP	83	120	7
TAP	83	144	0
STR	83	192	7
SF_	83	192	7	96	48	3
TAP	83	240	6
TAP	83	264	0
TAP	83	288	7
TAP	84	0	0
TAP	84	24	7
TAP	84	48	2
TAP	84	72	5
TAP	84	96	1
TAP	84	120	6
TAP	84	144	3
TAP	84	168	4
TAP	84	192	0
TAP	84	204	1
TAP	84	216	2
TAP	84	228	3
TAP	84	240	4
TAP	84	252	5
TAP	84	264	6
TAP	84	276	7
TAP	84	288	0
TAP	84	288	4
TAP	84	300	3
TAP	84	312	2
TAP	84	324	1
TAP	84	336	0
TAP	84	348	7
TAP	84	360	6
TAP	84	372	5
TAP	85	0	0
TAP	85	0	4
TAP	85	48	3
TAP	85	48	7
STR	85	96	1
SI_	85	96	1	96	24	6
STR	85	96	5
SI_	85	96	5	96	24	2
TAP	85	120	2
TAP	85	120	6
TAP	85	168	1
TAP	85	168	5
BRK	85	288	0
TAP	86	0	2
STR	86	0	3
SI_	86	0	3	96	192	7
TAP	86	72	3
TAP	86	96	2
TAP	86	144	2
TAP	86	192	2
TAP	86	240	2
TAP	86	264	1
TAP	86	288	0
TAP	86	336	6
TAP	87	0	6
STR	87	0	7
SI_	87	0	7	96	192	3
TAP	87	48	6
TAP	87	72	5
TAP	87	96	4
TAP	87	144	2
TAP	87	192	1
TAP	87	240	0
TAP	87	288	7
TAP	87	336	6
STR	88	0	4
SI_	88	0	4	96	192	0
TAP	88	0	5
TAP	88	72	4
TAP	88	96	5
TAP	88	144	5
TAP	88	192	5
TAP	88	240	5
TAP	88	264	6
TAP	88	288	7
TAP	88	336	1
TAP	89	0	3
TAP	89	0	7
TAP	89	64	2
TAP	89	64	6
TAP	89	128	1
TAP	89	128	5
TAP	89	192	0
TAP	89	192	4
TAP	89	256	3
TAP	89	256	7
TAP	89	320	2
TAP	89	320	6
TAP	89	328	5
TAP	89	336	4
TAP	89	344	3
TAP	89	352	2
TAP	89	360	1
TAP	89	368	0
TAP	89	376	7
STR	90	0	3
SSR	90	0	3	96	672	7
STR	90	0	6
SCL	90	0	6	96	672	1

T_REC_TAP	968
T_REC_BRK	39
T_REC_XTP	0
T_REC_HLD	13
T_REC_XHO	0
T_REC_STR	85
T_REC_BST	0
T_REC_XST	0
T_REC_TTP	0
T_REC_THO	0
T_REC_SLD	85
T_REC_ALL	1190
T_NUM_TAP	1053
T_NUM_BRK	39
T_NUM_HLD	13
T_NUM_SLD	85
T_NUM_ALL	1190
T_JUDGE_TAP	1092
T_JUDGE_HLD	31
T_JUDGE_SLD	85
T_JUDGE_ALL	1208
TTM_EACHPAIRS	220
TTM_SCR_TAP	526500
TTM_SCR_BRK	101400
TTM_SCR_HLD	13000
TTM_SCR_SLD	127500
TTM_SCR_ALL	768400
TTM_SCR_S	741600
TTM_SCR_SS	764500
TTM_RAT_ACV	10051

