VERSION	0.00.00	1.03.00
FES_MODE	0
BPM_DEF	165.000	165.000	165.000	165.000
MET_DEF	4	4
RESOLUTION	384
CLK_DEF	384
COMPATIBLE_CODE	MA2

BPM	0	0	165.000

STR	1	0	0
SSL	1	0	0	96	480	4
TAP	3	0	5
TAP	3	48	5
TAP	3	96	3
TAP	3	144	3
TAP	3	192	4
TAP	3	240	4
TAP	3	288	2
TAP	3	336	3
TAP	4	0	4
TAP	4	48	4
TAP	4	96	3
TAP	4	144	3
TAP	4	192	5
TAP	4	240	5
TAP	4	288	4
STR	4	288	6
SSL	4	288	6	96	192	2
TAP	5	288	1
TAP	5	288	3
TAP	6	0	2
TAP	6	48	2
TAP	6	96	3
TAP	6	144	1
TAP	6	192	5
TAP	6	240	5
TAP	6	288	4
TAP	6	288	6
TAP	7	0	7
TAP	7	48	7
TAP	7	96	1
TAP	7	144	1
TAP	7	192	6
TAP	7	240	6
TAP	7	288	0
TAP	7	336	7
TAP	8	0	2
TAP	8	48	2
TAP	8	96	4
TAP	8	144	4
TAP	8	192	0
TAP	8	240	0
HLD	8	288	1	96
TAP	8	288	7
HLD	9	0	2	72
HLD	9	72	3	72
HLD	9	144	4	72
TAP	9	216	5
TAP	9	288	3
TAP	9	288	6
TAP	10	0	1
TAP	10	0	6
TAP	10	48	1
TAP	10	48	6
TAP	10	96	2
TAP	10	96	5
TAP	10	144	2
TAP	10	144	5
TAP	10	192	3
TAP	10	192	4
TAP	10	240	3
TAP	10	240	4
BRK	10	288	1
BRK	10	288	6
HLD	11	0	2	72
TAP	11	72	3
TAP	11	144	1
TAP	11	144	4
HLD	11	192	5	72
TAP	11	264	4
TAP	11	336	3
TAP	11	336	6
HLD	12	0	2	72
TAP	12	72	3
TAP	12	144	1
TAP	12	144	4
STR	12	192	1
SI_	12	192	1	96	48	4
STR	12	192	4
SI_	12	192	4	96	48	7
TAP	13	0	6
TAP	13	48	4
TAP	13	96	5
TAP	13	144	5
TAP	13	192	1
TAP	13	240	3
TAP	13	288	2
TAP	13	336	2
TAP	14	0	3
TAP	14	0	5
TAP	14	48	5
TAP	14	96	2
TAP	14	96	4
TAP	14	144	2
HLD	14	192	1	48
HLD	14	192	5	48
TAP	14	264	1
TAP	14	264	5
HLD	15	0	3	48
HLD	15	0	5	48
HLD	15	96	3	48
HLD	15	96	5	48
HLD	15	192	2	48
HLD	15	192	4	48
HLD	15	288	2	48
HLD	15	288	4	48
TAP	16	0	3
TAP	16	32	3
TAP	16	64	3
TAP	16	96	4
TAP	16	128	4
TAP	16	160	4
TAP	16	192	2
TAP	16	224	2
TAP	16	256	2
BRK	16	288	1
BRK	16	288	3
STR	17	0	4
SI_	17	0	4	96	48	0
TAP	17	0	6
TAP	17	192	1
STR	17	192	7
SI_	17	192	7	96	48	3
HLD	18	0	1	72
HLD	18	72	3	72
HLD	18	144	4	72
HLD	18	216	6	72
BRK	18	288	7
TAP	19	0	5
TAP	19	48	5
TAP	19	96	3
TAP	19	144	3
TAP	19	192	5
TAP	19	240	5
TAP	19	288	0
TAP	19	336	0
TAP	20	0	4
TAP	20	48	4
TAP	20	96	1
TAP	20	144	2
TAP	20	192	4
TAP	20	240	3
TAP	20	240	5
TAP	20	288	3
TAP	20	288	5
TAP	21	0	2
TAP	21	48	2
TAP	21	96	7
TAP	21	144	6
TAP	21	192	2
TAP	21	240	1
TAP	21	240	3
STR	21	288	1
SI_	21	288	1	96	48	4
TAP	21	288	3
STR	22	0	7
SI_	22	0	7	96	48	3
TAP	22	96	1
TAP	22	192	1
TAP	22	240	0
TAP	22	240	2
STR	22	288	0
SI_	22	288	0	96	48	3
SI_	22	288	0	96	48	5
TAP	22	288	2
BRK	23	96	2
BRK	23	96	6
TAP	23	192	1
TAP	23	240	1
TAP	23	288	4
TAP	23	336	4
TAP	24	0	1
TAP	24	48	1
TAP	24	96	7
TAP	24	144	6
TAP	24	192	2
TAP	24	240	1
TAP	24	240	3
TAP	24	288	1
TAP	24	288	3
TAP	25	0	6
TAP	25	48	6
TAP	25	96	3
TAP	25	144	2
TAP	25	192	7
TAP	25	240	0
TAP	25	240	6
TAP	25	288	0
STR	25	288	6
SXL	25	288	6	96	240	1
TAP	26	288	2
TAP	26	288	3
BRK	27	0	0
BRK	27	0	7
BRK	27	48	1
BRK	27	48	6
BRK	27	96	2
BRK	27	96	5
TAP	27	192	3
TAP	27	240	3
TAP	27	288	7
TAP	27	336	7
TAP	28	0	1
TAP	28	48	1
TAP	28	96	7
TAP	28	144	6
TAP	28	192	2
STR	28	192	5
SCR	28	192	5	96	48	0
TAP	28	288	3
TAP	29	0	2
TAP	29	48	2
TAP	29	96	6
TAP	29	144	5
TAP	29	192	1
STR	29	192	4
SCR	29	192	4	96	48	7
STR	29	288	0
SXL	29	288	0	96	240	3
TAP	30	288	4
TAP	30	288	5
STR	31	0	3
SI_	31	0	3	96	48	7
BRK	31	96	4
TAP	31	192	6
TAP	31	240	6
TAP	31	288	3
TAP	31	336	3
TAP	32	0	5
TAP	32	48	5
TAP	32	96	0
TAP	32	144	1
STR	32	192	2
SI_	32	192	2	96	48	6
TAP	32	192	4
STR	32	288	5
SCR	32	288	5	96	192	2
HLD	33	0	4	192
TAP	33	288	1
TAP	33	288	6
BRK	34	0	2
TAP	34	24	3
TAP	34	48	2
TAP	34	72	3
BRK	34	144	5
TAP	34	168	4
TAP	34	192	5
TAP	34	216	4
TAP	34	288	3
TAP	34	288	6
STR	35	0	3
SCL	35	0	3	96	96	0
TAP	35	96	7
STR	35	192	6
SCL	35	192	6	96	96	3
TAP	35	288	2
HLD	36	0	1	96
TAP	36	96	0
TAP	36	192	2
TAP	36	192	3
TAP	36	288	1
TAP	36	288	4
STR	37	0	6
SI_	37	0	6	96	48	3
HLD	37	0	7	96
STR	37	192	0
SI_	37	192	0	96	48	3
HLD	37	192	7	96
TAP	38	0	5
TAP	38	48	4
TAP	38	96	3
TAP	38	96	6
TAP	38	192	2
TAP	38	240	3
TAP	38	288	1
TAP	38	288	4
STR	39	0	4
SCR	39	0	4	96	96	7
TAP	39	96	0
STR	39	192	1
SCR	39	192	1	96	96	4
TAP	39	288	5
HLD	40	0	6	96
TAP	40	96	7
STR	40	192	0
SCR	40	192	0	96	48	2
STR	40	192	5
SCL	40	192	5	96	48	3
TAP	41	0	2
TAP	41	24	3
TAP	41	48	2
TAP	41	72	3
TAP	41	96	2
TAP	41	120	3
TAP	41	144	2
TAP	41	192	6
TAP	41	216	4
TAP	41	240	6
TAP	41	264	4
TAP	41	288	6
TAP	41	312	4
TAP	41	336	6
TAP	42	0	1
TAP	42	24	0
TAP	42	48	1
TAP	42	72	0
TAP	42	96	1
TAP	42	120	0
TAP	42	144	1
TAP	42	192	3
TAP	42	192	5
BRK	42	288	7
STR	43	0	2
SCL	43	0	2	96	96	7
TAP	43	96	6
STR	43	192	5
SCL	43	192	5	96	96	2
TAP	43	288	1
HLD	44	0	0	96
TAP	44	96	7
TAP	44	192	1
TAP	44	192	6
TAP	44	288	3
TAP	44	288	4
HLD	45	0	4	96
STR	45	0	5
SI_	45	0	5	96	48	0
STR	45	192	3
SI_	45	192	3	96	48	0
HLD	45	192	4	96
TAP	46	0	7
TAP	46	24	0
TAP	46	48	6
TAP	46	72	1
TAP	46	96	7
TAP	46	120	0
TAP	46	144	6
TAP	46	168	1
BRK	46	192	7
TAP	46	288	2
TAP	46	288	5
HLD	47	0	1	48
HLD	47	0	3	48
HLD	47	72	2	48
HLD	47	72	4	48
HLD	47	144	3	48
HLD	47	144	5	48
HLD	47	216	4	48
HLD	47	216	6	48
TAP	47	288	4
TAP	47	288	6
STR	48	0	5
SI_	48	0	5	96	48	2
STR	48	0	6
SI_	48	0	6	96	48	1
BST	48	192	3
SI_	48	192	3	96	48	7
TAP	48	192	4
BST	48	288	6
SXR	48	288	6	96	384	2
HLD	49	0	0	576
TAP	50	192	1
STR	50	288	2
SXL	50	288	2	96	384	6
HLD	51	0	0	576
TAP	52	192	7
BRK	53	0	3
BRK	53	0	4
TAP	54	0	3
STR	54	0	5
SUL	54	0	5	96	288	4
TAP	54	192	2
STR	55	0	1
SXL	55	0	1	96	288	4
TAP	55	192	6
STR	56	0	7
SXR	56	0	7	96	288	4
TAP	56	192	2
STR	57	0	0
SUL	57	0	0	96	96	4
SUR	57	0	0	96	96	4
BRK	57	288	4
TAP	58	0	5
TAP	58	48	5
TAP	58	96	4
STR	58	96	6
SI_	58	96	6	96	48	2
TAP	58	192	0
TAP	58	288	1
TAP	58	288	3
TAP	59	0	2
TAP	59	48	2
STR	59	96	1
SI_	59	96	1	96	48	5
TAP	59	96	3
TAP	59	192	7
TAP	59	288	4
TAP	59	288	6
TAP	60	0	5
TAP	60	48	5
TAP	60	96	4
TAP	60	144	6
TAP	60	192	3
TAP	60	240	3
TAP	60	288	4
HLD	60	336	2	96
TAP	61	48	3
HLD	61	96	1	72
TAP	61	96	4
TAP	61	168	0
TAP	61	240	2
TAP	61	240	7
BRK	61	288	2
BRK	61	288	7
TAP	62	0	1
TAP	62	48	1
TAP	62	96	3
TAP	62	144	3
TAP	62	192	4
TAP	62	240	4
TAP	62	288	6
TAP	62	336	6
TAP	63	0	2
TAP	63	48	2
TAP	63	96	0
TAP	63	144	0
TAP	63	192	7
TAP	63	240	7
TAP	63	288	5
TAP	63	336	5
TAP	64	0	3
TAP	64	48	3
TAP	64	96	4
TAP	64	144	2
TAP	64	192	5
TAP	64	240	5
TAP	64	288	4
TAP	64	336	6
TAP	65	0	1
TAP	65	48	1
STR	65	96	7
SSR	65	96	7	96	144	3
TAP	65	144	0
TAP	66	0	1
TAP	66	48	1
TAP	66	96	3
TAP	66	144	4
TAP	66	192	6
TAP	66	240	6
TAP	66	288	4
TAP	66	336	3
TAP	67	0	1
TAP	67	48	1
TAP	67	96	0
TAP	67	96	2
TAP	67	144	0
TAP	67	144	2
STR	67	192	3
SV_	67	192	3	96	48	0
STR	67	192	7
SV_	67	192	7	96	48	4
TAP	67	240	3
TAP	67	240	7
TAP	68	0	1
TAP	68	48	1
TAP	68	96	6
TAP	68	144	6
TAP	68	192	0
TAP	68	216	7
TAP	68	240	0
TAP	68	264	7
TAP	68	288	0
TAP	68	312	7
TAP	68	336	0
TAP	68	360	7
BRK	69	0	0
TAP	69	72	1
TAP	69	72	3
BRK	69	144	7
TAP	69	216	4
TAP	69	216	6
BRK	69	288	3
BRK	69	288	4
STR	70	0	1
SI_	70	0	1	96	48	4
TAP	70	48	1
STR	70	96	5
SI_	70	96	5	96	48	0
TAP	70	144	5
TAP	70	192	3
TAP	70	240	2
TAP	70	288	1
TAP	70	288	7
STR	71	0	6
SI_	71	0	6	96	48	3
TAP	71	48	6
STR	71	96	2
SI_	71	96	2	96	48	7
TAP	71	144	2
TAP	71	192	4
TAP	71	240	5
TAP	71	288	0
TAP	71	288	6
TAP	72	0	2
TAP	72	0	4
TAP	72	48	3
TAP	72	96	2
TAP	72	144	0
TAP	72	192	3
TAP	72	192	5
TAP	72	240	4
TAP	72	288	5
TAP	72	336	7
TAP	73	0	0
TAP	73	0	7
TAP	73	48	1
TAP	73	48	6
STR	73	96	2
SI_	73	96	2	96	48	6
STR	73	96	5
SI_	73	96	5	96	48	1
TAP	73	120	2
TAP	73	120	5
TAP	73	288	3
TAP	73	288	4
STR	74	0	5
SI_	74	0	5	96	48	0
TAP	74	48	5
STR	74	96	1
SI_	74	96	1	96	48	4
TAP	74	144	1
TAP	74	192	7
TAP	74	240	6
TAP	74	288	3
TAP	74	288	5
STR	75	0	2
SI_	75	0	2	96	48	7
TAP	75	48	2
STR	75	96	6
SI_	75	96	6	96	48	3
TAP	75	144	6
TAP	75	192	0
TAP	75	240	1
TAP	75	288	2
TAP	75	288	4
TAP	76	0	0
TAP	76	48	1
TAP	76	96	2
TAP	76	96	7
TAP	76	144	6
STR	76	192	0
SV_	76	192	0	96	48	3
STR	76	192	5
SCR	76	192	5	96	48	7
TAP	77	0	0
TAP	77	0	7
TAP	77	48	1
TAP	77	48	6
STR	77	96	2
SI_	77	96	2	96	48	7
STR	77	96	5
SI_	77	96	5	96	48	0
TAP	77	120	2
TAP	77	120	5
BRK	77	288	3
BRK	77	288	4
TAP	78	0	2
TAP	78	0	6
STR	78	48	6
SCL	78	48	6	96	48	3
TAP	78	96	7
TAP	78	144	0
TAP	78	192	1
TAP	78	240	2
TAP	78	240	5
TAP	78	288	3
TAP	78	288	6
TAP	79	0	1
TAP	79	0	5
STR	79	48	1
SCR	79	48	1	96	48	4
TAP	79	96	0
TAP	79	144	7
TAP	79	192	6
TAP	79	240	2
TAP	79	240	5
TAP	79	288	1
TAP	79	288	4
STR	80	0	2
SCL	80	0	2	96	48	0
STR	80	0	3
SI_	80	0	3	96	48	7
STR	80	192	4
SI_	80	192	4	96	48	0
STR	80	192	5
SCR	80	192	5	96	48	7
BRK	81	0	1
BRK	81	0	6
BRK	81	48	2
BRK	81	48	5
BST	81	96	3
SI_	81	96	3	96	48	0
BST	81	96	4
SI_	81	96	4	96	48	7
BRK	81	120	3
BRK	81	120	4
TAP	81	288	3
TAP	81	288	4
TAP	82	0	2
TAP	82	0	6
STR	82	48	2
SCL	82	48	2	96	48	7
TAP	82	96	3
TAP	82	144	4
TAP	82	192	5
TAP	82	240	1
TAP	82	240	6
TAP	82	288	2
HLD	82	288	7	96
TAP	83	0	0
TAP	83	48	1
TAP	83	96	2
TAP	83	96	7
TAP	83	144	6
BRK	83	192	4
BRK	83	192	5
BRK	83	240	2
BRK	83	240	3
BRK	83	288	1
BRK	83	288	4
TAP	84	0	5
TAP	84	48	4
TAP	84	48	6
TAP	84	96	2
TAP	84	144	1
TAP	84	144	3
TAP	84	192	0
TAP	84	216	7
TAP	84	240	0
TAP	84	264	7
TAP	84	288	0
TAP	84	312	7
TAP	84	336	0
BRK	85	0	1
BRK	85	0	6
BRK	85	48	2
BRK	85	48	5
BST	85	96	3
SI_	85	96	3	96	48	7
BST	85	96	4
SI_	85	96	4	96	48	0
BRK	85	120	3
BRK	85	120	4
TAP	85	288	1
TAP	85	288	6
STR	86	0	7
SXR	86	0	7	96	288	4
STR	87	0	1
SXR	87	0	1	96	288	4
STR	88	0	5
SXL	88	0	5	96	288	4
HLD	89	0	2	64
HLD	89	64	3	64
HLD	89	128	4	64
HLD	89	192	5	64
HLD	89	256	6	64
STR	89	320	7
SSR	89	320	7	96	736	3
BRK	90	0	0

T_REC_TAP	431
T_REC_BRK	48
T_REC_XTP	0
T_REC_HLD	47
T_REC_XHO	0
T_REC_STR	65
T_REC_BST	6
T_REC_XST	0
T_REC_TTP	0
T_REC_THO	0
T_REC_SLD	73
T_REC_ALL	670
T_NUM_TAP	496
T_NUM_BRK	54
T_NUM_HLD	47
T_NUM_SLD	73
T_NUM_ALL	670
T_JUDGE_TAP	550
T_JUDGE_HLD	98
T_JUDGE_SLD	73
T_JUDGE_ALL	721
TTM_EACHPAIRS	129
TTM_SCR_TAP	248000
TTM_SCR_BRK	140400
TTM_SCR_HLD	47000
TTM_SCR_SLD	109500
TTM_SCR_ALL	544900
TTM_SCR_S	523350
TTM_SCR_SS	539500
TTM_RAT_ACV	10100

