VERSION	0.00.00	1.03.00
FES_MODE	0
BPM_DEF	165.000	165.000	165.000	165.000
MET_DEF	4	4
RESOLUTION	384
CLK_DEF	384
COMPATIBLE_CODE	MA2

BPM	0	0	165.000

TAP	3	0	2
TAP	3	96	3
TAP	3	192	3
TAP	3	192	4
TAP	3	288	3
TAP	3	288	4
TAP	4	0	5
TAP	4	96	4
TAP	4	192	3
TAP	4	192	4
STR	4	288	2
SSL	4	288	2	96	384	6
TAP	6	192	0
TAP	6	192	7
TAP	6	288	0
TAP	6	288	7
TAP	7	0	6
TAP	7	96	5
TAP	7	192	3
TAP	7	192	4
TAP	7	288	2
TAP	7	288	5
TAP	8	0	1
TAP	8	96	2
TAP	8	192	3
TAP	8	192	4
TAP	8	288	2
TAP	8	288	5
TAP	9	0	3
TAP	9	48	3
TAP	9	96	3
TAP	9	192	4
TAP	9	240	4
STR	9	288	4
SSL	9	288	4	96	288	0
TAP	11	0	1
TAP	11	96	2
TAP	11	96	3
TAP	11	192	6
TAP	11	288	4
TAP	11	288	5
TAP	12	0	1
TAP	12	96	2
TAP	12	96	3
TAP	12	192	3
TAP	12	192	4
TAP	12	288	4
TAP	12	288	5
TAP	13	0	6
TAP	13	48	6
TAP	13	96	6
TAP	13	192	0
TAP	13	240	0
TAP	13	288	0
TAP	14	0	0
TAP	14	0	7
TAP	14	96	0
TAP	14	96	7
HLD	14	192	1	72
HLD	14	192	6	72
STR	15	0	2
SI_	15	0	2	96	144	7
STR	15	0	3
SI_	15	0	3	96	144	6
STR	16	0	4
SI_	16	0	4	96	144	1
STR	16	0	5
SI_	16	0	5	96	144	0
HLD	17	0	2	96
HLD	17	0	3	96
HLD	17	192	4	96
HLD	17	192	6	96
TAP	18	0	0
TAP	18	0	7
TAP	18	96	1
TAP	18	96	6
TAP	18	192	2
TAP	18	192	5
BRK	18	288	3
BRK	18	288	4
TAP	19	0	3
TAP	19	96	2
TAP	19	192	1
TAP	19	192	3
TAP	19	288	4
TAP	20	0	5
TAP	20	96	4
TAP	20	96	6
TAP	20	192	3
TAP	20	288	3
TAP	20	288	4
HLD	21	0	2	96
TAP	21	96	3
HLD	21	192	5	96
STR	21	288	4
SUL	21	288	4	96	192	0
TAP	22	288	1
TAP	22	288	7
HLD	23	0	2	96
TAP	23	96	3
TAP	23	192	2
TAP	23	288	1
TAP	23	288	3
TAP	24	0	4
TAP	24	96	5
TAP	24	192	4
TAP	24	192	6
TAP	24	288	3
HLD	25	0	2	96
HLD	25	0	4	96
HLD	25	192	3	96
HLD	25	192	5	96
TAP	26	0	2
TAP	26	48	2
TAP	26	96	3
TAP	26	192	5
TAP	26	240	5
TAP	26	288	4
TAP	27	0	2
TAP	27	0	3
TAP	27	48	2
TAP	27	48	3
TAP	27	96	2
TAP	27	96	3
TAP	27	192	1
TAP	27	192	4
TAP	27	288	0
TAP	28	0	7
TAP	28	96	6
TAP	28	192	4
TAP	28	192	5
TAP	28	288	4
TAP	28	288	5
HLD	29	0	6	96
TAP	29	96	4
HLD	29	192	1	96
TAP	29	288	3
TAP	30	0	4
TAP	30	0	5
TAP	30	96	3
TAP	30	96	6
TAP	30	192	2
TAP	30	192	7
TAP	31	0	4
TAP	31	0	5
TAP	31	48	4
TAP	31	48	5
TAP	31	96	4
TAP	31	96	5
TAP	31	192	3
TAP	31	192	6
TAP	31	288	7
TAP	32	0	0
TAP	32	96	1
TAP	32	192	2
TAP	32	192	3
TAP	32	288	2
TAP	32	288	3
HLD	33	0	4	96
HLD	33	0	5	96
HLD	33	192	2	96
HLD	33	192	3	96
TAP	34	0	1
TAP	34	0	4
TAP	34	96	2
TAP	34	96	5
TAP	34	192	3
TAP	34	192	6
BRK	34	288	7
HLD	35	0	4	96
HLD	35	0	6	96
TAP	35	192	4
TAP	35	192	6
TAP	35	288	5
HLD	36	0	3	96
HLD	36	0	4	96
TAP	36	192	3
TAP	36	192	4
STR	36	288	2
SCL	36	288	2	96	288	6
TAP	38	0	5
TAP	38	96	5
TAP	38	192	4
TAP	38	192	6
HLD	39	0	1	96
HLD	39	0	3	96
TAP	39	192	1
TAP	39	192	3
TAP	39	288	2
HLD	40	0	3	96
HLD	40	0	4	96
TAP	40	192	3
TAP	40	192	4
STR	40	288	5
SCR	40	288	5	96	288	1
TAP	42	0	2
TAP	42	96	2
BRK	42	192	1
BRK	42	192	3
HLD	43	0	1	96
HLD	43	0	3	96
HLD	43	192	2	96
HLD	43	192	4	96
HLD	44	0	3	96
HLD	44	0	5	96
TAP	44	192	3
TAP	44	192	5
TAP	44	288	3
TAP	44	288	5
STR	45	0	6
SI_	45	0	6	96	96	1
STR	45	192	2
SI_	45	192	2	96	96	5
TAP	46	0	6
TAP	46	96	6
BRK	46	192	5
BRK	46	192	7
HLD	47	0	2	96
TAP	47	96	3
TAP	47	192	3
TAP	47	192	4
TAP	47	288	4
TAP	47	288	6
HLD	48	0	5	96
TAP	48	96	4
TAP	48	192	3
TAP	48	192	4
TAP	48	288	1
TAP	48	288	3
STR	49	0	0
SXL	49	0	0	96	384	4
TAP	50	192	5
STR	51	0	4
SXL	51	0	4	96	384	0
TAP	52	192	1
BRK	53	0	3
BRK	53	0	4
HLD	54	0	2	192
HLD	54	192	3	192
TAP	55	0	4
TAP	55	96	4
TAP	55	192	4
TAP	55	192	5
HLD	56	0	4	192
HLD	56	192	2	384
HLD	57	0	3	192
BRK	57	288	1
BRK	57	288	4
HLD	58	0	1	96
HLD	58	96	2	96
HLD	58	192	3	96
HLD	58	288	4	96
TAP	59	0	3
TAP	59	96	3
TAP	59	96	4
TAP	59	192	2
TAP	59	192	5
HLD	60	0	5	96
HLD	60	96	4	96
HLD	60	192	3	96
HLD	60	288	2	96
TAP	61	0	3
TAP	61	96	2
TAP	61	96	3
TAP	61	192	1
TAP	61	192	4
HLD	62	0	2	96
TAP	62	96	3
HLD	62	192	4	96
TAP	62	288	3
HLD	63	0	1	96
TAP	63	96	3
TAP	63	192	2
TAP	63	288	3
TAP	63	288	4
HLD	64	0	5	96
TAP	64	96	4
HLD	64	192	3	96
TAP	64	288	4
HLD	65	0	6	96
TAP	65	96	4
HLD	65	192	2	96
HLD	65	192	5	96
TAP	66	0	3
TAP	66	48	3
TAP	66	96	3
TAP	66	192	5
TAP	66	240	5
TAP	66	288	5
TAP	67	0	1
TAP	67	48	1
TAP	67	96	1
TAP	67	192	7
TAP	67	240	7
STR	67	288	7
SF_	67	288	7	96	240	3
HLD	69	0	2	192
HLD	69	0	4	192
BRK	69	288	1
BRK	69	288	5
TAP	70	0	2
TAP	70	48	2
TAP	70	96	1
TAP	70	96	3
TAP	70	192	0
TAP	70	192	7
TAP	70	288	1
TAP	70	288	6
TAP	71	0	5
TAP	71	48	5
TAP	71	96	4
TAP	71	96	6
TAP	71	192	0
TAP	71	192	7
TAP	71	288	1
TAP	71	288	6
TAP	72	0	5
TAP	72	48	5
TAP	72	96	4
TAP	72	192	2
TAP	72	240	2
STR	72	288	3
SI_	72	288	3	96	144	0
SI_	72	288	3	96	144	6
TAP	73	288	7
TAP	74	0	5
TAP	74	48	5
TAP	74	96	4
TAP	74	96	5
TAP	74	192	3
TAP	74	192	6
TAP	74	288	0
TAP	74	288	7
TAP	75	0	1
TAP	75	48	1
TAP	75	96	0
TAP	75	96	1
TAP	75	192	2
TAP	75	192	7
STR	75	288	1
SLR	75	288	1	96	288	0
STR	75	288	6
SLL	75	288	6	96	288	7
TAP	77	0	0
TAP	77	0	1
TAP	77	96	6
TAP	77	96	7
BRK	77	192	0
BRK	77	192	5
STR	78	0	1
SI_	78	0	1	96	96	6
STR	78	192	5
SI_	78	192	5	96	96	2
TAP	79	0	1
TAP	79	96	1
TAP	79	192	0
TAP	79	192	7
TAP	79	288	0
TAP	79	288	7
TAP	80	0	1
TAP	80	48	1
TAP	80	96	7
TAP	80	144	7
TAP	80	192	0
TAP	80	240	0
STR	80	288	7
SI_	80	288	7	96	144	2
SI_	80	288	7	96	144	4
TAP	81	288	3
TAP	81	288	5
TAP	82	0	6
TAP	82	48	6
TAP	82	96	7
TAP	82	144	7
TAP	82	192	5
TAP	82	240	5
TAP	82	288	4
TAP	82	288	6
TAP	83	0	2
TAP	83	48	2
TAP	83	96	3
TAP	83	144	3
TAP	83	192	1
TAP	83	240	1
TAP	83	288	0
TAP	83	288	2
TAP	84	0	1
TAP	84	48	2
TAP	84	96	3
TAP	84	144	4
TAP	84	192	5
TAP	84	240	6
TAP	84	288	7
TAP	84	336	0
HLD	85	0	1	192
HLD	85	0	6	192
BRK	85	288	7
HLD	86	0	1	192
HLD	86	192	0	192
TAP	87	0	1
TAP	87	96	2
TAP	87	192	3
TAP	87	192	6
HLD	88	0	5	192
HLD	88	192	4	192
STR	89	0	3
SCL	89	0	3	96	1056	5

T_REC_TAP	283
T_REC_BRK	16
T_REC_XTP	0
T_REC_HLD	64
T_REC_XHO	0
T_REC_STR	21
T_REC_BST	0
T_REC_XST	0
T_REC_TTP	0
T_REC_THO	0
T_REC_SLD	23
T_REC_ALL	407
T_NUM_TAP	304
T_NUM_BRK	16
T_NUM_HLD	64
T_NUM_SLD	23
T_NUM_ALL	407
T_JUDGE_TAP	320
T_JUDGE_HLD	158
T_JUDGE_SLD	23
T_JUDGE_ALL	501
TTM_EACHPAIRS	106
TTM_SCR_TAP	152000
TTM_SCR_BRK	41600
TTM_SCR_HLD	64000
TTM_SCR_SLD	34500
TTM_SCR_ALL	292100
TTM_SCR_S	281800
TTM_SCR_SS	290500
TTM_RAT_ACV	10055

