VERSION	0.00.00	1.03.00
FES_MODE	0
BPM_DEF	230.000	230.000	230.000	230.000
MET_DEF	4	4
RESOLUTION	384
CLK_DEF	384
COMPATIBLE_CODE	MA2

BPM	0	0	230.000
MET	0	0	4	4
MET	18	0	4	6
MET	19	192	4	5
MET	20	288	4	6
MET	22	96	4	5
MET	23	192	4	6
MET	25	0	4	5
MET	26	96	4	6
MET	29	96	4	7
MET	36	96	4	3
MET	37	288	4	2
MET	38	96	4	7
MET	43	192	4	6
MET	45	0	4	3
MET	45	288	4	4
MET	61	288	4	3
MET	62	192	4	4
MET	94	192	4	5
MET	99	192	8	11
MET	102	96	8	6
MET	103	0	4	2
MET	103	192	8	3
MET	105	144	8	5
MET	106	0	4	2
MET	106	192	4	7
MET	120	192	4	5
MET	131	288	4	6

TAP	2	0	4
HLD	2	0	5	192
HLD	2	192	6	192
HLD	3	0	7	192
STR	3	192	0
SXL	3	192	0	96	480	5
HLD	4	0	7	384
TAP	5	192	3
TAP	5	256	4
TAP	5	320	3
HLD	6	0	2	384
STR	6	0	5
SCR	6	0	5	96	288	4
TAP	7	192	5
TAP	7	288	4
HLD	8	0	1	192
STR	8	0	3
SUR	8	0	3	96	192	0
STR	9	0	4
SUL	9	0	4	96	192	7
HLD	9	0	6	192
TAP	10	0	0
HLD	10	0	7	192
HLD	10	192	6	192
HLD	11	0	5	192
STR	11	192	4
SSL	11	192	4	96	672	0
HLD	12	0	7	576
HLD	14	0	0	576
STR	14	0	6
SXL	14	0	6	96	480	3
STR	15	288	3
SI_	15	288	3	96	1056	7
TAP	15	336	3
HLD	16	0	3	960
TAP	19	0	2
TAP	19	0	3
TAP	19	96	2
TAP	19	144	3
TAP	19	192	2
TAP	19	288	1
TAP	19	288	4
TAP	20	0	2
TAP	20	48	4
TAP	20	96	3
TAP	20	144	5
TAP	20	192	4
TAP	20	192	6
TAP	20	288	5
TAP	20	336	4
TAP	21	0	5
TAP	21	96	2
TAP	21	96	4
TAP	21	192	3
TAP	21	192	6
TAP	21	288	1
TAP	21	288	4
TAP	22	0	2
TAP	22	48	3
TAP	22	96	2
TAP	22	192	1
TAP	22	192	3
TAP	22	288	2
TAP	22	336	4
TAP	23	0	3
TAP	23	48	5
TAP	23	96	4
TAP	23	96	6
TAP	23	144	4
TAP	23	144	6
TAP	23	240	1
TAP	23	240	3
STR	23	288	1
SI_	23	288	1	96	48	5
TAP	23	288	3
TAP	24	0	6
TAP	24	96	4
TAP	24	96	7
TAP	24	192	4
TAP	24	192	5
TAP	24	288	5
TAP	24	336	4
TAP	25	0	5
TAP	25	96	3
TAP	25	96	6
TAP	25	192	5
TAP	25	240	3
TAP	25	288	4
TAP	25	336	2
TAP	26	0	1
TAP	26	0	3
TAP	26	96	2
TAP	26	144	3
TAP	26	192	2
TAP	26	288	3
TAP	26	288	5
TAP	27	0	1
TAP	27	0	4
TAP	27	96	3
TAP	27	96	6
TAP	27	192	5
TAP	27	240	4
TAP	27	288	5
TAP	28	0	4
TAP	28	0	6
TAP	28	96	5
TAP	28	144	3
TAP	28	192	4
TAP	28	240	2
HLD	28	288	3	96
HLD	29	0	1	96
TAP	29	96	6
TAP	29	144	2
TAP	29	144	5
HLD	29	192	3	192
HLD	29	192	4	192
TAP	30	96	0
TAP	30	96	7
TAP	30	192	3
TAP	30	240	3
TAP	30	240	6
TAP	30	336	4
TAP	31	0	1
TAP	31	0	4
TAP	31	48	2
TAP	31	96	3
TAP	31	144	4
TAP	31	192	5
TAP	31	240	4
TAP	31	288	3
TAP	31	336	2
BRK	32	0	1
BRK	32	0	4
TAP	32	96	2
TAP	32	144	2
TAP	32	192	6
TAP	32	240	6
TAP	32	288	0
TAP	32	336	0
STR	33	0	6
SI_	33	0	6	96	48	2
STR	33	96	7
SCR	33	96	7	96	48	1
TAP	33	192	5
BRK	33	288	3
BRK	33	288	7
TAP	34	0	5
TAP	34	48	5
TAP	34	96	1
TAP	34	144	1
TAP	34	192	7
TAP	34	240	7
STR	34	288	1
SI_	34	288	1	96	48	5
STR	35	0	0
SCL	35	0	0	96	48	6
TAP	35	96	2
BRK	35	192	0
BRK	35	192	4
HLD	35	288	3	48
HLD	35	288	7	48
TAP	36	0	3
STR	36	0	7
SI_	36	0	7	96	48	3
TAP	36	144	0
TAP	36	192	1
TAP	36	240	2
TAP	36	288	5
TAP	36	336	4
TAP	37	0	3
TAP	37	48	4
TAP	37	96	5
TAP	37	144	3
HLD	37	144	6	96
TAP	37	240	7
HLD	37	288	0	96
TAP	37	288	5
TAP	38	0	6
TAP	38	48	1
HLD	38	48	5	96
TAP	38	144	4
HLD	38	192	3	96
TAP	38	192	6
TAP	38	288	7
TAP	38	320	3
TAP	38	352	7
TAP	39	0	3
TAP	39	32	7
TAP	39	64	3
BRK	39	96	2
BRK	39	96	6
TAP	39	192	5
TAP	39	240	5
TAP	39	288	2
TAP	39	336	2
TAP	40	0	7
TAP	40	48	7
STR	40	96	1
SI_	40	96	1	96	48	5
TAP	40	144	1
STR	40	192	7
SI_	40	192	7	96	48	4
TAP	40	288	0
BRK	41	0	2
BRK	41	0	6
TAP	41	96	3
TAP	41	144	3
TAP	41	192	5
TAP	41	240	5
TAP	41	288	1
TAP	41	336	1
STR	42	0	6
SI_	42	0	6	96	48	1
TAP	42	48	6
STR	42	96	3
SI_	42	96	3	96	48	7
TAP	42	192	5
BRK	42	288	0
BRK	42	288	4
TAP	43	0	2
TAP	43	48	2
TAP	43	96	5
TAP	43	144	5
TAP	43	192	0
TAP	43	240	0
STR	43	288	6
SI_	43	288	6	96	48	2
TAP	43	336	6
STR	44	0	0
SI_	44	0	0	96	48	3
TAP	44	96	7
TAP	44	192	1
TAP	44	192	5
TAP	44	240	2
BST	44	240	6
SI_	44	240	6	96	48	2
TAP	44	336	0
BST	45	0	1
SI_	45	0	1	96	48	4
TAP	45	96	4
BST	45	144	5
SI_	45	144	5	96	48	0
TAP	45	240	0
BST	45	288	1
SSR	45	288	1	96	216	5
STR	46	288	4
SCL	46	288	4	96	960	0
HLD	46	288	5	96
TAP	47	96	5
TAP	47	192	5
HLD	47	288	4	96
TAP	48	96	4
TAP	48	192	4
HLD	48	288	3	96
TAP	49	96	3
TAP	49	192	3
TAP	49	288	1
TAP	49	288	3
TAP	50	0	2
TAP	50	0	4
TAP	50	96	4
TAP	50	96	5
TAP	50	192	3
TAP	50	192	4
HLD	50	288	2	96
STR	50	288	3
SCR	50	288	3	96	576	7
TAP	51	96	2
TAP	51	192	2
HLD	51	288	1	96
TAP	52	96	1
TAP	52	192	1
STR	52	288	0
SCR	52	288	0	96	144	3
STR	52	288	7
SCL	52	288	7	96	144	4
TAP	53	240	4
HLD	53	256	3	80
TAP	53	336	4
TAP	54	0	3
TAP	54	48	2
TAP	54	96	7
TAP	54	144	0
TAP	54	192	1
TAP	54	240	2
BST	54	288	3
SCL	54	288	3	96	1056	5
BST	54	288	7
SXL	54	288	7	96	1056	4
TAP	58	96	0
TAP	58	96	7
TAP	58	144	0
TAP	58	144	7
BRK	58	192	1
BRK	58	192	6
TAP	58	288	0
TAP	58	288	4
TAP	59	0	2
TAP	59	0	3
TAP	59	48	2
TAP	59	96	0
TAP	59	96	2
TAP	59	144	2
TAP	59	192	2
TAP	59	192	3
TAP	59	288	3
TAP	59	288	7
TAP	60	0	4
TAP	60	0	5
TAP	60	48	5
TAP	60	96	5
TAP	60	96	7
TAP	60	144	5
TAP	60	192	4
TAP	60	192	5
HLD	60	288	1	96
HLD	60	288	3	96
HLD	61	48	6	96
HLD	61	48	7	96
HLD	61	192	0	96
HLD	61	192	3	96
HLD	61	336	2	96
HLD	61	336	6	96
HLD	62	96	0	96
HLD	62	96	4	96
BRK	62	240	3
BST	62	240	7
SCR	62	240	7	96	192	5
TAP	63	192	0
STR	63	192	1
SI_	63	192	1	96	48	4
TAP	63	288	0
STR	64	0	6
SI_	64	0	6	96	48	3
TAP	64	0	7
TAP	64	96	7
HLD	64	192	1	96
TAP	64	192	4
TAP	64	288	0
STR	64	336	2
SI_	64	336	2	96	48	0
STR	64	336	7
SI_	64	336	7	96	48	3
TAP	65	48	2
TAP	65	48	7
TAP	65	192	3
HLD	65	192	6	96
TAP	65	288	7
STR	65	336	0
SI_	65	336	0	96	48	4
STR	65	336	5
SI_	65	336	5	96	48	7
TAP	66	48	0
TAP	66	48	5
HLD	66	192	0	96
TAP	66	192	4
TAP	66	288	7
STR	66	336	1
SI_	66	336	1	96	48	4
STR	66	336	6
SI_	66	336	6	96	48	3
TAP	67	48	1
TAP	67	48	6
TAP	67	192	4
STR	67	192	5
SI_	67	192	5	96	48	0
TAP	67	288	4
STR	68	0	2
SI_	68	0	2	96	48	7
TAP	68	0	3
TAP	68	96	3
TAP	68	192	4
STR	68	192	5
SCR	68	192	5	96	48	0
TAP	68	288	4
STR	69	0	2
SCL	69	0	2	96	48	7
TAP	69	0	3
TAP	69	96	3
STR	69	192	5
SCL	69	192	5	96	96	2
STR	69	288	2
SCL	69	288	2	96	96	7
STR	70	0	7
SCL	70	0	7	96	96	4
STR	70	96	4
SXL	70	96	4	96	192	0
SXR	70	96	4	96	192	0
BRK	71	96	2
BRK	71	96	6
HLD	71	192	3	144
TAP	71	192	7
TAP	71	288	5
TAP	71	336	4
TAP	72	0	1
TAP	72	0	3
TAP	72	48	2
TAP	72	96	3
TAP	72	96	6
TAP	72	192	0
HLD	72	192	4	144
TAP	72	288	2
TAP	72	336	3
TAP	73	0	4
TAP	73	0	6
TAP	73	48	5
TAP	73	96	1
TAP	73	96	4
HLD	73	192	3	144
TAP	73	192	7
TAP	73	288	5
TAP	73	336	4
TAP	74	0	1
TAP	74	0	3
TAP	74	48	2
TAP	74	96	3
TAP	74	96	5
TAP	74	144	4
TAP	74	192	2
STR	74	192	3
SV_	74	192	3	96	48	6
TAP	74	288	0
STR	75	0	4
SV_	75	0	4	96	48	1
TAP	75	0	5
TAP	75	96	7
TAP	75	192	4
TAP	75	240	4
TAP	75	288	3
TAP	75	336	3
TAP	76	0	5
TAP	76	48	5
TAP	76	96	2
TAP	76	144	2
TAP	76	192	6
TAP	76	240	6
TAP	76	288	1
TAP	76	336	1
TAP	77	0	0
TAP	77	0	7
TAP	77	48	0
TAP	77	48	7
TAP	77	96	0
TAP	77	96	7
BRK	77	144	1
BRK	77	144	6
TAP	77	240	2
TAP	77	288	4
TAP	77	336	1
TAP	78	0	5
TAP	78	48	3
TAP	78	96	6
BRK	78	144	0
BRK	78	144	5
TAP	78	240	4
TAP	78	240	6
TAP	78	288	7
TAP	78	336	7
TAP	79	0	3
TAP	79	24	4
TAP	79	48	5
TAP	79	72	6
TAP	79	96	7
TAP	79	120	0
TAP	79	144	1
TAP	79	168	2
BST	79	192	3
SCL	79	192	3	96	384	5
BST	79	192	7
SXL	79	192	7	96	384	4
TAP	81	48	0
TAP	81	72	7
BRK	81	96	1
BRK	81	96	6
HLD	81	192	1	96
TAP	81	192	4
TAP	81	288	0
STR	81	336	2
SCL	81	336	2	96	48	0
STR	81	336	7
SUL	81	336	7	96	48	3
TAP	82	48	2
TAP	82	48	7
TAP	82	192	3
HLD	82	192	6	96
TAP	82	288	7
STR	82	336	0
SUR	82	336	0	96	48	4
STR	82	336	5
SCR	82	336	5	96	48	7
TAP	83	48	0
TAP	83	48	5
STR	83	192	2
SI_	83	192	2	96	48	7
TAP	83	192	3
TAP	83	288	3
TAP	84	0	4
STR	84	0	5
SI_	84	0	5	96	48	0
TAP	84	96	4
STR	84	192	2
SCL	84	192	2	96	48	7
TAP	84	192	3
TAP	84	288	3
TAP	85	0	4
STR	85	0	5
SCR	85	0	5	96	48	0
TAP	85	96	4
STR	85	192	2
SCR	85	192	2	96	96	5
STR	85	288	5
SCR	85	288	5	96	96	0
STR	86	0	0
SCR	86	0	0	96	96	3
STR	86	96	3
SXL	86	96	3	96	192	7
SXR	86	96	3	96	192	7
BRK	87	96	1
BRK	87	96	5
TAP	87	192	0
TAP	87	192	7
TAP	87	288	4
TAP	87	288	6
TAP	87	336	5
TAP	88	0	2
TAP	88	0	4
TAP	88	48	3
TAP	88	96	4
TAP	88	96	6
TAP	88	144	5
TAP	88	192	0
TAP	88	192	4
TAP	88	288	1
TAP	88	288	3
TAP	88	336	2
TAP	89	0	3
TAP	89	0	5
TAP	89	48	4
TAP	89	96	1
TAP	89	96	3
TAP	89	144	2
TAP	89	192	3
TAP	89	192	7
TAP	89	288	4
TAP	89	288	6
TAP	89	336	5
TAP	90	0	2
TAP	90	0	4
TAP	90	48	3
TAP	90	96	4
TAP	90	96	6
TAP	90	144	5
STR	90	192	0
SI_	90	192	0	96	48	5
TAP	90	192	4
TAP	90	288	6
TAP	91	0	3
STR	91	0	7
SI_	91	0	7	96	48	2
TAP	91	96	1
TAP	91	192	3
TAP	91	240	3
TAP	91	288	4
TAP	91	336	4
TAP	92	0	2
TAP	92	48	2
TAP	92	96	5
TAP	92	144	5
TAP	92	192	1
TAP	92	240	1
TAP	92	288	6
TAP	92	336	6
TAP	93	0	0
TAP	93	0	7
TAP	93	48	0
TAP	93	48	7
TAP	93	96	0
TAP	93	96	7
BRK	93	144	1
BRK	93	144	6
TAP	93	240	5
TAP	93	288	3
TAP	93	336	6
TAP	94	0	2
TAP	94	48	4
TAP	94	96	1
BRK	94	144	2
BRK	94	144	7
TAP	94	240	1
TAP	94	240	3
TAP	94	288	0
TAP	94	336	0
TAP	95	0	4
TAP	95	24	3
TAP	95	48	2
TAP	95	72	1
TAP	95	96	0
TAP	95	120	7
TAP	95	144	6
TAP	95	168	5
TAP	95	192	0
HLD	95	192	4	96
TAP	95	288	2
HLD	96	0	3	96
TAP	96	0	7
TAP	96	96	5
TAP	96	192	2
TAP	96	240	3
HLD	96	288	4	96
HLD	97	0	3	96
HLD	97	96	2	96
HLD	97	192	3	96
HLD	97	288	4	96
TAP	98	0	5
TAP	98	48	4
TAP	98	96	3
HLD	98	144	2	96
TAP	98	240	3
TAP	98	288	2
TAP	98	336	3
TAP	99	0	1
TAP	99	48	2
TAP	99	96	3
TAP	99	144	4
TAP	99	192	5
TAP	99	240	4
TAP	99	288	3
TAP	99	336	2
TAP	100	0	1
TAP	100	48	0
TAP	100	96	7
TAP	100	144	6
BRK	100	192	0
TAP	100	240	0
TAP	100	288	0
BRK	100	336	7
TAP	101	0	7
TAP	101	48	7
BRK	101	96	6
TAP	101	144	6
TAP	101	192	6
BRK	101	240	5
TAP	101	288	5
BRK	101	336	7
TAP	102	0	7
TAP	102	48	7
BRK	102	96	0
TAP	102	144	0
TAP	102	192	0
BRK	102	240	1
TAP	102	288	1
TAP	102	336	1
BRK	103	0	2
TAP	103	48	2
BRK	103	96	3
TAP	103	144	4
TAP	103	192	5
BRK	104	0	0
BRK	104	0	4
TAP	104	48	2
TAP	104	48	6
BRK	104	192	1
BRK	104	192	4
TAP	104	240	2
TAP	104	240	3
BRK	104	336	3
BRK	104	336	6
TAP	105	0	4
TAP	105	0	5
BRK	105	240	3
BRK	105	240	4
TAP	105	288	2
TAP	105	288	5
TAP	105	336	1
TAP	105	336	6
BRK	106	144	3
BRK	106	144	6
TAP	106	192	2
TAP	106	192	5
TAP	106	240	1
TAP	106	240	4
STR	106	288	0
SCR	106	288	0	96	96	3
STR	106	288	3
SCR	106	288	3	96	96	6
BST	107	192	1
SI_	107	192	1	96	96	3
BRK	107	192	7
STR	107	288	3
SI_	107	288	3	96	96	0
STR	108	0	0
SI_	108	0	0	96	96	4
STR	108	96	4
SI_	108	96	4	96	96	7
STR	108	192	7
SLL	108	192	7	96	144	2
TAP	108	288	5
TAP	109	0	7
TAP	109	96	0
STR	109	96	6
SI_	109	96	6	96	96	4
STR	109	192	4
SI_	109	192	4	96	96	7
STR	109	288	7
SI_	109	288	7	96	96	3
STR	110	0	3
SI_	110	0	3	96	96	0
STR	110	96	0
SLR	110	96	0	96	144	5
TAP	110	192	2
TAP	110	288	0
STR	111	0	2
SLR	111	0	2	96	192	1
TAP	111	0	7
TAP	111	96	4
STR	111	192	1
SI_	111	192	1	96	96	5
STR	111	288	5
SI_	111	288	5	96	96	0
STR	112	0	0
SLL	112	0	0	96	144	2
TAP	112	96	6
TAP	112	192	4
TAP	112	288	0
STR	112	288	5
SLL	112	288	5	96	192	6
TAP	113	0	3
STR	113	96	6
SI_	113	96	6	96	96	2
STR	113	192	2
SI_	113	192	2	96	96	7
TAP	113	288	7
STR	114	0	0
SF_	114	0	0	96	48	4
BRK	114	192	2
BRK	114	192	6
TAP	114	288	5
TAP	114	336	3
TAP	115	0	4
TAP	115	48	2
STR	115	96	1
SI_	115	96	1	96	48	5
TAP	115	96	3
STR	115	192	0
SI_	115	192	0	96	48	4
STR	115	288	7
SI_	115	288	7	96	48	3
TAP	116	0	6
TAP	116	96	1
TAP	116	96	4
TAP	116	192	2
TAP	116	240	4
TAP	116	288	3
TAP	116	336	5
TAP	117	0	4
STR	117	0	6
SI_	117	0	6	96	48	2
STR	117	96	7
SI_	117	96	7	96	48	3
STR	117	192	0
SI_	117	192	0	96	48	4
TAP	117	288	1
TAP	118	0	2
TAP	118	0	3
TAP	118	96	0
TAP	118	96	7
TAP	118	144	6
TAP	118	192	4
TAP	118	192	5
TAP	118	240	3
STR	118	288	2
SI_	118	288	2	96	48	0
STR	119	0	3
SI_	119	0	3	96	48	7
STR	119	96	4
SI_	119	96	4	96	48	6
TAP	119	192	0
TAP	119	288	4
TAP	119	288	5
TAP	120	0	0
TAP	120	0	7
TAP	120	48	1
TAP	120	96	2
TAP	120	96	3
TAP	120	144	4
STR	120	192	5
SI_	120	192	5	96	48	7
STR	120	288	4
SI_	120	288	4	96	48	0
STR	121	0	3
SI_	121	0	3	96	48	1
TAP	121	96	7
TAP	121	192	0
TAP	121	192	5
TAP	121	240	0
HLD	121	240	5	96
TAP	121	336	4
TAP	122	0	5
TAP	122	48	4
TAP	122	96	3
TAP	122	96	6
TAP	122	192	1
TAP	122	192	4
TAP	122	288	2
TAP	122	288	7
HLD	122	336	2	96
TAP	122	336	7
TAP	123	48	3
TAP	123	96	2
TAP	123	144	3
TAP	123	192	1
TAP	123	192	4
TAP	123	288	3
TAP	123	288	6
TAP	124	0	1
TAP	124	0	4
HLD	124	48	1	96
TAP	124	48	4
TAP	124	144	0
TAP	124	192	1
TAP	124	240	0
TAP	124	288	2
TAP	124	288	7
TAP	125	0	0
TAP	125	0	5
TAP	125	96	3
TAP	125	96	6
TAP	125	144	3
HLD	125	144	6	96
TAP	125	240	7
TAP	125	288	6
TAP	125	336	7
TAP	126	0	0
TAP	126	0	5
TAP	126	96	2
TAP	126	96	7
TAP	126	192	0
STR	126	192	7
SI_	126	192	7	96	48	3
STR	126	288	7
SCR	126	288	7	96	48	2
STR	127	0	7
SCL	127	0	7	96	48	4
STR	127	96	7
SF_	127	96	7	96	48	3
TAP	127	192	7
STR	127	288	0
SI_	127	288	0	96	48	4
TAP	127	288	7
STR	128	0	0
SCL	128	0	0	96	48	5
STR	128	96	0
SCR	128	96	0	96	48	3
STR	128	192	0
SF_	128	192	0	96	48	4
TAP	128	288	0
TAP	129	0	2
TAP	129	0	6
TAP	129	96	0
TAP	129	144	0
TAP	129	192	1
TAP	129	192	7
TAP	129	240	1
TAP	129	240	7
TAP	129	288	2
TAP	129	288	6
TAP	129	336	2
TAP	129	336	6
TAP	130	0	3
TAP	130	0	5
TAP	130	48	3
TAP	130	48	5
TAP	130	96	4
TAP	130	120	5
TAP	130	144	6
TAP	130	168	7
TAP	130	192	0
TAP	130	216	1
TAP	130	240	2
TAP	130	264	3
TAP	130	288	4
TAP	130	312	5
TAP	130	336	6
TAP	130	360	7
TAP	131	0	3
TAP	131	24	2
TAP	131	48	1
TAP	131	72	0
TAP	131	96	7
TAP	131	120	6
TAP	131	144	5
HLD	131	168	4	312
TAP	132	96	5
TAP	132	128	6
TAP	132	160	7
TAP	132	192	0
TAP	132	224	1
TAP	132	256	2
STR	132	288	3
SXL	132	288	3	96	480	0
TAP	132	288	4
STR	134	96	4
SXR	134	96	4	96	480	7
STR	135	288	1
SXR	135	288	1	96	384	6
TAP	136	0	6
TAP	136	96	5
TAP	136	192	4
TAP	136	288	3
TAP	137	0	4
TAP	137	96	5
TAP	137	144	5
TAP	137	192	2
TAP	137	240	2
TAP	137	288	4
TAP	137	336	4
TAP	138	0	2
TAP	138	24	5
TAP	138	48	2
TAP	138	72	5
TAP	138	96	1
TAP	138	120	6
TAP	138	144	1
TAP	138	168	6
STR	138	192	0
SI_	138	192	0	96	48	4
TAP	138	216	7
TAP	138	240	0
TAP	138	264	7

T_REC_TAP	600
T_REC_BRK	51
T_REC_XTP	0
T_REC_HLD	60
T_REC_XHO	0
T_REC_STR	98
T_REC_BST	10
T_REC_XST	0
T_REC_TTP	0
T_REC_THO	0
T_REC_SLD	110
T_REC_ALL	929
T_NUM_TAP	698
T_NUM_BRK	61
T_NUM_HLD	60
T_NUM_SLD	110
T_NUM_ALL	929
T_JUDGE_TAP	759
T_JUDGE_HLD	196
T_JUDGE_SLD	110
T_JUDGE_ALL	1065
TTM_EACHPAIRS	190
TTM_SCR_TAP	349000
TTM_SCR_BRK	158600
TTM_SCR_HLD	60000
TTM_SCR_SLD	165000
TTM_SCR_ALL	732600
TTM_SCR_S	704750
TTM_SCR_SS	726500
TTM_RAT_ACV	10083

